#TITLE:Taito no Suika;
#SUBTITLE:;
#ARTIST:bermei.inazawa/feat. Shimoduki Haruka;
#TITLETRANSLIT:;
#SUBTITLETRANSLIT:;
#ARTISTTRANSLIT:;
#GENRE:;
#CREDIT:;
#MENUCOLOR:;
#NEWMETERSYSTEM:NO;
#BANNER:Taito no Suika-bn.png;
#BACKGROUND:Taito no Suika-bg.png;
#LYRICSPATH:;
#CDTITLE:MixMania II CD Title.png;
#MUSIC:Taito no Suika.mp3;
#OFFSET:-1.780;
#SAMPLESTART:24.420;
#SAMPLELENGTH:12.000;
#SELECTABLE:YES;
#LISTSORT:;
#BPMS:0.000=180.000,228.000=90.000,260.000=180.000;
#STOPS:228.000=2.660
;
#BGCHANGES:;
#ATTACKS:;

//---------------dance-single - ----------------
#NOTES:
     dance-single:
     :
     Easy:
     2:
     0.195,0.275,0.091,0.264,0.000:
0000
0000
0000
0000
,
0000
0000
0000
0000
,
0000
0000
0000
0000
,
1001
0000
0000
0000
,
0100
0000
0100
0000
,
1001
0000
0000
0000
,
0010
0000
0001
0000
,
1001
0000
0010
0000
,
1000
0000
0100
0010
,
0200
0000
0000
0000
,
0000
0000
0000
0000
,
2300
0000
0000
0000
,
3000
0000
0000
0100
,
0010
0000
0100
0000
,
0000
0000
0001
0000
,
1000
0000
0000
0100
,
0100
0000
1000
0000
,
0001
0000
1000
0100
,
1000
0000
0000
0000
,
0100
0000
0010
0000
,
0001
0000
1000
0001
,
0010
0000
0001
0000
,
0100
0000
1000
0000
,
0100
0000
0010
0000
,
1000
0000
0001
1000
,
0002
0000
0000
0000
,
1000
0000
0000
0000
,
2003
0000
0000
0000
,
0100
0000
0000
0010
,
3020
0000
0000
0000
,
0100
0000
0000
0100
,
0230
0000
0000
0000
,
0010
0000
0000
0000
,
0301
0000
0001
0000
,
1000
0000
1000
0000
,
0100
0000
0010
0000
,
0100
0100
0100
1000
,
0100
0000
0001
0000
,
0100
0000
1000
0000
,
0100
0000
0010
0000
,
0001
0000
1000
0000
,
1002
0003
0020
0030
,
0200
0000
1000
0000
,
1000
0000
0000
0300
,
2000
3000
0200
0300
,
0002
0000
0000
0003
,
0020
0030
0002
0003
,
0200
0300
0020
0030
,
2000
3000
0200
0300
,
0002
0000
0100
0000
,
1000
0000
1000
0003
,
0020
0000
0100
0000
,
1000
0000
0100
0030
,
0200
0000
0001
0000
,
0001
0300
2000
3000
,
0020
0000
0000
0000
,
0030
0000
0100
0000
,
1001
0000
0020
0030
,
0100
1000
0200
0300
,
0001
1000
0001
0000
,
1000
0010
1000
0000
,
1001
0000
0010
0000
,
0100
0010
0001
0000
,
1001
0000
0001
0000
,
1000
0001
1000
0000
,
2002
0000
0000
0000
,
0000
0000
0000
3003
,
0220
0000
0000
0000
,
0000
0000
0000
0330
,
0001
0000
0100
0000
,
1000
0000
0000
0100
,
0100
0000
0010
0000
,
0001
0000
0000
0000
,
0220
0000
0000
0000
,
0000
0000
0000
0330
,
2002
0000
0000
0000
,
0000
0000
0000
3003
,
1000
0100
0000
0010
,
0000
0010
0000
2000
,
0000
0000
0000
0000
,
0002
0000
0000
3003
,
1001
0000
0000
0000
;

//---------------dance-single - Copied from----------------
#NOTES:
     dance-single:
     Copied from:
     Beginner:
     1:
     0.104,0.153,0.023,0.106,0.000:
0000
0000
0000
0000
,
0000
0000
0000
0000
,
0000
0000
0000
0000
,
0000
0000
0000
0000
,
0100
0000
0100
0000
,
0200
0000
0300
0000
,
0010
0000
0010
0000
,
0010
0000
0001
0000
,
0010
0000
0001
0000
,
0002
0000
0000
0000
,
0000
0000
0003
0000
,
0020
0000
0000
0000
,
0030
0000
0100
0000
,
0200
0000
0000
0000
,
0300
0000
1000
0000
,
0200
0000
0000
0000
,
0000
0000
0300
0000
,
0001
0000
0001
0000
,
0001
0000
0000
0000
,
1000
0000
0000
0000
,
0100
0000
0100
0000
,
0100
0000
0000
0000
,
1000
0000
0010
0000
,
0100
0000
0001
0000
,
0010
0000
0001
0000
,
0010
0000
0000
0000
,
0000
0000
0000
0000
,
0100
0000
0000
0000
,
0000
0000
1000
0000
,
1000
0000
0000
0000
,
0000
0000
0001
0000
,
0001
0000
0000
0000
,
0000
0000
0000
0000
,
0010
0000
0000
0000
,
0010
0000
0000
0000
,
0100
0000
0000
0000
,
1000
0000
0000
0000
,
0001
0000
0000
0000
,
0010
0000
0000
0000
,
0001
0000
0000
0000
,
2000
0000
3000
0000
,
1100
0000
0000
0000
,
1000
0000
0000
0000
,
0010
0000
0000
0000
,
0001
0000
0001
0000
,
0010
0000
0000
0000
,
1000
0000
0100
0000
,
0001
0000
0100
0000
,
1000
0000
0000
0000
,
0020
0000
0000
0000
,
0030
0000
0000
0000
,
0200
0000
0000
0000
,
0300
0000
1000
0000
,
0200
0000
0000
0000
,
0300
0000
0001
0000
,
0002
0000
0000
0000
,
0003
0000
0000
0000
,
0010
0000
0100
0000
,
1000
0000
0001
0000
,
0010
0000
0010
0000
,
0100
0000
0100
0000
,
1000
0000
0000
0000
,
0001
0000
0000
0000
,
0110
0000
0000
0000
,
1001
0000
0010
0000
,
0020
0000
0000
0000
,
0000
0000
0000
0000
,
0000
0000
0000
0000
,
0030
0000
0000
0000
,
2000
0000
0000
0000
,
0000
0000
0000
0000
,
0000
0000
0000
0000
,
3000
0000
0000
0000
,
0002
0000
0000
0000
,
0000
0000
0000
0000
,
0000
0000
0000
0000
,
0003
0000
0000
0000
,
0000
0001
0000
1000
,
0000
0001
0000
0020
,
0000
0000
0000
0000
,
0000
0000
0000
0000
,
0030
0000
0000
0000
;

//---------------dance-single - Copied from----------------
#NOTES:
     dance-single:
     Copied from:
     Medium:
     5:
     0.363,0.459,0.045,0.264,0.000:
0000
0000
0000
0000
,
0000
0000
0000
0000
,
0000
0000
0000
0000
,
1000
0000
0000
0000
,
0100
0000
0001
0000
,
0010
0000
0000
0000
,
0100
0000
1000
0000
,
0100
0000
0010
0000
,
0001
0000
0000
0000
1000
0000
0001
1000
,
0001
0000
0001
1000
0000
0000
0000
0000
,
0100
0000
0000
0000
,
0010
0000
1000
0000
,
0100
0000
0000
0000
0000
0001
1000
0001
,
1000
0000
1000
0100
0000
0000
0000
0000
,
1000
0000
0000
0000
0000
0100
0001
1000
,
0010
0000
0001
1000
,
0001
0000
1000
0000
0001
1000
0010
0000
,
0100
0001
1000
0100
,
0002
0000
1000
0100
,
1003
0100
1000
0010
,
0200
1000
2300
0010
,
3010
0100
0001
1000
,
0100
1000
0010
0100
,
0001
0000
1000
0000
0100
0000
1000
0010
,
0100
0000
0001
0000
1000
0000
0100
0001
,
0010
0000
0010
0001
0000
0000
0100
0000
,
0001
1000
0010
1000
,
0100
0000
0100
1000
0100
0000
1000
0000
,
0100
0000
0010
0000
0001
0000
0100
0010
,
0001
0100
0001
1000
,
0010
0100
0010
0100
,
1000
0100
0010
0001
,
1000
0000
0100
0000
0010
0001
1000
0000
,
0100
0000
1000
0100
,
0001
0000
0010
0001
,
0100
0000
0010
1000
,
0100
0000
1000
0000
0001
0000
1000
0001
,
1000
0010
0100
1000
,
0100
0010
0001
1000
,
0001
1000
0010
0100
,
0010
0100
0220
0330
,
1001
0000
0100
1000
0100
0000
0010
0000
,
0001
0100
0001
1000
,
0010
0000
0100
0000
0010
0000
1000
0100
,
1000
0100
0010
0001
,
1000
0001
0100
0010
,
0002
1000
2003
0100
,
3020
0100
0230
0001
,
0302
1000
2003
3100
,
1100
0000
0100
0001
0000
0000
0010
0000
,
0001
0100
0001
1000
,
0010
0000
0100
0000
0000
1000
0100
0000
,
1000
0000
0100
0000
0010
0000
0001
1000
,
0001
0100
0010
0001
,
0100
0010
1000
0100
,
0001
0100
1000
0010
,
0100
0001
0010
0001
,
1001
0000
0100
1000
0200
0000
0300
0000
,
0010
0000
0001
1000
0020
0000
0030
0000
,
0001
2000
3200
0320
,
0032
2003
3002
0003
,
1001
0000
0020
0000
0032
0000
0000
0010
,
0023
0000
0230
0000
2300
0000
3000
1000
,
1000
0200
2300
3200
,
0320
0000
0032
0000
0023
0000
0030
0001
,
1001
0000
0010
0000
0100
0000
1000
0001
,
0010
0001
1000
0000
,
0001
0000
1000
0000
0010
0000
0100
0010
,
0100
0001
1000
0000
,
0100
0000
1000
0000
0100
0000
0010
0001
,
0010
0100
0001
0000
,
1000
0000
0001
0000
1000
0000
0010
0100
,
0010
1000
0001
0000
,
0100
0000
0010
0000
0001
0000
1000
0001
,
1000
0100
1000
0000
,
0001
0000
0100
0000
0010
0000
1000
0010
,
1000
0100
0010
0000
,
0001
2000
3010
2000
,
3100
2000
3010
2000
,
3001
0000
0100
0000
0010
0001
0010
0100
,
0020
0000
0000
0000
,
0130
0000
0000
0000
;

//---------------dance-single - Copied from Copied f----------------
#NOTES:
     dance-single:
     Copied from Copied f:
     Hard:
     7:
     0.407,0.459,0.151,0.060,0.030: // measure 1
0000
0000
0000
0000
,  // measure 2
0000
0000
0000
0000
,  // measure 3
0000
0000
0000
0000
,  // measure 4
1001
0000
0000
0000
,  // measure 5
0010
0001
0100
0001
,  // measure 6
1001
0000
0000
0000
,  // measure 7
0100
0000
1000
0000
,  // measure 8
1001
0000
0001
0000
,  // measure 9
0010
0000
0000
0000
0010
0000
0001
0100
,  // measure 10
0001
0000
1000
0001
0000
0000
0000
0000
,  // measure 11
0100
0000
0100
0000
,  // measure 12
1001
0000
0000
0000
,  // measure 13
0000
0000
0000
0000
0010
0001
0010
0001
,  // measure 14
0100
0000
0100
1000
0000
0000
0000
0000
,  // measure 15
0001
0000
0000
0000
0000
1000
0100
1000
,  // measure 16
0010
0000
0000
0000
0000
0100
0001
0010
,  // measure 17
0100
1000
0100
1000
0100
0010
0001
0000
,  // measure 18
1000
0000
0100
0001
0000
0001
0010
0100
,  // measure 19
1000
0000
0010
0000
0000
1001
0000
0000
,  // measure 20
0100
0000
0011
0000
0000
0010
1000
0000
,  // measure 21
0100
0000
1000
0000
0010
0001
0010
0100
,  // measure 22
0001
0000
1000
0100
0000
1000
0100
1000
,  // measure 23
0000
0000
0000
0000
0000
0010
0001
0010
,  // measure 24
0001
0000
1000
0000
0000
0100
0010
0001
,  // measure 25
1000
0000
0100
0000
1000
0010
1000
0100
,  // measure 26
1000
0000
0000
0100
0000
0000
0010
0000
,  // measure 27
0001
0000
0100
0000
0000
1001
0000
0000
,  // measure 28
0100
0000
1000
0000
0000
0100
0010
0000
,  // measure 29
0001
0000
1000
0000
0100
0001
0010
0001
,  // measure 30
0100
0000
1000
0100
0000
1000
0001
1000
,  // measure 31
0000
0000
0000
0000
0000
0100
0010
0001
,  // measure 32
0010
0000
0100
0000
0000
0001
1000
0000
,  // measure 33
0100
0001
0100
0010
,  // measure 34
0100
1000
0100
0010
,  // measure 35
0001
0000
0100
0000
0010
0000
0001
1000
,  // measure 36
0100
0000
1000
0000
0000
0100
0010
0000
,  // measure 37
0000
0000
0100
0000
0001
1000
0001
1000
,  // measure 38
0010
0100
1000
0100
,  // measure 39
0010
0000
0001
0000
1000
0001
1000
0010
,  // measure 40
0100
0001
1000
0010
,  // measure 41
0100
0001
2002
3003
,  // measure 42
1100
0000
1000
0000
0100
0000
0010
0001
,  // measure 43
0100
0010
0100
1000
,  // measure 44
0001
0000
1000
0000
0100
1000
0010
0100
,  // measure 45
0010
0000
0001
0000
0100
0000
0001
1000
,  // measure 46
0001
0010
0100
0001
,  // measure 47
1000
0100
0010
1000
,  // measure 48
0100
0000
0100
0001
0010
0000
0010
0000
,  // measure 49
0100
0000
0100
0010
1000
0000
1000
0100
,  // measure 50
1000
0000
1000
0100
0000
0000
0010
0000
,  // measure 51
0100
0000
0001
0000
0010
0001
0010
0000
,  // measure 52
0010
0000
0001
1000
0000
0001
1000
0000
,  // measure 53
0100
0010
1001
0100
,  // measure 54
0011
0000
0100
0010
1000
0000
0100
0000
,  // measure 55
1000
0010
1010
0100
,  // measure 56
0011
0000
0100
0010
0001
0000
0100
0000
,  // measure 57
0010
0000
0001
0000
1000
0001
1000
0001
,  // measure 58
1001
0000
0000
0010
0001
0000
0100
0000
0010
0000
0000
0000
0000
0000
0100
0000
,  // measure 59
0001
0000
0000
0010
1000
0000
0100
0000
1000
0000
0000
0000
0000
0000
0100
0000
,  // measure 60
1000
0000
0000
0100
0001
0000
0010
0000
0100
0000
0000
0000
0010
0000
0000
0000
,  // measure 61
0001
0000
0000
0100
0010
0000
0001
0000
0010
0000
0000
0000
0000
0000
0001
0000
,  // measure 62
1000
0000
0000
1000
0001
0000
0010
0000
0100
0000
0000
0000
0000
0000
1000
0000
,  // measure 63
0010
0000
0000
0010
0001
0000
0010
0000
0100
0000
0000
0000
0000
0000
0010
0000
,  // measure 64
0100
0000
0000
0100
1000
0000
0100
0000
0001
0000
0000
0000
0000
0000
0001
0000
,  // measure 65
0010
0000
0000
0010
0100
0000
0100
0000
1000
0000
0000
0000
0000
0000
0001
0000
,  // measure 66
1000
0000
0100
1000
0100
0000
0100
0000
,  // measure 67
1000
0000
0100
1000
0100
0000
0010
0000
,  // measure 68
0001
0000
0001
0010
0001
0000
0010
0000
,  // measure 69
0001
0000
0001
0010
0001
0000
0010
0000
,  // measure 70
0100
0000
0010
0100
0010
0000
0100
0000
,  // measure 71
0100
0000
0010
0100
0010
0000
0100
0000
,  // measure 72
0010
0000
0001
0010
0001
0000
1000
0000
,  // measure 73
0100
0000
1000
0100
1000
0000
0010
0000
,  // measure 74
1001
0000
0100
0001
1000
0000
0100
0000
,  // measure 75
1000
0000
0010
1000
0100
0000
1000
0000
,  // measure 76
0001
0000
0100
0001
0010
0000
0100
0000
,  // measure 77
1000
0000
0010
1000
0100
0000
0001
0000
,  // measure 78
0010
1002
0103
2001
,  // measure 79
3010
1002
0103
2001
,  // measure 80
3010
0000
0001
0000
0100
0001
1000
0000
,  // measure 81
2200
0000
0000
0300
,  // measure 82
3100
0000
0000
0000
;

//---------------dance-single - Copied from Copied f----------------
#NOTES:
     dance-single:
     Copied from Copied f:
     Challenge:
     8:
     0.496,0.673,0.272,0.151,0.038: // measure 1
0000
0000
0000
0000
,  // measure 2
0000
0000
0000
0000
,  // measure 3
0000
0000
0000
0000
,  // measure 4
0220
0000
0000
0000
0000
0330
0000
0000
,  // measure 5
1000
0001
0100
1000
,  // measure 6
0011
0000
0000
0000
,  // measure 7
0100
0000
0001
0000
,  // measure 8
1010
0000
0100
0000
,  // measure 9
1000
0000
0000
0000
0100
0001
1000
0100
,  // measure 10
0010
0000
0010
0001
0000
0000
0000
0000
,  // measure 11
0100
0000
0100
0000
,  // measure 12
1001
0000
0000
0000
,  // measure 13
0010
0000
0000
0000
0000
0100
0010
0100
,  // measure 14
0010
0000
0010
0001
0000
0000
0000
0000
,  // measure 15
0110
0000
0000
0000
0000
1000
0100
0010
,  // measure 16
0002
0000
0000
0003
0000
1000
0100
1000
,  // measure 17
0010
0100
0010
1000
0001
0010
0100
0010
,  // measure 18
0001
0000
0000
0100
1000
0100
0010
0100
,  // measure 19
0010
0001
0000
0000
0000
1001
0000
0000
,  // measure 20
0100
0000
1000
0000
0100
0010
0001
0000
,  // measure 21
0100
0000
0001
0000
0010
1000
0100
1000
,  // measure 22
0010
0000
0100
1000
0000
1000
0100
0010
,  // measure 23
0001
0000
1000
0000
0100
0001
0010
0001
,  // measure 24
0100
0000
0010
1000
0000
0100
1000
0010
,  // measure 25
0100
0000
1000
0000
0100
0010
0001
0010
,  // measure 26
0100
0000
0001
1000
0000
1000
0100
0010
,  // measure 27
0001
0000
1000
0000
0000
0011
0000
0000
,  // measure 28
0100
0000
1001
0000
0001
1000
0010
0000
,  // measure 29
0001
0000
1000
0000
0001
0010
0100
1000
,  // measure 30
0100
0000
1000
0100
0000
0010
0001
0010
,  // measure 31
0100
0000
0001
0000
0010
0001
1000
0100
,  // measure 32
1000
0000
0001
0000
1000
0010
0001
0000
,  // measure 33
0010
0000
0001
0000
0100
0001
0010
0100
,  // measure 34
1000
0100
1000
0100
,  // measure 35
0010
0000
0001
0000
0010
0200
0000
0300
,  // measure 36
0100
0000
1100
0000
0010
0001
0100
0000
,  // measure 37
1000
0000
0100
0000
0010
0001
0010
0001
,  // measure 38
0100
0000
0001
1000
0000
0100
1000
0010
,  // measure 39
0100
0000
0001
0000
1000
0001
0010
0001
,  // measure 40
0100
0000
1000
0000
0100
0001
1000
0000
,  // measure 41
1000
0100
2200
3300
,  // measure 42
0110
0100
0101
0010
,  // measure 43
1010
0000
0100
0000
1100
0000
1000
0001
,  // measure 44
0101
1000
1010
0100
,  // measure 45
0110
0000
0001
0000
0011
0100
1000
0100
,  // measure 46
1010
0001
1010
0100
,  // measure 47
0011
0000
0010
0000
1100
0000
0100
0010
,  // measure 48
1100
0010
0011
0100
,  // measure 49
1001
0000
0010
0000
1100
0000
0010
0001
,  // measure 50
0200
0000
1300
0100
0000
0001
0010
0100
,  // measure 51
0010
0000
1000
0000
0001
0100
0001
0000
,  // measure 52
1010
0000
0101
0000
0000
0010
0200
0000
,  // measure 53
0300
0000
0010
0000
1000
0100
0010
0100
,  // measure 54
1000
0000
1000
0100
0000
0100
1000
0100
,  // measure 55
0001
0000
0001
0000
1000
0010
0100
0001
,  // measure 56
1000
0000
0100
0000
0001
1000
0100
0000
,  // measure 57
0110
0000
0000
0000
0011
0000
0000
0000
1100
0000
0000
0000
0001
1000
0001
0000
,  // measure 58
2002
3003
0000
0100
1000
0000
0100
1000
0010
0000
0100
0000
0001
0000
0010
0000
,  // measure 59
0100
0000
0001
0010
1000
0000
0100
0000
1000
0000
0000
0000
0100
0000
1000
0000
,  // measure 60
0100
0000
0010
0001
0010
0000
0100
0000
0002
0000
0000
0000
2003
0000
0000
0000
,  // measure 61
3100
0000
1000
0100
1000
0000
0010
0000
0100
0000
0000
0000
0001
0000
1000
0000
,  // measure 62
0010
0000
0001
0100
0010
0000
1000
0000
0100
0000
0000
0000
1000
0000
0001
0000
,  // measure 63
0010
0000
0100
1000
0010
0000
0100
0000
1001
0000
0000
0000
0100
0000
1000
0000
,  // measure 64
0100
0000
0010
0001
0010
0000
0100
0000
0001
0000
0000
0000
1000
0000
0001
0000
,  // measure 65
0100
0000
0010
1000
0001
0000
0100
0000
2200
0000
0000
0000
3300
0000
0010
0000
,  // measure 66
1000
0000
0100
0001
0010
0000
0100
1000
,  // measure 67
0010
0000
0100
0001
1000
0000
0100
1000
,  // measure 68
0001
0000
0010
0001
0100
0000
0010
1000
,  // measure 69
0100
0000
1000
0000
0001
0010
0001
0010
,  // measure 70
0001
0000
0001
0100
1000
0000
1000
0100
,  // measure 71
0001
0000
0001
0010
1000
0000
1000
0010
,  // measure 72
0001
0000
0100
1000
0010
0000
0010
0001
,  // measure 73
0100
0000
0010
1000
0100
0010
0001
0100
,  // measure 74
0010
0000
0001
0100
0010
0000
0010
1000
,  // measure 75
0100
0000
0100
1000
0010
0000
0010
0001
,  // measure 76
0100
0000
1000
0100
0010
0000
0100
0010
,  // measure 77
0001
1000
0100
0001
,  // measure 78
0010
0000
0001
0002
0000
0103
0010
0020
,  // measure 79
0000
1030
0100
0200
0000
0301
1000
2000
,  // measure 80
0000
3001
0010
0000
0001
1000
0100
0010
,  // measure 81
2002
0000
0000
3003
,  // measure 82
0110
0000
0000
0000
;
