#TITLE:Spooky;
#SUBTITLE:;
#ARTIST:good-cool;
#TITLETRANSLIT:;
#SUBTITLETRANSLIT:;
#ARTISTTRANSLIT:;
#GENRE:;
#CREDIT:;
#MENUCOLOR:;
#NEWMETERSYSTEM:NO;
#BANNER:Spooky-bn.png;
#BACKGROUND:Spooky-bg.png;
#LYRICSPATH:;
#CDTITLE:MixMania II CD Title.png;
#MUSIC:Spooky.mp3;
#OFFSET:-0.360;
#SAMPLESTART:87.760;
#SAMPLELENGTH:12.000;
#SELECTABLE:YES;
#LISTSORT:;
#BPMS:0.000=140.000,267.500=145.000,267.750=150.000,268.000=155.000,268.250=160.000,268.500=165.000,268.750=170.000,269.000=175.000,269.250=180.000,269.500=185.000,269.750=190.000,270.000=195.000,270.250=200.000,270.500=205.000,270.750=210.000,271.000=215.000,271.250=220.000,271.500=225.000,271.750=230.000,272.000=235.000,272.250=240.000,272.500=245.000,272.750=250.000,273.000=255.000,273.250=260.000,273.500=265.000,273.750=270.000,274.000=275.000,274.250=280.000,274.500=285.000,274.750=290.000,275.000=295.000,275.250=300.000,275.500=305.000,275.750=310.000,276.000=315.000,276.250=320.000,276.500=325.000,276.750=330.000,277.000=335.000,277.250=340.000,277.500=345.000,277.750=350.000,278.000=355.000,278.250=360.000,278.500=365.000,278.750=370.000,279.000=375.000,279.250=380.000,279.500=385.000,279.750=390.000,280.000=395.000,280.250=400.000,280.500=405.000,280.750=410.000,281.000=415.000,281.250=420.000,281.500=425.000,281.750=430.000,282.000=435.000,282.250=440.000,282.500=445.000,282.750=450.000,283.000=455.000;
#STOPS:;
#BGCHANGES:;
#ATTACKS:;

//---------------dance-single - ----------------
#NOTES:
     dance-single:
     :
     Easy:
     3:
     0.293,0.318,0.172,0.344,0.000:
0000
0000
0000
0000
,
0000
0000
0000
0000
,
0000
0000
0000
0010
,
1001
0100
1000
0100
,
0002
0000
0000
0003
,
0010
1001
0100
1000
,
0020
0030
2000
3000
,
0100
0010
0001
0010
,
0200
0000
0000
0300
,
1000
1001
0001
0010
,
0100
0010
1000
0010
,
2001
0001
0000
0010
,
0000
0001
3000
0110
,
1002
0010
0000
1000
,
0010
0010
0000
0103
,
2001
0010
0000
0001
,
0000
0010
0000
3001
,
1002
0010
0000
1003
,
0100
0100
1000
1000
,
1000
0000
0100
0000
,
0001
0000
0010
0000
,
0002
0000
1000
0003
,
0200
0000
0010
0300
,
1000
0100
0100
0010
,
0001
0010
0010
0100
,
1000
0100
0001
0010
,
2200
0000
0000
3300
,
2000
0000
0000
3000
0000
0000
0002
0000
,
0000
0003
0000
0000
0020
0000
0000
0030
,
1000
0100
0001
0010
,
0001
0000
1000
0000
,
0020
0000
0000
0030
0000
0000
2000
0000
,
0000
3000
0000
0000
0002
0000
0000
0003
,
0100
1000
0100
0010
,
0022
0000
0000
0033
,
1001
0001
1000
0100
,
1000
0100
0010
0001
,
0100
0000
1000
1001
,
0100
0020
0000
0030
,
1001
0010
0100
0001
,
0010
1000
0100
1000
,
1001
0000
1001
0000
,
2002
0000
0000
3003
,
0010
0002
0103
2000
,
3010
0100
0001
0000
,
0010
0200
1300
0200
,
0310
0001
1000
0000
,
0010
0001
0020
0130
,
2000
3100
0100
0000
,
0100
0020
0031
0200
,
0310
0010
0001
0000
,
1001
0010
0001
0100
,
0020
0000
0000
0030
,
1000
1001
0100
0010
,
0001
0010
0000
0001
,
0010
0100
0001
0010
,
0002
0000
0000
0003
,
0010
1001
0100
1000
,
0100
0010
0100
0000
,
0010
0001
0100
0010
,
2000
0000
0000
3000
,
0100
1001
0010
0001
,
0020
0032
0203
0300
,
0010
0100
1000
0100
,
0020
0000
0000
0030
,
0100
1001
0010
1000
,
0200
0000
0302
0000
0203
0000
0300
0020
,
0000
0000
0000
0000
,
0000
0000
0000
0000
,
0000
0000
0000
0000
,
0000
0000
0000
0000
0000
0000
0000
0000
0000
0000
0000
0000
0000
0000
0000
0000
0000
0030
0000
0000
0000
0000
0000
0000
0000
0000
0000
0000
0000
0000
0000
0000
;

//---------------dance-single - Copied from----------------
#NOTES:
     dance-single:
     Copied from:
     Beginner:
     1:
     0.111,0.145,0.049,0.082,0.000:
0000
0000
0000
0000
,
0000
0000
0000
0000
,
0000
0000
0000
0000
,
1000
0000
0000
0000
,
0000
0000
0000
0000
,
0001
0001
0000
0000
,
0000
0000
0000
0000
,
0010
0000
0000
0000
,
0000
0000
0000
0000
,
0100
0100
0000
0000
,
0000
0000
0000
0000
,
2002
0000
3003
0000
,
0000
0000
0000
0001
,
0001
0000
0010
0000
,
0100
0000
0000
0000
,
2002
0000
3003
0000
,
0000
0000
0000
1000
,
1000
0000
0100
0000
,
0010
0000
0010
0000
,
0100
0000
0000
0000
,
0001
0000
0000
0000
,
2000
0000
0000
0000
,
3000
0000
0000
0000
,
1001
0000
0000
0000
,
0001
0000
0000
0000
,
0010
0000
0000
0000
,
0002
0000
0000
0003
,
0001
0000
0000
0000
,
1000
0000
0000
0000
,
0100
0000
0000
0000
,
1000
0000
0000
0000
,
0010
0000
0000
0000
,
0100
0000
0000
0000
,
0001
0000
0000
0000
,
2000
0000
0000
3000
,
1000
0000
0000
1000
,
1000
0000
0000
0000
,
0001
0000
0000
0001
,
0000
0000
0000
0000
,
0010
0000
0000
0010
,
0010
0000
0000
0000
,
1000
0000
1000
0000
,
1000
1000
0000
0000
,
1001
0000
0000
0000
,
0010
0000
0000
0100
,
0100
0000
0000
0000
,
1000
0000
0000
0000
,
1001
0000
0000
0000
,
0010
0000
0000
0001
,
0001
0000
0000
0000
,
0200
0000
0300
0000
,
1001
0000
0000
0000
,
0010
0000
0000
0000
,
0001
0001
0000
0000
,
0100
0100
0000
0000
,
1000
0000
0000
0000
,
0001
0000
0000
0000
,
1000
1000
0000
0000
,
0020
0000
0000
0030
,
0010
0000
0000
0000
,
1000
0000
0000
0000
,
0100
0100
0000
0000
,
0010
0010
0010
0000
,
0001
0000
0000
0000
,
0000
0000
0000
0000
,
1000
1000
0000
0000
,
0100
0000
0100
0000
0100
0000
0000
2000
,
0000
0000
0000
0000
,
0000
0000
0000
0000
,
0000
0000
0000
0000
,
0000
0000
0000
0000
0000
0000
0000
0000
0000
0000
0000
0000
0000
0000
0000
0000
0000
3000
0000
0000
0000
0000
0000
0000
0000
0000
0000
0000
0000
0000
0000
0000
;

//---------------dance-single - Copied from----------------
#NOTES:
     dance-single:
     Copied from:
     Medium:
     5:
     0.364,0.434,0.197,0.221,0.000:
0000
0000
0000
0000
,
0000
0000
0000
0000
,
0000
0000
0000
0000
,
1100
0000
0100
0000
1000
0000
0100
0010
,
0002
0010
0100
0013
,
0100
1100
1000
0100
,
0010
0000
0100
0000
0001
0010
0001
0000
,
0101
0010
1000
0100
,
2000
0100
0010
3100
,
0010
0101
0010
0001
,
0100
0000
0001
0000
0010
1000
0100
0000
,
0020
0000
0100
0000
,
0100
1000
0100
1030
,
1100
2010
0100
3010
,
0101
1010
0100
1000
,
0012
0000
0100
0000
,
0100
0100
1003
1000
,
0120
0100
1030
0100
,
0011
1100
0011
1100
,
1001
0000
0000
0010
0001
0000
0000
0010
,
1000
0000
0000
0100
1000
0000
0000
1000
,
0100
0000
0000
0100
0010
0000
0000
0010
,
0001
0000
0000
0001
0010
0000
0000
0000
,
1001
0000
0000
0100
1000
0000
0000
1000
,
0100
0000
0000
0100
0001
0000
0000
0001
,
1000
0000
0000
1000
0010
0000
0000
0010
,
0100
0000
0000
0100
0010
0000
0000
0010
,
0001
0000
0000
0010
0000
0000
0100
0000
,
0000
1000
0000
0000
0001
0000
0000
0000
,
0000
0001
1000
0001
0000
0000
0100
0000
,
1000
0100
0010
0001
,
0100
0000
0000
1000
0000
0000
0001
0000
,
0000
0100
0000
0000
0010
0000
0000
0000
,
0000
1000
0001
1000
0000
0000
0010
0000
,
0020
0000
2030
0000
3200
0000
1300
0100
,
1100
0000
1000
0100
0001
0000
0010
0000
,
0001
0000
0001
0010
0001
0000
0100
0000
,
0010
0100
1000
2002
,
3003
0020
0030
0001
,
0101
0100
1000
0100
,
0001
0000
0010
0001
0100
0000
0010
0000
,
1100
0100
0011
0100
,
0002
2003
3002
1003
,
1001
0000
1000
0000
0100
1000
0000
0000
,
0100
1000
0100
0010
,
0001
0000
0010
0000
0010
0001
0000
0000
,
0100
0001
0010
1000
,
0100
0000
0001
0000
0010
1000
0000
0000
,
0100
1000
0010
0100
,
0010
0000
1000
0000
1000
0001
0000
0000
,
0200
0320
0230
0301
,
1001
0000
0100
0000
0010
0000
1000
0100
,
0001
0100
0010
0001
,
0010
0100
0010
0000
0001
0000
0100
0000
,
1000
0000
0020
0000
1030
0000
0100
1000
,
0100
0001
0010
0100
,
0010
0001
0010
1000
,
0001
1000
0100
0000
1000
0000
0100
0000
,
0001
0000
0010
0000
0001
0000
0010
0001
,
0001
0000
1000
0000
0100
0000
0010
1000
,
0100
1000
0001
0010
,
0001
0100
1000
0000
0100
0000
1000
0000
,
0020
0000
2030
0000
3200
0000
1300
1000
,
0100
0000
0100
0000
0001
0000
0010
0100
,
0010
0001
0100
1000
,
0010
0001
0100
0000
0010
0000
0001
0000
,
2000
0000
3002
0000
0023
0030
0000
2002
,
0000
0000
0000
0000
,
0000
0000
0000
0000
,
0000
0000
0000
0000
,
0000
0000
0000
0000
0000
0000
0000
0000
0000
0000
0000
0000
0000
0000
0000
0000
0000
3003
0000
0000
0000
0000
0000
0000
0000
0000
0000
0000
0000
0000
0000
0000
;

//---------------dance-single - Copied from----------------
#NOTES:
     dance-single:
     Copied from:
     Hard:
     7:
     0.418,0.463,0.148,0.148,0.041:
0000
0000
0000
0000
,
0000
0000
0000
0000
,
0000
0000
0000
0000
0000
0000
0000
1000
,
0001
0000
0010
0000
0001
0000
0100
0001
,
0010
0100
1000
0010
,
1000
0001
1001
0000
0001
0000
0010
0000
,
1000
0000
0100
0000
1000
0100
0010
1000
,
0100
0000
1000
0000
0001
0000
0100
0001
,
0010
0001
0100
0010
,
1000
0100
1100
0000
0010
0000
1000
0000
,
0100
0000
0001
0000
0010
0001
0010
0100
,
0010
0100
0001
1000
,
0100
0000
0001
0000
1000
0020
0000
0030
,
0100
0000
0000
0000
0011
0000
0000
0000
0100
0000
0000
0001
0000
0000
1000
0000
,
0010
0100
1000
0100
,
0010
1000
0001
0100
,
0010
0000
0001
0000
0010
0002
0000
0003
,
1000
0000
0000
0000
1100
0000
0000
0000
0010
0000
0000
0100
0000
0000
0010
0000
,
0001
0000
0010
0001
0100
0000
0100
1000
,
0010
0000
0000
0010
0000
0000
1000
0000
0100
0000
0000
0000
0100
0000
0000
0000
,
0010
0000
0000
0001
0000
0000
0010
0000
0001
0000
0000
0000
0100
0000
0000
0000
,
0001
0000
0000
0010
0000
0000
1000
0000
0100
0000
0000
0000
1000
0000
0000
0000
,
0100
0000
0000
1000
0000
0000
0010
0000
0100
0000
0000
0000
0001
0000
0000
0000
,
1000
0000
0000
0001
0000
0000
0010
0000
0100
0000
0000
0000
0010
0000
0000
0000
,
0100
0000
0000
0001
0000
0000
0010
0000
0100
0000
0000
0000
0001
0000
0000
0000
,
1000
0000
0000
0001
0000
0000
1000
0000
0010
0000
0000
0000
1000
0000
0000
0000
,
0010
0100
1000
0100
0010
0100
0010
0000
,
0001
0001
0000
1000
1000
0000
0010
0010
,
0000
0001
0001
0000
0100
0100
0000
0000
,
0000
1000
0001
0010
0001
0000
0100
0000
,
0010
0000
1000
0000
0010
0100
0010
0000
,
0001
0001
0000
0010
0010
0000
0001
0001
,
0000
1000
1000
0000
0100
0100
0000
0000
,
0000
1000
0010
0100
0000
0000
1000
0000
,
0002
0000
2003
0000
3002
0010
0013
0000
,
0110
0000
1000
0100
0001
0000
0001
0100
,
1000
0000
1000
0010
0200
0000
0310
0000
,
1000
0000
0001
0000
0100
0001
1001
0000
,
0100
0000
0000
0000
0001
2000
0000
0000
0000
0000
3100
0000
0100
0000
0010
0000
,
0100
0000
0001
1000
0100
0000
1000
0001
,
0100
0000
0001
1000
0010
0000
0100
0001
,
0011
0001
1010
0100
,
1001
0000
1001
0000
0010
0100
1001
0000
,
0100
1000
0010
0000
0010
0100
0000
0100
,
0001
0000
1000
0000
0001
0010
0100
0000
,
0001
1000
0010
0000
0010
0001
0000
0001
,
0100
0000
0010
0000
0001
0010
0001
1000
,
0100
1000
0100
0000
0100
1000
0000
0100
,
0010
1000
0100
0000
0100
0000
1000
0001
,
0010
0001
0100
0000
0100
0001
0000
0010
,
0002
0000
2003
0000
3200
0000
0310
1000
,
1100
0000
1000
0000
0100
0000
0010
0001
,
0100
0000
0010
0000
1000
0000
0001
0100
,
0010
1001
0100
0001
,
0100
0000
1100
0000
0010
0000
0100
1000
,
0100
0000
0010
0000
0001
0000
1000
0001
,
0010
0101
0010
0001
,
1000
0010
0100
0000
0010
0000
1000
0000
,
0100
0011
0100
0001
,
1000
0000
0010
0000
0100
0000
1000
0100
,
0010
1100
0010
0100
,
0001
1000
0010
0000
0100
0000
1000
0000
,
0200
0000
0320
0000
0032
0000
0103
1000
,
0100
0000
0010
0000
0100
0000
0001
0010
,
0001
0100
0010
1000
,
0001
1000
0001
0000
1000
0000
0010
0000
,
0200
0000
2300
0000
3200
0000
0300
0022
,
0000
0000
0000
0000
,
0000
0000
0000
0000
,
0000
0000
0000
0000
,
0000
0000
0000
0000
0000
0000
0000
0000
0000
0000
0000
0000
0000
0000
0000
0000
0000
0033
0000
0000
0000
0000
0000
0000
0000
0000
0000
0000
0000
0000
0000
0000
;

//---------------dance-single - Copied from Copied from----------------
#NOTES:
     dance-single:
     Copied from Copied from:
     Challenge:
     9:
     0.566,0.636,0.336,0.320,0.201: // measure 1
0000
0000
0000
0000
,  // measure 2
0000
0000
0000
0000
,  // measure 3
0000
0000
0000
0000
0000
0000
0000
0010
,  // measure 4
1100
0000
0000
0000
0100
0000
1000
0000
0010
0000
0000
0100
0000
0000
0001
0000
,  // measure 5
0010
0000
0000
0001
0000
0000
0100
0000
0001
0000
1000
0000
0010
1000
0100
0000
,  // measure 6
1000
0000
0000
1000
0100
0000
0010
0000
0001
0000
0000
0100
0000
0000
0001
0000
,  // measure 7
0010
0000
0000
1000
0000
0000
0001
0000
1000
0000
0001
0000
1000
0000
0001
0000
,  // measure 8
1010
0000
0000
1000
0000
0000
0100
0000
1000
0000
0000
0100
0000
0000
0010
0000
,  // measure 9
1000
0000
0000
0100
0000
0000
0010
0000
0100
0000
1000
0000
0001
0100
0010
0000
,  // measure 10
0100
0000
0000
0001
1000
0000
0100
0000
1000
0000
0000
0100
0000
0000
0010
0000
,  // measure 11
0001
0100
0001
0000
0100
1000
0010
0000
,  // measure 12
1001
0100
1000
0100
,  // measure 13
0010
0000
0001
0000
0010
0002
0010
0100
,  // measure 14
0023
0000
0000
0000
0031
0000
0000
0000
0100
0000
0000
1000
0000
0000
0100
0000
,  // measure 15
0110
0000
0010
0000
0011
0000
0000
0000
1000
0000
0000
0001
0000
0000
0010
0000
,  // measure 16
1001
0100
0010
1000
,  // measure 17
0001
0000
1000
0000
0010
2000
0100
0010
,  // measure 18
3200
0000
0000
0000
1300
0000
0000
0000
0100
0000
0000
0010
0000
0000
0001
0000
,  // measure 19
0110
0100
1001
0000
0110
0010
1001
0000
,  // measure 20
1100
0000
0000
0100
0000
0000
1000
0000
0100
0000
0000
0010
0000
0000
0001
0010
,  // measure 21
0001
0000
0000
0100
0000
0000
0001
0000
0100
0000
0000
1000
0000
0000
0100
0000
,  // measure 22
1100
0000
0000
1000
0000
0000
0010
0000
0100
0000
0000
0001
0000
0000
0011
0000
,  // measure 23
0001
0000
0000
0100
0000
0000
0001
0000
1000
0000
0000
0010
0000
0000
1001
0000
,  // measure 24
0110
0000
0000
0010
0000
0000
0100
0000
0001
0000
0000
0100
0000
0000
0010
1000
,  // measure 25
0010
0000
0000
1000
0000
0000
0010
0000
0100
0000
0000
0001
0000
0000
1000
0000
,  // measure 26
0010
0000
0000
0100
0000
0000
0001
0000
0010
0000
0000
0001
0000
0000
0010
0000
,  // measure 27
0001
0010
0000
0010
0100
0000
1000
0000
0100
1000
0000
1000
0100
0000
0010
0000
,  // measure 28
0201
0310
0000
1020
0130
0000
2001
3010
,  // measure 29
0000
0012
0103
0000
2100
3001
0000
0000
,  // measure 30
1000
0001
0010
0001
0100
0010
1000
0000
,  // measure 31
1000
0100
0010
0100
0010
0001
0010
0100
,  // measure 32
0021
0031
0000
1200
1300
0000
0201
0301
,  // measure 33
0000
1020
1030
0000
0210
0310
0000
0000
,  // measure 34
1000
0010
0100
0010
0001
0010
0100
1000
,  // measure 35
0100
1000
0100
0000
0100
1000
0010
0000
0001
0010
0001
0000
0010
0000
0100
0000
,  // measure 36
0100
0000
0100
1000
0010
0000
0010
0001
,  // measure 37
0100
0000
1000
0010
0100
0000
1000
0001
,  // measure 38
1000
0000
0000
0010
0000
0000
0001
0000
0000
0000
1000
0000
0011
0000
0000
0000
,  // measure 39
0100
0000
0010
0000
1000
0200
0000
0000
0300
0000
1000
0000
0010
0000
0100
0000
,  // measure 40
1010
0010
1000
0100
0001
0000
0010
0001
,  // measure 41
1000
0000
1000
0100
0010
0000
0001
0010
,  // measure 42
0110
0001
0110
1000
,  // measure 43
1001
0100
1000
0100
0010
0001
0010
0010
,  // measure 44
0011
0100
2000
0000
3100
2000
0000
3100
,  // measure 45
0010
0001
0010
0001
0100
0000
0010
0000
,  // measure 46
0011
0010
0002
0000
0013
0002
0000
0013
,  // measure 47
0100
1000
0000
1000
0001
0000
0010
0000
0001
0000
0100
0000
0000
0000
0010
0000
,  // measure 48
0110
0100
0020
0000
0130
0020
0000
0130
,  // measure 49
1000
0100
0010
0100
1000
0100
0000
0000
,  // measure 50
1100
0100
0002
0000
0103
0002
0000
0013
,  // measure 51
0010
0000
0100
0000
0001
0000
0010
0000
0100
0000
1000
0000
1000
0100
0010
0001
,  // measure 52
0010
0100
0100
1000
0100
0010
0001
0010
,  // measure 53
1000
0000
0000
0000
0010
0000
0000
0000
1000
0000
0000
0000
0010
0001
0100
0000
,  // measure 54
0100
0010
2020
0000
3030
0000
0100
0000
,  // measure 55
0100
0000
0010
0000
0001
0000
1000
0100
,  // measure 56
1100
1000
0010
0100
0010
0100
0001
0010
,  // measure 57
0100
0000
0000
0000
1000
0000
0000
0000
0100
0000
0000
0000
0010
1000
0001
0000
,  // measure 58
0010
0100
0022
0000
0033
0000
1000
0000
,  // measure 59
0100
0000
0010
0000
0001
1000
0000
0100
,  // measure 60
0010
1000
0100
0010
0001
1000
0001
0010
,  // measure 61
0100
0000
0000
0000
0010
0000
0000
0000
0100
0000
0000
0000
0010
0100
1000
0000
,  // measure 62
0100
0000
0220
0000
0330
0000
1000
0100
,  // measure 63
0200
0000
0320
0000
0032
0000
0103
0001
,  // measure 64
0110
0001
0010
0100
0010
0001
1000
0100
,  // measure 65
1000
0000
0000
0000
1000
0000
0000
0000
0100
0000
0000
0000
0001
0100
0010
0000
,  // measure 66
0100
1000
2002
0000
3003
0000
0010
0001
,  // measure 67
0200
0000
0302
0000
2003
0000
3010
2002
,  // measure 68
0000
0000
0000
0000
,  // measure 69
0000
0000
0000
0000
,  // measure 70
0000
0000
0000
0000
,  // measure 71
3003
0000
0000
0000
0000
0000
0000
0000
0000
0000
0000
0000
0000
0000
0000
0000
0000
0010
0000
0000
0000
0000
0000
0000
0000
0000
0000
0000
0000
0000
0000
0000
;
