#TITLE:Space Space Shooter;
#SUBTITLE:(The D-Warp 2007 Speed Run);
#ARTIST:KICK+PUNCH;
#TITLETRANSLIT:;
#SUBTITLETRANSLIT:;
#ARTISTTRANSLIT:;
#GENRE:;
#CREDIT:;
#MENUCOLOR:;
#NEWMETERSYSTEM:NO;
#BANNER:Space Space Shooter (The D-Warp 2007 Speed Run)-bn.png;
#BACKGROUND:Space Space Shooter (The D-Warp 2007 Speed Run)-bg.png;
#LYRICSPATH:;
#CDTITLE:MixMania II CD Title.png;
#MUSIC:Space Space Shooter (The D-Warp 2007 Speed Run).mp3;
#OFFSET:-0.060;
#SAMPLESTART:54.460;
#SAMPLELENGTH:12.000;
#SELECTABLE:YES;
#LISTSORT:;
#BPMS:0.000=172.040;
#STOPS:;
#BGCHANGES:;
#ATTACKS:;

//---------------dance-single - ----------------
#NOTES:
     dance-single:
     :
     Easy:
     3:
     0.243,0.317,0.031,0.161,0.000:
0000
0000
0000
0000
,
0000
0000
0000
0000
,
0000
0000
0000
0000
,
0010
0000
0010
0000
,
0100
0000
0100
0000
,
1000
0000
0100
0000
,
0001
0000
0100
0000
,
1000
0000
0100
0000
,
0010
0001
0010
0000
,
0100
1000
0100
0000
,
1000
0000
0001
0000
,
1000
0000
0002
0000
,
0013
0000
0100
0000
,
0010
0000
0100
0000
,
1000
0100
1000
0000
,
2002
0000
3003
0000
,
0010
0000
0100
0000
,
1000
0000
0100
0000
,
0010
0000
0001
0000
,
1000
0100
0010
0000
,
0100
0000
0010
0000
,
0100
0000
0001
0000
,
0100
0000
0010
0000
,
1000
0001
1000
0001
,
2000
0000
3000
0000
,
0200
0000
0300
0000
,
0020
0000
0030
0000
,
0002
0003
2000
3000
,
0002
0000
0003
0000
,
0200
0000
0300
0000
,
0020
0000
0030
0000
,
2000
3000
0200
0300
,
0010
0000
0100
0000
,
0001
0000
0100
0000
,
1000
0100
1000
0000
,
0010
0001
0010
0000
,
0100
0000
0010
0000
,
0100
0000
0001
0000
,
0100
0010
1000
0000
,
0200
0000
0020
0330
,
0110
0000
0100
0000
,
0001
1000
0001
0000
,
1000
0000
0100
0000
,
0010
0000
1000
0000
,
0001
0000
1000
0000
,
0100
0010
0001
0000
,
0100
0000
0001
0000
,
1000
0001
1000
0001
,
0010
0000
0100
0000
,
1000
0100
1000
0000
,
0100
0000
0010
0000
,
0001
0100
0010
0000
,
0100
0000
1000
0000
,
0100
1000
0100
0000
,
1000
0000
0001
0000
,
0001
1000
0001
1000
,
0001
0000
1000
0000
,
0100
0000
0010
0000
,
0100
0000
0001
0000
,
1000
0100
0010
0000
,
0100
0000
1000
0000
,
0100
0000
0001
0000
,
0100
0000
1000
0000
,
1001
0000
0000
0000
,
0010
0000
0100
0000
,
0010
0000
0100
0000
,
2000
0000
3001
0000
,
0002
0000
1003
0000
,
0010
0000
0100
0000
,
1000
0000
0100
0000
,
0001
0000
0010
0000
,
0200
0000
0000
0300
,
0100
0000
1000
0000
,
0100
0001
0010
0000
,
0100
0000
0001
0000
,
1000
0000
0100
0000
,
1001
0000
0100
0000
,
1000
0001
1000
0000
,
0100
0000
0010
0000
,
0001
1000
0020
0000
,
0130
0000
1000
0000
,
0100
0100
0100
0000
,
1000
0000
0001
0000
,
0010
0010
0010
0000
,
0001
0000
0100
0000
,
1000
1000
1000
0000
,
0100
0000
0010
0000
,
0001
0001
0001
0000
,
1000
0000
0000
0001
,
0100
0000
1000
0000
,
0001
0000
0000
0100
,
0010
0010
2000
0002
,
3003
0000
0000
0000
;

//---------------dance-single - Copied from----------------
#NOTES:
     dance-single:
     Copied from:
     Beginner:
     1:
     0.104,0.140,0.015,0.069,0.000:
0000
0000
0000
0000
,
0000
0000
0000
0000
,
0000
0000
0000
0000
,
0000
0000
0000
0000
,
1000
0000
0000
0000
,
1000
0000
0000
0000
,
0100
0000
0000
0000
,
0100
0000
0000
0000
,
0010
0000
0000
0000
,
0000
0000
0000
0000
,
1000
0000
0000
0000
,
0000
0000
0000
0001
,
0001
0000
0000
0000
,
0100
0000
0000
0000
,
0020
0000
0030
0000
,
2000
0000
0000
0000
,
3000
0000
0000
0000
,
0100
0000
0000
0000
,
0100
0000
0000
0000
,
1000
0000
0000
0000
,
0001
0000
0000
0000
,
0100
0000
0000
0000
,
0010
0000
0000
0000
,
0200
0000
0000
0000
,
0300
0000
0000
0000
,
0100
0000
0000
0000
,
0100
0000
0000
0000
,
0010
0000
0010
0000
,
0001
0000
0000
0000
,
0010
0000
0000
0000
,
0100
0000
0000
0000
,
1001
0000
0000
0000
,
1000
0000
0000
0000
,
0000
0000
0000
0000
,
0001
0000
0000
0000
,
0000
0000
0000
0000
,
0010
0000
0000
0000
,
0000
0000
0000
0000
,
0001
0000
0001
0000
,
0002
0000
0000
0000
,
0003
0000
0000
0000
,
1000
0000
0000
0000
,
0100
0000
0000
0000
,
0100
0000
0100
0000
,
1000
0000
0000
0000
,
0001
0000
0000
0000
,
0010
0000
0000
0000
,
0020
0000
0030
0000
,
0100
0000
0000
0000
,
0001
0000
0000
0000
,
1000
0000
0000
0000
,
0100
0000
0000
0000
,
1000
0000
0000
0000
,
0010
0000
0000
0000
,
0100
0000
0000
0000
,
0020
0000
0000
0000
,
0030
0000
0000
0000
,
0100
0000
0000
0000
,
1000
0000
0000
0000
,
0001
0000
0001
0000
,
0001
0000
0000
0000
,
0010
0000
0000
0000
,
0100
0000
0000
0000
,
1001
0000
0000
0000
,
0010
0000
0000
0000
,
0000
0000
0000
0000
,
1000
0000
0000
0000
,
0000
0000
0000
0000
,
0100
0000
0000
0000
,
0000
0000
0000
0000
,
0010
0000
0010
0000
,
0020
0000
0000
0000
,
0030
0000
0000
0000
,
1000
0000
0000
0000
,
0001
0000
0000
0000
,
0100
0000
0100
0000
,
0100
0000
0000
0000
,
0010
0000
0000
0000
,
0001
0000
0000
0000
,
2000
0000
0000
0000
,
3000
0000
0000
0000
,
0100
0000
0000
0000
,
0100
0000
0000
0000
,
0010
0000
0010
0000
,
0010
0000
0000
0000
,
0001
0000
0000
0000
,
0001
0000
0000
0000
,
1000
0000
1000
0000
,
1000
0000
0000
0000
,
0100
0000
0000
0000
,
0010
0000
0000
0001
,
0002
0000
0000
0003
;

//---------------dance-single - Copied from----------------
#NOTES:
     dance-single:
     Copied from:
     Medium:
     5:
     0.373,0.458,0.092,0.191,0.019:
0000
0000
0000
0000
,
0000
0000
0000
0000
,
0000
0000
0000
0000
,
0010
0100
0010
0100
,
0010
0000
1000
0000
,
0001
0000
0100
0000
0000
0001
0000
0000
0000
0000
0000
0000
,
0100
1000
0100
0000
,
0010
0000
0001
0000
0000
0100
0000
0000
0000
0000
0000
0000
,
1000
1000
0100
0010
,
0001
0001
0200
0300
,
0010
1000
0100
1000
,
0100
1000
0002
2003
,
3001
0100
0010
0100
,
0001
0100
0010
1000
,
2000
3000
0001
0100
,
1001
1001
1001
0000
,
0010
0000
0001
0000
,
1000
0000
0001
0000
0100
0000
0010
1000
,
0100
0000
1000
0000
,
0001
1000
0001
0000
,
0010
0001
0100
0001
,
0010
0000
0010
1000
0100
0000
0000
0000
,
1000
0100
0010
0001
,
0200
0320
2030
3020
,
0130
0000
1000
0001
1000
0000
0000
0000
,
0100
0000
0010
0001
0010
0000
0100
0000
,
1000
0001
1000
0100
,
0010
0001
1001
0000
,
0100
0000
0001
0010
0001
0000
0000
0000
,
0100
0000
1000
0100
1000
0000
0000
0000
,
0100
1000
0010
0100
,
0001
0010
2002
3003
,
0010
0000
1000
0000
0100
0000
1000
0100
,
0000
0000
0010
0000
,
0001
0100
0010
0000
,
1000
0010
0100
0000
,
1000
0000
0100
0000
0010
0001
0000
0000
,
1001
0000
1001
0000
,
0100
0000
0010
0000
0001
1000
0000
0000
,
0100
0001
0010
1001
,
0100
0100
0100
1000
,
0100
1000
0100
0000
0010
0001
0010
0000
,
0100
0001
0010
0100
,
2000
3000
0002
0003
,
1000
0100
0010
0001
,
0100
0001
0010
0000
0100
1000
0010
0000
,
0100
0001
1000
0100
,
0020
0030
0200
0300
,
1000
0000
0010
0000
,
0100
0001
0010
0000
,
0100
1000
0010
0100
,
0001
1000
0002
0003
,
1000
0100
0010
0000
,
0001
0010
0100
0000
,
1000
0001
0100
0010
,
0002
0023
0230
2300
,
3100
1000
0100
0000
,
0010
0001
0010
0000
,
0001
1000
0001
0100
,
0010
0000
0001
0010
0100
0000
0000
0000
,
1000
0100
0100
0000
,
0001
0010
0010
0000
,
0001
1000
0001
0100
,
0010
0000
0010
0000
,
0100
0000
0010
0000
1000
0000
0100
1000
,
0000
0000
0100
0010
,
0001
0000
0100
0001
0000
0000
0000
0000
,
0010
0000
1000
0100
0000
0000
0000
0000
,
1000
0100
0010
0001
,
0010
0100
1000
0000
,
0001
0010
0100
1000
,
0100
0010
0002
0003
,
0010
0100
0010
0100
,
1000
0100
1000
0000
0001
0100
0001
0000
,
0100
0010
0100
0010
,
0002
0003
2000
3000
,
0100
0010
0100
0010
,
1000
0010
1000
0000
0001
0010
0001
0000
,
0100
0010
0001
0010
,
0002
0003
2000
3000
,
0100
0000
0000
0100
,
0010
0010
0100
1000
,
0100
0000
1000
0000
,
0100
1000
0100
0000
,
0010
0000
0000
0001
,
0100
0001
0010
0000
,
0100
0000
0000
0010
,
1000
0001
0100
0000
,
1001
0000
0000
0010
,
0011
0000
0100
0000
,
1001
0000
0000
1001
,
0010
0000
0000
1000
0000
0001
0010
0000
0000
0200
0000
0000
,
0300
0000
0000
0000
;

//---------------dance-single - Copied from----------------
#NOTES:
     dance-single:
     Copied from:
     Hard:
     8:
     0.509,0.528,0.291,0.100,0.050:
0000
0000
0000
0000
,
0000
0000
0000
0000
,
0000
0000
0000
0000
,
1000
0100
0010
0001
,
0100
0000
0001
0100
0000
0010
1000
0000
0001
0000
0000
0000
,
1000
0000
0100
0000
0000
0010
0000
0000
0000
0000
0000
0000
,
0100
0001
0010
0000
,
0100
0000
1000
0000
0000
0100
0000
0000
0000
0010
0000
0000
,
1000
0000
0001
0000
1000
0100
0010
0000
,
0001
0100
0001
0100
0010
1000
0100
0000
,
1000
0000
0100
0000
0010
0001
1000
0000
,
0100
0000
0010
0000
0100
0000
0010
1000
,
0100
0000
1000
0000
0001
0100
0001
0000
,
1000
0010
0100
0001
0010
0001
0100
0000
,
1000
0000
0100
0000
0010
0000
0001
1000
,
0002
2003
3020
0000
,
0130
0000
0010
1000
0100
0000
0010
0000
,
0001
0000
0100
0001
0010
0000
0100
0000
,
1000
0000
0001
1000
0001
0000
1000
0000
,
0010
1000
0100
0010
0001
0000
0000
0000
,
0100
0000
0001
0010
0100
0000
0001
0000
,
1000
0000
0001
0100
0010
0000
0100
0000
,
0001
1000
0100
1000
,
0010
1000
0010
0000
0100
0001
0100
0000
,
1001
0110
1001
0000
,
0110
0011
0110
0000
,
0100
1000
0010
0000
0100
0001
0010
0000
,
0002
2003
3010
0000
,
1100
0011
0101
0000
,
1010
0101
1010
0000
,
0001
0000
1000
0000
0100
1000
0010
0000
,
0100
0010
0001
0010
0001
1000
0001
1000
,
0100
0000
0010
0000
0100
0000
0010
0100
,
0000
0001
0000
0100
0000
1000
0000
0000
,
0100
1000
0010
0100
0000
0000
0000
0000
,
1000
0100
0010
0001
0000
0000
0000
0100
,
0001
0000
0010
0000
0100
0010
0000
0100
,
0000
0001
0000
0010
0000
0000
0000
0000
,
0100
0000
1000
0000
0010
1000
0000
0100
,
0010
0000
0010
0001
0000
0001
0100
0000
0000
0110
0000
0000
,
0100
0000
1000
0000
0100
0010
0001
0000
,
1000
0001
1000
0010
1000
0001
0000
1000
,
0010
0100
0001
1000
,
0110
0000
1100
0000
,
1001
0000
0100
0000
0010
1000
0100
0000
,
0010
0001
0100
0001
0010
0001
0000
0100
,
0001
0010
0100
1000
,
1100
0110
0011
0000
,
0100
0000
0001
1000
0010
0000
0100
0000
,
0001
1000
0100
1000
0010
0000
0000
0000
,
0100
0000
1000
0010
0100
0000
0001
0000
,
1000
0001
0010
0100
1000
0000
0000
0000
,
0001
0000
1000
0001
0010
0000
0001
0000
,
0010
0001
0100
0010
0100
0000
0000
0000
,
0001
0000
0010
0001
1000
0000
1000
0000
,
0200
2300
3002
0203
,
0301
0100
1001
0000
,
1000
0100
1001
0000
,
0010
0001
0100
0000
0010
1000
0100
0000
,
1000
0100
0010
0001
0010
0000
0000
0000
,
0100
1000
0011
0000
,
0010
0100
1010
0000
,
0010
1000
0100
0000
0010
0001
0100
0000
,
2002
0000
0000
0000
0000
3003
0000
0000
,
0100
0000
0010
0000
0001
0000
0100
0001
,
0000
0010
0000
0100
0000
1000
0000
0000
,
0100
1000
0100
0010
0000
0000
0000
0000
,
0010
0001
0010
0100
0000
0000
0000
0001
,
1000
0000
0001
0000
0100
0010
0000
0001
,
0000
0100
0000
0010
0000
0000
0000
0000
,
1000
0000
0001
0000
1000
0100
0000
0100
,
1000
0000
1000
0100
0000
0100
0010
0000
0000
0011
0000
0000
,
1001
0110
1001
0100
,
0010
0001
0010
0100
0010
0100
0000
1000
,
0100
0000
0010
0000
0001
0000
0100
0001
,
0010
0100
1000
0100
0000
0000
1000
0000
,
0100
0000
0010
0000
1000
0100
0010
0000
,
0001
0100
0010
0100
1000
0100
0000
1000
,
0100
0010
0001
0100
,
0001
0010
0100
1000
0000
0000
1001
0000
,
0010
0000
0100
0000
0010
0000
0100
0010
,
0001
0100
0010
1000
0100
1000
0000
0000
,
1001
0000
0100
0000
0010
0000
0100
0010
,
0001
0010
0001
1000
0100
0000
1000
0000
,
1001
0000
0100
0000
0010
0000
1000
0100
,
0010
0001
0010
0100
1000
0100
0000
0000
,
1001
0000
0010
0000
0100
0000
0010
0001
,
0100
0010
1000
0000
1010
0000
0000
0000
,
1001
0010
0100
0110
,
0011
0010
0100
1000
,
1001
0100
0010
1001
,
0001
0000
1000
0010
0000
0010
0200
0000
0000
0020
0000
0000
,
0330
0000
0000
0000
;

//---------------dance-single - Copied from ----------------
#NOTES:
     dance-single:
     Copied from:
     Challenge:
     9:
     0.641,0.634,0.306,0.130,0.092: // measure 1
0000
0000
0000
0000
,  // measure 2
0000
0000
0000
0000
,  // measure 3
0000
0000
0000
0000
,  // measure 4
0001
0001
0100
0100
,  // measure 5
0010
0000
1000
0100
0000
0100
0010
0000
0001
0000
0000
0000
,  // measure 6
0100
0000
0001
0000
0000
0010
0000
0000
0000
0100
0000
0000
,  // measure 7
0011
1100
0110
0010
,  // measure 8
1000
0000
0100
0000
0000
1000
0000
0000
0000
0002
0000
0000
,  // measure 9
0103
0000
0010
0000
1000
0100
0010
0000
,  // measure 10
0001
0100
0010
0100
0010
0100
1000
0000
,  // measure 11
0100
0000
1000
0000
0100
0010
0001
0000
,  // measure 12
0100
0001
0010
0000
0100
0010
0100
1000
,  // measure 13
0100
0000
0010
0000
0100
0001
0010
0000
,  // measure 14
0001
0010
0100
1000
0100
0010
0100
0000
,  // measure 15
1000
0000
0100
0000
0010
0001
0010
0100
,  // measure 16
0002
2003
3200
2300
,  // measure 17
3010
0000
1000
0000
0001
0000
1000
0000
0100
0000
0000
0010
0000
0000
0100
0000
,  // measure 18
0010
0100
1000
0100
0002
0000
0003
0000
,  // measure 19
0100
0000
0010
0000
0100
0000
0001
0000
0100
0000
0000
0010
0000
0000
0100
0000
,  // measure 20
1000
0100
0010
0100
2000
0000
3000
0000
,  // measure 21
0100
0000
0001
0000
1000
0000
0100
0000
0010
0000
0000
0001
0000
0000
0100
0000
,  // measure 22
0001
0010
0001
0100
0020
0000
0030
0000
,  // measure 23
0100
0000
0001
0000
0010
0000
0100
0000
1000
0000
0000
0100
0000
0000
1000
0000
,  // measure 24
1010
0011
0101
1100
,  // measure 25
0100
1000
0100
0010
0100
0010
0000
0010
,  // measure 26
0001
0010
0100
0010
0100
0000
1000
0000
,  // measure 27
0001
0100
1000
0100
0001
0100
1000
0100
,  // measure 28
0001
0010
0100
0000
1001
0000
0000
0000
,  // measure 29
0100
1000
0010
0100
0001
0010
0000
0100
,  // measure 30
0001
0010
0001
0000
0011
0000
0100
0000
,  // measure 31
0002
0000
0023
0000
0130
1000
0001
1000
,  // measure 32
0010
0100
0001
1000
0000
0100
0010
0001
,  // measure 33
0011
0000
1001
0000
1100
0000
0010
1000
,  // measure 34
0100
0010
0001
0100
0001
0010
0001
0000
,  // measure 35
0100
0001
0010
0100
0000
1000
0100
0000
,  // measure 36
0010
1000
0100
0010
0000
0010
0001
0100
,  // measure 37
0001
0000
0010
0000
0001
0100
0000
1010
,  // measure 38
0000
1100
0000
1010
0000
0100
0001
0000
,  // measure 39
0100
0000
0001
0000
0010
0100
0000
1000
,  // measure 40
0100
0000
0000
0000
0010
0000
0001
0000
0010
0000
0100
0000
2000
0000
0000
0000
0000
0000
0200
0000
0000
3000
0000
0000
,  // measure 41
1300
0000
0100
0000
0010
0001
0010
0000
,  // measure 42
1000
0010
1000
0001
0100
0001
0000
0100
,  // measure 43
0010
1000
0100
1000
0100
0000
0010
0001
,  // measure 44
0100
0010
1000
0100
0000
0000
1001
0000
,  // measure 45
0100
0000
0010
0000
0001
0100
0010
0000
,  // measure 46
0001
1000
0100
0010
0001
1000
0000
0100
,  // measure 47
0010
0100
0010
0010
0001
0010
0100
0000
,  // measure 48
0100
1000
0100
1100
0000
0010
0100
0001
,  // measure 49
0110
0000
1000
0000
0100
0000
0010
0000
0001
0000
0000
1000
0000
0000
0100
0000
,  // measure 50
1000
0010
0100
0001
0010
0000
0001
0000
,  // measure 51
0100
0000
0001
0000
0010
0000
0100
0000
1000
0000
0000
0100
0000
0000
1000
0000
,  // measure 52
0100
0010
0001
0100
0001
0000
0010
0000
,  // measure 53
0100
0000
0010
0000
0001
0000
0010
0000
1000
0000
0000
0001
0000
0000
1000
0000
,  // measure 54
0100
1000
0001
0010
0100
0000
0010
0000
,  // measure 55
0001
0000
0100
0000
0010
0000
1000
0000
0100
0000
0000
0100
0000
0000
0010
0000
,  // measure 56
0011
0000
1001
0000
1100
0000
1001
0010
,  // measure 57
0100
0010
0100
1000
0100
0000
0010
0001
,  // measure 58
0100
0001
0010
0100
0001
0000
0100
0000
,  // measure 59
1000
0100
0010
0001
0010
0100
1000
0100
,  // measure 60
0010
0100
0010
0100
1000
0000
0100
0000
,  // measure 61
1000
0100
0010
0001
1000
0000
0001
0010
,  // measure 62
0001
0100
0010
1000
0000
0000
0010
0100
,  // measure 63
1000
0001
0010
0100
1000
0001
1000
0100
,  // measure 64
1000
0010
0100
0020
0000
0100
0100
0130
,  // measure 65
0110
0000
0001
0000
0011
0000
0010
0100
,  // measure 66
1000
0001
1000
0001
0010
0100
1000
0000
,  // measure 67
1000
0100
1000
0001
0000
0010
0001
0100
,  // measure 68
0001
1000
0010
0100
0000
0010
0001
1000
,  // measure 69
0100
0000
1000
0000
0100
0010
0000
0011
,  // measure 70
0000
1001
0000
1100
0000
1000
0010
0100
,  // measure 71
0001
0000
0100
0000
0010
0100
0000
0001
,  // measure 72
0010
0000
0000
0000
0001
0000
1000
0000
0100
0000
1000
0000
0020
0000
0000
0000
0000
0000
0200
0000
0000
0030
0000
0000
,  // measure 73
0301
0000
1000
0000
0100
1000
0100
0000
,  // measure 74
0010
0001
0100
0010
1000
0100
0000
1000
,  // measure 75
0100
0010
0001
0100
0001
0000
0010
0001
,  // measure 76
1000
0010
1000
0001
0000
0100
0001
1000
,  // measure 77
0001
0000
1000
0000
0001
0100
0100
0000
,  // measure 78
0010
1000
0100
1000
0010
0100
0000
0001
,  // measure 79
0100
0010
1000
0100
1000
0100
0010
0000
,  // measure 80
0001
0100
1000
0100
0000
0000
0110
0000
,  // measure 81
1001
0000
0100
0000
0010
0000
0001
0100
,  // measure 82
0010
0001
1000
0001
1000
0100
0010
0000
,  // measure 83
1001
0000
0010
0000
0100
0000
0001
0100
,  // measure 84
0001
1000
0010
1000
0010
0000
1001
0000
,  // measure 85
1001
0000
0010
0000
0100
0000
1000
0100
,  // measure 86
1000
0100
0010
0001
0100
0001
0010
0000
,  // measure 87
1001
0000
0100
0000
0001
0000
0010
0001
,  // measure 88
0100
0010
1000
0000
1100
0000
1000
0000
,  // measure 89
1100
0010
0100
0101
,  // measure 90
0011
0100
0001
1000
,  // measure 91
1001
0100
0010
0011
,  // measure 92
1100
0000
0100
0010
0001
0010
0200
0000
0000
2000
0000
0000
,  // measure 93
3300
0000
0000
0000
;
