#TITLE:Space Space Shooter;
#SUBTITLE:(Cusimo & Co. Remix);
#ARTIST:KICK+PUNCH;
#TITLETRANSLIT:;
#SUBTITLETRANSLIT:;
#ARTISTTRANSLIT:;
#GENRE:;
#CREDIT:;
#MENUCOLOR:;
#NEWMETERSYSTEM:NO;
#BANNER:Space Space Shooter (Cusimo & Co. Remix)-bn.png;
#BACKGROUND:Space Space Shooter (Cusimo & Co. Remix)-bg.png;
#LYRICSPATH:;
#CDTITLE:MixMania II CD Title.png;
#MUSIC:Space Space Shooter (Cusimo & Co. Remix).mp3;
#OFFSET:-0.540;
#SAMPLESTART:56.520;
#SAMPLELENGTH:12.000;
#SELECTABLE:YES;
#LISTSORT:;
#BPMS:0.000=179.980,292.000=179.920,296.000=179.980;
#STOPS:;
#BGCHANGES:;
#ATTACKS:;

//---------------dance-single - ----------------
#NOTES:
     dance-single:
     :
     Easy:
     5:
     0.372,0.351,0.070,0.180,0.000:
0000
0000
0000
0000
,
0000
0000
0000
0000
,
0000
0000
0000
0000
,
1000
0000
1000
0000
,
1000
0000
1000
0000
,
1001
0010
0001
0010
,
0100
1000
0100
1000
,
0100
0001
0010
0001
,
0200
0000
0000
0310
,
0110
1000
0100
0001
,
0100
1000
0100
0001
,
1000
0100
0001
0100
,
1000
0100
0001
1000
,
1001
0010
0001
0010
,
1000
0010
0001
0010
,
1000
0001
0100
1000
,
0020
0000
0000
0030
2000
0000
0010
0000
,
3100
0100
0100
0000
,
0100
0000
0100
0100
,
0010
0001
0100
1000
,
0100
0001
0010
0000
,
0001
0001
0001
0000
,
0001
0010
0100
1000
,
0001
1000
0100
0010
,
1000
0001
0100
0010
,
2002
0000
0000
3003
,
0100
1000
0100
0010
,
0001
0000
0001
0000
0010
0000
0000
0100
,
0010
0100
1000
0100
,
0001
1000
1001
0000
,
0100
1000
0100
0010
,
0001
0000
0100
0000
0001
0000
0000
0010
,
0001
0010
0100
0001
,
0200
0000
0320
0000
,
0130
1000
0100
0001
,
0100
1000
0100
0001
,
0010
0010
0100
0100
,
0010
0100
1000
0100
,
0100
1000
0100
0010
,
0001
0010
0100
0001
,
1000
0000
1000
0000
0001
0000
0000
1001
,
0000
0000
0000
0000
,
0100
0100
0010
0010
,
1000
0100
0001
0010
,
0001
0001
0010
0010
,
0002
0000
2003
0000
,
3010
1000
0010
0100
,
0001
0010
1000
0100
,
1000
0100
0010
0001
,
0200
0000
0320
0100
,
0130
1000
0100
0000
,
0100
0010
0001
0000
,
0001
1000
0100
0000
,
0010
0010
0100
0010
,
1000
0001
1000
0000
,
0001
1000
0001
0000
,
0010
0001
0010
0000
,
0100
1000
0100
0100
,
0001
0010
0100
1000
,
0001
0010
0100
1000
,
0100
0010
0001
1000
,
0100
0010
0002
0003
,
0100
0010
0001
0001
,
0010
0100
1000
0000
,
0001
0001
1000
1000
,
0200
0000
0000
0300
,
0010
0001
0100
0010
,
1000
0100
0010
1000
,
0001
0001
0100
0100
,
0010
0010
1000
1000
,
0100
1000
0010
0001
,
0100
1000
0010
0001
,
0001
0000
1000
0000
0001
0000
0000
2002
,
0000
0000
0000
3003
,
0100
0100
1000
1000
,
0100
0010
0001
0100
,
0001
1000
0010
0100
,
0020
0000
0230
0000
,
0301
0100
0010
0001
,
0010
0100
1000
0001
,
0100
0010
1000
0001
,
1000
1000
0100
0100
,
0001
0000
0010
0000
0200
0000
0000
0300
,
1000
0000
0100
0000
2000
0000
0000
3000
,
0001
0000
0100
0000
0002
0000
0000
0003
,
0010
0000
0000
1001
0000
0000
0100
0000
,
1000
0000
0001
0000
0020
0000
0000
0030
,
0100
0000
1000
0000
0200
0000
0000
0300
,
1000
0000
0001
0000
0002
0000
0000
0003
,
0010
0100
0010
1001
,
0010
0000
0000
0000
;

//---------------dance-single - Copied from----------------
#NOTES:
     dance-single:
     Copied from:
     Beginner:
     2:
     0.136,0.211,0.031,0.109,0.000:
0000
0000
0000
0000
,
0000
0000
0000
0000
,
0000
0000
0000
0000
,
0000
0100
0000
0100
,
0000
0100
0000
0100
,
0100
0000
0100
0000
,
0100
0000
0100
0000
,
0100
0000
0100
0000
,
0200
0000
0000
0300
,
0100
0000
0100
0000
,
1000
0000
1000
0000
,
0001
0000
0001
0000
,
0010
0000
0010
0000
,
0010
0000
0010
0000
,
0100
0000
0100
0000
,
1000
0000
1000
0000
,
0001
0000
0001
0000
,
0001
0001
0001
0000
,
0000
0000
0000
0000
,
0010
0000
0000
0000
,
0000
0000
0000
0000
,
1000
1000
1000
0000
,
0000
0000
0000
0000
,
0100
0000
0000
0000
,
0000
0000
0000
0000
,
2002
0000
3003
0000
,
1001
0000
0000
0000
,
0010
0000
0000
0000
,
0001
0000
0000
0000
,
1000
0000
0000
0000
,
0100
0000
0000
0000
,
0010
0000
0000
0000
,
0001
0000
0000
0000
,
0100
0000
0000
0000
,
0100
0000
0000
0000
,
0100
0000
0000
0000
,
2000
0000
0000
0000
,
3000
0000
0000
0000
,
0010
0000
0000
0000
,
0001
0000
0000
0000
,
0010
0000
0000
0000
,
0020
0000
0000
0030
,
0010
0000
0010
0000
,
0010
0000
0000
0000
,
0100
0000
0100
0000
,
0100
0000
0000
0000
,
1000
0000
1000
0000
,
1000
0000
0000
0000
,
0001
0000
0001
0000
,
0001
0000
0000
0000
,
0002
0000
0003
0000
,
2000
0000
3000
0000
,
0002
0000
0003
0000
,
0020
0030
0000
0000
,
0200
0000
0300
0000
,
2000
0000
3000
0000
,
0200
0000
0300
0000
,
0020
0030
0000
0000
,
0010
0000
0000
0000
,
0001
0000
0000
0000
,
0001
0000
0000
0000
,
1000
0000
0000
0000
,
0100
0000
0000
0000
,
0010
0000
0000
0000
,
0001
0000
0000
0000
,
2000
0000
0000
3000
,
1000
0000
0000
0000
,
0000
0000
0000
0000
,
0100
0000
0000
0000
,
0000
0000
0000
0000
,
0010
0000
0000
0000
,
0000
0000
0000
0000
,
0001
0000
0001
0000
,
1001
0000
0000
0000
,
1001
0000
0000
0000
,
0100
0000
0000
0000
,
0010
0000
0000
0000
,
0010
0000
0000
0000
,
0001
0000
0000
0000
,
1000
0000
0000
0000
,
0010
0000
0000
0000
,
0010
0000
0000
0000
,
0001
0000
0000
0000
,
1000
0000
0000
0000
,
0001
0000
1000
0000
,
0001
0000
0000
0000
,
1000
0000
0000
0000
,
0010
0000
0000
0000
,
0100
0000
0001
0000
,
0010
0000
0000
0000
,
0100
0000
0000
0000
;

//---------------dance-single - Copied from----------------
#NOTES:
     dance-single:
     Copied from:
     Challenge:
     9:
     0.664,0.671,0.273,0.148,0.098:
0000
0000
0000
0000
,
0000
0000
0000
0000
,
0000
0000
0000
0000
,
1000
0000
1000
0000
,
0001
0000
0001
0000
,
1000
0000
0000
1000
0100
0000
0000
0100
0010
0000
0000
0010
0001
0000
0000
0001
,
0010
0000
0000
0010
0100
0000
0000
0100
0010
0000
0000
0010
0100
0000
0000
0100
,
1000
0000
0000
1000
0100
0000
0000
0100
0010
0000
0000
0010
0001
0000
0000
0001
,
0100
0001
1000
0001
1000
0200
0020
0330
,
0110
1000
0100
0100
0010
0001
0010
0001
,
0100
0010
1000
0100
0010
0001
0020
0000
,
0130
1000
0001
0010
0100
1000
0001
1000
,
0100
1000
0010
1000
0001
0010
0100
0000
,
0010
1000
0001
1000
0010
0100
0001
1000
,
0100
0100
1000
0001
0010
0001
2000
0000
,
3100
0010
0001
1000
0100
0010
0001
1000
,
0001
1000
0100
0010
0100
1000
1100
0000
,
0100
0100
0010
0010
0001
0002
0010
0003
,
1000
0000
0100
0000
0010
0001
0001
0000
,
0010
0001
0100
0010
1000
0000
0100
0000
,
0010
0000
0100
0000
0001
1000
0110
0000
,
0010
0010
0001
0001
1000
2000
0100
3000
,
0010
0000
1000
0000
0001
0100
0100
0000
,
1000
0001
0100
0001
0010
0000
0001
0000
,
1000
0000
0001
0000
0100
0010
0100
0000
,
2002
0000
0000
0000
0000
3003
0000
0010
,
0001
0010
0100
1000
0001
1000
0000
0100
,
0001
0100
0010
0100
0001
0000
1001
1000
,
0001
1000
0100
1000
0010
0100
0001
0100
,
0010
0000
0100
0000
0001
0000
0000
0000
1000
0000
0000
0100
0001
0000
1000
0000
,
0010
0100
0010
1000
0001
0100
0000
0100
,
0010
1000
0100
0000
1001
0000
0010
0010
,
0001
0010
0100
1000
0100
0010
0001
1000
,
0001
0100
0001
0020
0000
0030
1000
0001
,
0011
0000
0010
0000
0100
0000
1000
0100
,
0000
0011
0000
0101
0000
1000
0001
0000
,
1000
0100
0010
0001
1000
0001
1001
0000
,
1000
0001
0100
0010
1000
0001
1001
0000
,
0100
0000
0001
0000
0010
0100
0000
1100
,
0000
1010
0000
1001
0000
0001
0010
0000
,
1000
0001
1000
0000
0001
1000
0000
0220
,
0000
0000
0000
0330
,
0001
0000
1000
0000
0001
0010
0001
0000
,
0100
0100
1000
1000
0010
0010
0110
0000
,
0001
0100
0001
1000
0010
0100
0001
0100
,
0010
1000
0001
1000
0001
0010
0011
0000
,
1000
0000
0001
0000
0001
1000
0010
0000
,
0010
0010
1000
1000
0001
0001
0011
0000
,
1000
0100
0010
0001
1000
0100
0020
0000
,
0031
1000
0001
0010
0100
0010
0200
0000
,
0310
0000
0001
0000
0001
0000
0010
0000
0100
0000
0000
1000
0000
0000
1000
0000
,
0001
0000
0010
0000
0100
0000
0010
0000
0001
0000
0000
1000
0000
0000
0100
0000
,
0100
0000
0010
0000
1000
0000
0001
0000
0100
0000
0000
0010
0000
0000
0001
0000
,
1000
0100
0100
0010
0001
1000
1100
0000
,
1000
0000
0001
0000
0100
0000
0010
0000
0100
0000
0000
0010
0000
0000
0100
0000
,
0001
0000
0010
0000
0100
0000
1000
0000
0001
0000
0000
1000
0000
0000
0100
0000
,
0010
0000
0001
0000
1000
0000
0100
0000
1000
0000
0000
0010
0000
0000
0100
0000
,
0001
0010
0001
0200
0000
0300
0000
0010
,
0001
1000
0001
1000
0010
0000
0000
0010
,
1000
0001
1000
0001
0010
0000
0000
0000
,
0001
1000
0001
0010
0001
1000
0010
1000
,
0100
1000
0001
1000
0001
0100
0101
0000
,
0100
0010
0100
0010
1000
0100
0010
0001
,
1000
0100
0010
0001
0010
0100
0110
0000
,
1000
0001
1000
0001
0100
0010
1000
0001
,
2000
0000
0000
3000
,
1001
0000
0100
0000
0010
0000
0001
0100
,
0000
1100
0000
0110
0000
0001
1000
0000
,
0100
0010
1000
0001
0100
0010
0100
0000
,
1000
0001
1000
0010
0100
0001
0010
0000
,
0100
0000
0001
0000
0010
0001
0000
0011
,
0000
0110
0000
1100
0000
0100
0010
0000
,
0001
0000
1000
0000
0001
0100
0000
0001
,
2002
0000
0000
3003
,
1100
0000
1000
0000
0010
0001
0100
0000
,
0010
0010
1000
1000
0010
0010
0110
0000
,
0010
1000
0001
0100
0010
1000
0010
0100
,
0001
0010
0100
1000
0001
1000
1100
0000
,
0001
0000
1000
0000
0001
1000
0001
0000
,
1000
1000
0001
0001
0010
0010
0110
0000
,
0001
1000
0100
1000
0001
0010
0001
0100
,
0010
0100
0010
1000
0020
0000
1030
0000
,
1001
0000
1000
0000
0010
0000
0100
0000
0010
0000
0000
0010
0000
0000
0100
0000
,
0001
0000
0010
0000
0100
0000
0010
0000
0100
0000
0000
0100
0000
0000
1000
0000
,
0100
0000
0010
0000
0100
0000
0010
0000
0001
0000
0000
0001
0000
0000
0001
0000
,
1000
0010
0100
0100
0001
1000
1001
0000
,
1000
0000
0001
0000
1000
0000
0001
0000
0100
0000
0000
0100
0000
0000
0001
0000
,
0010
0000
0001
0000
0100
0000
0001
0000
0010
0000
0000
0100
0000
0000
0100
0000
,
1000
0000
0010
0000
0100
0000
0001
0000
0010
0000
0000
0001
0000
0000
1000
0000
,
1000
0001
1000
0001
1000
0000
0110
0000
,
0002
0000
0000
0003
0000
0000
0000
0000
;

//---------------dance-single - Copied from----------------
#NOTES:
     dance-single:
     Copied from:
     Medium:
     6:
     0.415,0.457,0.266,0.102,0.047:
0000
0000
0000
0000
,
0000
0000
0000
0000
,
0000
0000
0000
0000
,
0000
0000
0000
0000
,
0000
0000
0000
0000
,
0010
0010
1000
1000
,
0010
0010
0100
0100
,
0001
0001
0010
0010
,
0100
1000
0100
0000
2002
0000
3003
0000
,
0001
1000
0001
1000
,
0001
0000
1000
0000
0010
0001
1000
0000
,
0001
1000
0001
1000
,
0001
0000
0100
0000
0001
1000
0001
0000
,
0010
0100
0010
0100
,
0010
0000
0100
0000
0010
1000
0100
0000
,
1000
0100
1000
0100
,
1000
0000
0100
0000
1000
0001
0100
0000
,
0001
0000
1000
0000
0001
1000
0000
0000
,
0001
1000
0100
0010
,
0100
0010
0001
0010
,
0100
1000
0100
0010
,
0001
0000
0010
0000
0100
1000
0000
0000
,
0100
1000
0001
1000
,
0100
0010
0001
1000
,
0001
0010
0100
1000
,
2002
0000
0000
3003
,
0001
0000
1000
0000
0001
1000
0000
0000
,
0010
0000
1000
0100
0010
0000
0000
0000
,
0100
1000
0001
0100
,
0001
1001
1001
0000
,
0100
0000
1000
0000
0010
1000
0000
0000
,
0100
0010
0001
0000
,
0100
0001
0100
1000
,
0001
0000
1000
0100
0000
0000
0000
0000
,
1001
0000
0100
0000
0010
0000
0100
0010
,
0000
0100
0000
0010
0000
0100
0000
0000
,
1000
0000
0001
1000
0000
0000
0010
0000
,
0001
0000
1000
0001
0000
0000
0100
0000
,
1000
0000
0100
0000
0010
0001
0000
0010
,
0000
0001
0000
0200
0000
0000
0300
0000
,
0001
0000
1000
0000
0100
1000
0000
0220
,
0000
0000
0000
0330
,
0100
0000
0100
0000
0010
0100
0010
0000
,
1100
0000
1010
0000
0101
0000
0000
1000
,
0100
0010
0001
0100
,
0001
0000
0010
0100
0000
0000
0000
0000
,
0001
0000
0001
0000
0010
0001
0010
0000
,
0011
0000
0101
0000
1010
0000
0000
1000
,
0100
1000
0010
0100
,
0001
1000
0001
0010
0000
0000
0000
0000
,
0100
0000
0000
0000
1000
0000
0000
0000
0001
0000
0000
0010
0000
0000
0000
0000
,
0001
0000
0000
0000
1000
0000
0000
0000
0100
0000
0000
1000
0000
0000
0000
0000
,
0100
0000
0000
0000
1000
0000
0000
0000
0010
0000
0000
0100
0000
0000
0000
0000
,
0100
0000
0010
0002
0000
0000
0003
0000
,
1000
0000
0000
0000
0100
0000
0000
0000
0010
0000
0000
0001
0000
0000
0000
0000
,
0100
0000
0000
0000
0001
0000
0000
0000
0010
0000
0000
0100
0000
0000
0000
0000
,
1000
0000
0000
0000
0001
0000
0000
0000
1000
0000
0000
0100
0000
0000
0000
0000
,
0001
0000
0100
0020
0000
0030
0000
0000
,
1001
0100
1001
0000
,
0010
1001
0010
0000
,
1100
0010
0001
0100
,
0011
0101
0011
0000
,
0110
1000
0110
0000
,
0001
0110
0001
0000
,
1001
0001
0100
1000
,
2002
0000
0000
3003
,
1001
0000
0100
0000
0010
0000
0100
0010
,
0000
0001
0000
0100
0000
0010
0000
0000
,
1000
0000
0100
1000
0000
0000
0100
0000
,
0001
0000
0100
0001
0000
0000
0100
0000
,
0010
0000
0100
0000
0010
0100
0000
0010
,
0000
1000
0000
0100
0000
0000
0000
0000
,
1000
0000
0001
0000
0100
0001
0000
0010
,
0020
0000
0000
0030
,
0100
0000
0010
0000
0100
1000
0100
0000
,
1100
0011
0101
0000
,
1000
0010
0001
0100
,
0001
0000
0010
0100
0000
0000
0000
0000
,
0001
0000
1000
0000
0001
0010
0001
0000
,
0101
0000
1010
0000
0101
0000
0000
1000
,
0100
0010
0001
0100
,
0001
1000
0010
2000
0000
0000
3000
0000
,
0100
0000
0000
0000
1000
0000
0000
0000
0100
0000
0000
0100
0000
0000
0000
0000
,
0010
0000
0000
0000
0001
0000
0000
0000
1000
0000
0000
1000
0000
0000
0000
0000
,
0010
0000
0000
0000
1000
0000
0000
0000
0010
0000
0000
0010
0000
0000
0000
0000
,
1000
0000
0100
0010
0000
0000
1001
0000
,
1001
0000
0000
0000
1000
0000
0000
0000
0001
0000
0000
0001
0000
0000
0000
0000
,
0010
0000
0000
0000
0100
0000
0000
0000
0010
0000
0000
0010
0000
0000
0000
0000
,
1000
0000
0000
0000
0100
0000
0000
0000
1000
0000
0000
1000
0000
0000
0000
0000
,
0100
0001
1000
0001
1000
0000
0010
0000
,
0110
0000
0000
0000
;

//---------------dance-single - Copied from Copied f----------------
#NOTES:
     dance-single:
     Copied from Copied f:
     Hard:
     8:
     0.498,0.529,0.187,0.133,0.047: // measure 1
0000
0000
0000
0000
,  // measure 2
0000
0000
0000
0000
,  // measure 3
0000
0000
0000
0000
,  // measure 4
0000
0100
0000
0100
,  // measure 5
0000
0100
0000
0100
,  // measure 6
1000
0001
1000
0001
,  // measure 7
0010
0100
1000
0001
,  // measure 8
1000
0100
1000
0001
,  // measure 9
0100
0001
1000
0010
0200
0000
0000
0000
,  // measure 10
0310
0000
0100
0000
0010
1000
0100
0000
,  // measure 11
1000
0000
0100
0000
0010
0001
0100
0000
,  // measure 12
0001
0000
1000
0000
0010
0100
0010
0000
,  // measure 13
1000
0000
0100
1000
0100
0000
1001
0000
,  // measure 14
0100
0000
0001
0000
0010
0001
0100
0000
,  // measure 15
0010
0000
1000
0000
0100
1000
0010
0000
,  // measure 16
0100
0000
1000
0000
0001
1000
0001
0000
,  // measure 17
0100
1000
0010
0100
0001
0000
1001
0000
,  // measure 18
0100
0001
0100
0010
0100
0002
0000
0003
,  // measure 19
1000
0000
0100
0000
0010
0001
0200
0000
,  // measure 20
0301
0000
1000
0000
0100
1000
0010
0000
,  // measure 21
0100
0000
0010
0000
0001
1000
0100
0000
,  // measure 22
0010
1000
0100
1000
0010
2000
0000
3000
,  // measure 23
0100
0000
0010
0000
0010
0100
1000
0000
,  // measure 24
0100
0001
1000
0100
,  // measure 25
0010
0100
0010
1000
0002
0000
2003
0000
,  // measure 26
0200
0000
0000
3300
,  // measure 27
1000
0001
1000
0100
0010
0000
0100
0000
,  // measure 28
0001
1000
0001
0000
1001
0000
0100
0000
,  // measure 29
0010
1000
0100
0010
0001
0000
0100
0000
,  // measure 30
0001
1000
0001
0000
1001
0000
0000
0000
,  // measure 31
0010
0100
0001
0000
0010
0000
0100
1000
,  // measure 32
0010
0100
0001
0000
1000
0000
0100
0000
,  // measure 33
0001
0000
1000
0000
0001
1000
0001
0000
,  // measure 34
0010
0001
0010
0100
0000
0000
1000
0000
,  // measure 35
0001
0000
1000
0000
0001
0000
0010
0100
,  // measure 36
0000
0010
0000
1000
0000
0100
0000
0000
,  // measure 37
0001
1000
0100
0010
0000
0000
0100
0000
,  // measure 38
0001
0010
0001
1000
0000
0000
0100
0000
,  // measure 39
0010
0000
1000
0000
0100
0010
0000
0001
,  // measure 40
0000
0010
0000
0100
0000
0000
0100
0000
,  // measure 41
0001
0000
1000
0000
0001
1000
0010
0000
,  // measure 42
0200
0000
0000
0300
,  // measure 43
0010
0000
1000
0000
0100
1000
0010
0000
,  // measure 44
0100
0010
0100
0010
0100
0010
0000
0100
,  // measure 45
1000
0100
0010
0001
,  // measure 46
1000
0001
0010
0100
0000
0000
0001
0000
,  // measure 47
1000
0000
0100
0000
1000
0100
1000
0000
,  // measure 48
0001
0010
0001
0010
0001
0010
0000
0100
,  // measure 49
1000
0100
0010
1000
,  // measure 50
0100
1000
0001
0100
0000
0000
1001
0000
,  // measure 51
0010
0000
0100
0000
0010
0000
0000
0000
0001
0000
0000
1000
0000
0000
0000
0000
,  // measure 52
0100
0000
1000
0000
0010
0000
0000
0000
0100
0000
0000
0001
0000
0000
0000
0000
,  // measure 53
0100
0000
0010
0000
0100
0000
0000
0000
1000
0000
0000
0010
0000
0000
0000
0000
,  // measure 54
0100
0001
0010
0100
0000
0000
0010
0000
,  // measure 55
0001
0000
1000
0000
0001
0000
0000
0000
0010
0000
0000
0010
0000
0000
0000
0000
,  // measure 56
1000
0000
0100
0000
1000
0000
0000
0000
0100
0000
0000
0100
0000
0000
0000
0000
,  // measure 57
1000
0000
0100
0000
0010
0000
0000
0000
0001
0000
0000
0001
0000
0000
0000
0000
,  // measure 58
1000
0001
0100
0020
0000
0000
0030
0000
,  // measure 59
1001
1100
1001
0000
,  // measure 60
0011
1001
0011
0000
,  // measure 61
0100
1000
0100
0000
0010
0001
0010
0000
,  // measure 62
0001
1000
0001
0100
0001
0000
0000
0000
,  // measure 63
1100
0110
0011
0000
,  // measure 64
0101
1001
1010
0000
,  // measure 65
0100
1000
0100
0000
0010
0001
0010
0000
,  // measure 66
2002
0000
0000
3003
,  // measure 67
1001
0000
0010
0000
0001
0000
0100
0001
,  // measure 68
0000
0010
0000
0100
0000
1000
0000
0000
,  // measure 69
0100
1000
0010
0200
0000
0300
0001
0000
,  // measure 70
0010
0001
0100
0020
0000
0030
0000
1000
,  // measure 71
0100
0000
1000
0000
0100
0010
0000
0001
,  // measure 72
0000
1000
0000
0001
0000
0000
1000
0000
,  // measure 73
1001
0000
0010
0000
0100
0010
0000
0020
,  // measure 74
0200
0000
0000
0330
,  // measure 75
0001
0000
1000
0000
0100
1000
0010
0000
,  // measure 76
0100
0010
0100
0010
0100
0010
0000
0001
,  // measure 77
1000
0010
0100
0001
,  // measure 78
1000
0100
0010
0001
0000
0000
0110
0000
,  // measure 79
1000
0000
0001
0000
0010
0100
1000
0000
,  // measure 80
0001
1000
0001
1000
0001
1000
0000
1000
,  // measure 81
0001
0100
0010
1000
,  // measure 82
0001
0010
0100
1000
0000
0000
0010
0000
,  // measure 83
0001
0000
1000
0000
0100
0000
0000
0000
0010
0000
0000
0010
0000
0000
0000
0000
,  // measure 84
0001
0000
1000
0000
0001
0000
0000
0000
1000
0000
0000
1000
0000
0000
0000
0000
,  // measure 85
0100
0000
1000
0000
0010
0000
0000
0000
0100
0000
0000
0100
0000
0000
0000
0000
,  // measure 86
0001
0010
0100
1000
0000
0000
1001
0000
,  // measure 87
1000
0000
0001
0000
1000
0000
0000
0000
0100
0000
0000
0010
0000
0000
0000
0000
,  // measure 88
0001
0000
1000
0000
0001
0000
0000
0000
0010
0000
0000
0100
0000
0000
0000
0000
,  // measure 89
0010
0000
0001
0000
0100
0000
0000
0000
0100
0000
0000
0010
0000
0000
0000
0000
,  // measure 90
1000
0100
0010
0001
0000
0000
1001
0000
,  // measure 91
2200
3300
0000
0000
;
