#TITLE:Quiet;
#SUBTITLE:;
#ARTIST:Eleharmonic and Freddy Hatae;
#TITLETRANSLIT:;
#SUBTITLETRANSLIT:;
#ARTISTTRANSLIT:;
#GENRE:;
#CREDIT:;
#MENUCOLOR:;
#NEWMETERSYSTEM:NO;
#BANNER:Quiet-bn.png;
#BACKGROUND:Quiet-bg.png;
#LYRICSPATH:;
#CDTITLE:MixMania II CD Title.png;
#MUSIC:Quiet.mp3;
#OFFSET:-0.380;
#SAMPLESTART:65.400;
#SAMPLELENGTH:11.980;
#SELECTABLE:YES;
#LISTSORT:;
#BPMS:0.000=142.020;
#STOPS:;
#BGCHANGES:;
#ATTACKS:;

//---------------dance-single - ----------------
#NOTES:
     dance-single:
     :
     Easy:
     3:
     0.235,0.283,0.070,0.132,0.000:
0000
0000
0000
0000
,
0000
0000
0000
0000
,
0000
0000
0000
0000
,
0000
0000
0000
0000
,
1002
0000
0000
0000
,
0200
0000
0000
0303
,
1001
0000
0001
1000
,
0100
0000
0100
0010
,
0001
0000
0001
0100
,
0001
0010
0100
1000
,
0001
0000
0001
1000
,
0010
0000
0010
0100
,
0001
0000
0001
0010
,
0100
0000
0000
1000
0000
0000
0100
0000
,
0010
0000
0100
0000
,
0001
1000
0010
0100
,
0010
0000
0100
0000
,
1000
0000
0100
0010
,
0100
0000
0000
0010
0000
0000
0000
0000
,
0001
0000
0000
0100
0000
0000
0010
0000
,
1000
0100
0020
0000
,
0031
0000
0100
0000
,
0010
0000
0001
0000
,
0100
0001
0010
0100
,
1000
0000
0100
0000
,
1000
0000
0010
0100
,
0001
0000
0000
0010
0000
0000
0000
0000
,
0100
0000
0000
1000
0000
0000
0100
0000
,
0010
0001
1000
0000
,
0001
0000
0001
0000
,
1000
0001
1000
0100
,
0010
0001
0010
0100
,
0020
0000
0000
0000
,
0230
0000
0320
0000
,
0032
0000
0000
0000
,
2003
0000
3200
0000
,
0320
0000
0000
0030
,
1001
0000
1001
0000
,
1000
0100
0010
0001
,
1001
0001
1000
0010
,
0200
0300
0002
0003
,
0010
0000
0001
0000
,
0100
0000
0010
1000
,
0100
1000
0100
0010
,
0001
1000
0001
0020
,
0002
0000
0000
0000
,
0033
0000
1001
0100
,
1001
0100
1000
0100
,
0010
0001
0100
0010
,
1000
0000
0100
0000
,
0010
0000
0001
0100
,
0010
0001
0100
0010
,
1000
0100
1000
0100
,
0100
0000
0010
0001
,
0100
0000
0010
0100
,
0110
0000
0001
1000
,
0100
0000
0100
0001
,
0010
0000
0001
0100
,
0001
1000
0010
0100
,
0001
0000
0100
0010
,
1000
0000
0010
1000
,
0100
0000
0010
0001
,
0010
0000
0000
0001
0000
0000
2000
0000
,
0000
0000
0000
0000
,
0000
0000
3000
0000
;

//---------------dance-single - Copied from----------------
#NOTES:
     dance-single:
     Copied from:
     Beginner:
     1:
     0.083,0.138,0.009,0.053,0.000:
0000
0000
0000
0000
,
0000
0000
0000
0000
,
0000
0000
0000
0000
,
0000
0000
0000
0000
,
0000
0000
0000
0000
,
0000
0000
0001
0000
,
0001
0000
0000
0000
,
0100
0000
0000
0000
,
0010
0000
0000
0000
,
1000
0000
0000
0000
,
1000
0000
0000
0000
,
0100
0000
0000
0000
,
1000
0000
0000
0000
,
0001
0000
0000
0000
,
1001
0000
0000
0000
,
0000
0000
0000
0000
,
0010
0000
0000
0000
,
0010
0000
0000
0000
,
0100
0000
0000
0000
,
0100
0000
0000
0000
,
0002
0000
0000
0000
,
0003
0000
0000
0000
,
1000
0000
0000
0000
,
0100
0000
0000
0000
,
0100
0000
0000
0000
,
0010
0000
0000
0000
,
0001
0000
0000
0000
,
0100
0000
0000
0000
,
0010
0000
0000
0000
,
0200
0000
0000
0000
,
0300
0000
0000
0000
,
1000
0000
0000
0000
,
0002
0000
0003
0000
,
2000
0000
3000
0000
,
1000
0000
0000
0000
,
0100
0000
0100
0000
,
0100
0000
0000
0000
,
0010
0000
0010
0000
,
0020
0000
0000
0000
,
0030
0000
0000
0000
,
0001
0000
0000
0000
,
0100
0000
0000
0000
,
0010
0000
0010
0000
,
0010
0000
0000
0000
,
1000
0000
0000
0000
,
0100
0000
0000
0000
,
0010
0000
0020
0000
,
0030
0000
0000
0000
,
0100
0000
0000
0000
,
0001
0000
0000
0000
,
1000
0000
0000
0000
,
1000
0000
0000
0000
,
0100
0000
0000
0000
,
0010
0000
0000
0000
,
0001
0000
0000
0100
,
0100
0000
0000
0000
,
0010
0000
0000
0000
,
1000
0000
0000
0000
,
0100
0000
0000
0000
,
0100
0000
0000
0000
,
0010
0000
0000
0000
,
0001
0000
0000
0000
,
0100
0000
0000
0000
,
0010
0000
0000
0000
;

//---------------dance-single - Copied from----------------
#NOTES:
     dance-single:
     Copied from:
     Medium:
     6:
     0.364,0.368,0.097,0.123,0.022:
0000
0000
0000
0000
,
0000
0000
0000
0000
,
0000
0000
0000
0000
,
0000
0000
0000
0000
,
2000
0000
0000
0000
,
0200
0000
0000
3300
,
1001
0000
0100
0000
1000
0010
0100
0000
,
0001
0000
1000
0000
0001
0100
0010
0000
,
0001
0000
0100
0000
0010
1000
0100
0000
,
0010
0001
0010
0100
,
1001
0000
0100
0000
1000
0100
0010
0000
,
0001
0000
0100
0000
0010
1000
0100
0000
,
1000
0000
0100
0000
0010
0001
0100
0000
,
0001
0000
0000
1000
0000
0000
0001
1000
,
0010
0100
0010
0100
,
0001
0000
0010
0000
0100
1000
0100
0000
,
0010
0000
0001
0000
0100
0000
0010
1000
,
0001
0000
0100
0010
0100
0000
1000
0000
,
0100
0000
0010
0000
0001
0000
0100
0001
,
0010
0000
0100
0000
1000
0000
0010
0100
,
0001
0000
0010
0100
2000
0000
0100
0000
,
3100
0000
0010
0001
1000
0000
0100
0000
,
1001
0000
0010
0000
0001
0000
0100
0001
,
0010
0000
0100
1000
0000
0100
0000
1000
,
0010
0000
0100
0000
0001
0000
0010
0001
,
0010
0100
0010
1000
,
2100
0000
0000
3100
0000
0000
0100
0000
,
0012
0000
0000
0013
0000
0000
0010
0001
,
1000
0000
0010
1000
0001
0000
0100
0000
,
1000
0000
0000
0001
0000
0000
1000
0000
0000
0001
0000
0000
0010
0000
0000
0000
,
0010
1001
0100
0010
,
1000
0100
0010
0000
0100
0000
0001
0000
,
1000
0000
0000
0001
0000
0000
0010
0000
0100
0000
0000
0000
0001
0000
0000
0000
,
1000
0000
0000
0010
0000
0000
0100
0000
0001
0000
0000
0000
0010
0000
0000
0000
,
1001
0000
0100
0000
0001
0000
0010
1000
,
0100
1000
0100
0010
,
0001
0000
0100
0000
1000
0000
0010
1000
,
0100
0100
0000
0000
0010
0010
0000
0000
,
0100
0000
0100
0000
0010
0001
0010
0001
,
0100
0010
0100
1000
,
0200
0000
0010
0000
0310
0000
0001
1000
,
0001
0100
0020
1000
,
1030
0000
0100
0000
0010
0001
0001
0000
,
0100
0001
0010
0100
,
1000
0100
0010
0001
,
2001
0010
3001
0100
,
1002
0000
0000
0000
0010
0000
0000
0000
1003
0000
0000
0100
0000
0000
0010
0000
,
0001
0100
0010
1000
,
0200
0000
1000
0000
1300
0000
0100
1000
,
0010
0001
0002
0100
,
0103
0000
0010
0000
0001
1000
1000
0000
,
0100
0010
0001
0100
,
0001
0010
0100
1000
,
0002
1003
0100
0010
,
0200
0000
0310
0000
0010
0000
1000
0100
,
0010
0001
0010
0100
,
1000
0000
0100
0000
0010
0001
0100
0000
,
0010
0000
1000
0000
0100
1000
0010
0000
,
0100
0000
0000
0010
0000
0000
1000
0000
,
0100
0000
0010
0000
0001
0100
0010
0000
,
1000
0000
0001
0000
0100
0010
1000
0000
,
1000
0000
0001
0000
1000
0100
0010
0000
,
1001
0000
0000
1001
0000
0000
0010
1000
,
0020
0000
0000
0000
,
0000
0000
0030
0000
;

//---------------dance-single - Copied from Copied f----------------
#NOTES:
     dance-single:
     Copied from Copied f:
     Hard:
     8:
     0.530,0.534,0.255,0.211,0.154:
0000
0000
0000
0000
,
0000
0000
0000
0000
0000
0000
0010
0001
,
0020
0000
0230
0000
,
0320
0000
0000
0000
0000
0000
0001
0030
0001
0000
0000
0000
0100
0000
0000
0000
,
0002
0000
0000
0000
,
2000
0000
0000
3003
,
1001
0000
0000
0001
0000
0000
0010
0000
0001
0000
0100
0000
0010
0000
0000
0000
,
1000
0000
0000
0100
0000
0000
1000
0000
0010
0000
1000
0000
0001
0000
0100
0000
,
0001
0000
0000
0100
0000
0000
0010
0000
1000
0000
0100
0000
1000
0000
0000
0000
,
0100
0000
0000
0010
0000
0000
0001
0000
0000
1000
0000
0000
0001
0000
0010
0000
,
0001
0000
0000
0100
0000
0000
0010
0000
1000
0000
0001
0000
1000
0000
0100
0000
,
0010
0000
0000
0001
0000
0000
0100
0000
0001
0000
0010
0000
0100
0000
1000
0000
,
0100
0000
0000
1000
0000
0000
0010
0000
0100
0000
0001
0000
0010
0000
0001
0000
,
0100
0001
0100
0010
0100
0010
1000
0100
,
1000
0001
0000
1000
0001
1000
0000
1000
,
0020
0000
0130
0100
0000
0100
0010
0001
,
0200
0000
0310
2000
0000
3100
1000
0100
,
0020
0000
0031
0200
0000
0301
0010
0001
,
0100
0010
1000
0200
0000
1300
0100
1000
,
0100
0010
0001
0200
0000
0301
0010
0001
,
0100
0010
1000
0100
2000
0000
3200
0000
,
0310
0001
0100
0002
0000
1003
0010
0100
,
0010
0001
0000
1000
0100
0010
0000
0001
,
0100
0010
1000
0100
0000
0100
0010
0001
,
0200
0000
0301
0020
0000
0031
0100
0001
,
2000
0000
3010
0200
0000
0310
1000
0001
,
0100
1000
0100
0020
0000
0130
0001
1000
,
0100
0010
0001
0200
0000
0301
0010
0100
,
1000
0100
0010
0001
2000
0000
3002
0000
,
0103
0000
0000
0001
0000
0000
0001
0000
0000
0100
0000
0000
0010
0000
1000
0000
,
0100
1000
0100
0010
0001
0100
0001
0010
,
0001
0000
0001
0000
0001
0000
0000
0100
0000
0000
0010
0000
1000
0000
0100
0000
,
1000
0000
0000
0100
0000
0000
0010
0000
0001
0000
0000
0000
0100
0000
0000
0000
,
0001
0000
0000
0010
0000
0000
0100
0000
1000
0000
0000
0100
0000
0000
0010
0000
,
1001
0000
0001
0000
0100
0001
0010
0100
,
1000
0000
1000
0100
0010
0000
0010
0001
,
0100
0001
0010
0100
1000
0000
1000
0001
,
1000
1000
0001
1000
0001
0001
1000
0001
,
0100
0100
0001
0001
0010
0010
0001
0001
,
1001
1100
1010
1001
,
1001
0000
0011
0100
0110
0000
1001
0001
,
0101
1010
1001
0100
,
0011
0000
0100
0000
0001
1000
1100
0000
,
0100
0000
0010
0000
0000
0001
0000
0000
0100
0000
0000
0001
0000
0000
0010
0000
,
0100
0000
1000
0000
0000
0100
0000
0000
1000
0000
0000
0100
0000
0000
0010
0000
,
0001
0000
0000
0100
0000
0000
0001
0000
1000
0000
0000
0000
0100
0000
0000
0000
,
1000
0000
0000
0010
0000
0000
0100
0000
0001
0100
0000
0010
0000
0000
0100
0000
,
1001
1010
0101
0011
,
1100
0000
1010
1000
1100
0000
0010
0001
,
0101
0010
0101
1000
,
0011
0000
0011
0000
0100
0010
1010
0000
,
0100
0000
0001
0000
0000
0010
0000
0000
0100
0000
0000
1000
0000
0000
0100
0000
,
0010
0000
0001
0000
0000
0100
0000
0000
0010
0000
0000
1000
0000
0000
0100
0000
,
1000
0000
0100
0000
0000
0010
0000
0000
0001
0000
0100
0000
0010
0000
0001
0000
,
0010
0000
1000
0100
0001
0000
1001
0000
,
0110
0000
0000
1000
0000
0000
0100
0000
0010
0000
0001
0000
0100
0000
0001
0000
,
0100
0000
0000
0010
0000
0000
1000
0000
0100
0000
1000
0000
0100
0000
0010
0000
,
0001
0000
0000
0100
0000
0000
0001
0000
0010
0000
0100
0000
1000
0000
0010
0000
,
0100
0000
0000
0001
0000
0000
1000
0000
0000
0001
0000
0000
0100
0000
0000
0000
,
1000
0000
0000
0001
0000
0000
0100
0000
0001
0000
0010
0000
0100
0000
0010
0000
,
1000
0000
0000
0100
0000
0000
1000
0000
0010
0000
0100
0000
0001
0000
0010
0000
,
0100
0000
0000
1000
0000
0000
0100
0000
0010
0000
0001
0000
1000
0000
0001
0000
,
0001
1000
0001
1000
0100
1000
0001
1000
,
0002
0000
0000
0000
,
0003
0000
0000
0000
;

//---------------dance-single - Copied from----------------
#NOTES:
     dance-single:
     Copied from:
     Challenge:
     10:
     0.679,0.709,0.466,0.158,0.378: // measure 1
0000
0000
0000
0000
,  // measure 2
0000
0000
0000
0000
0000
0000
1000
0100
,  // measure 3
1200
0000
2300
0000
,  // measure 4
3200
0000
0000
0310
0002
0000
0203
0000
,  // measure 5
0302
0000
0000
0000
,  // measure 6
0200
0000
0000
0000
0000
0000
0000
0000
0303
0000
0000
0000
0001
0100
0001
0100
,  // measure 7
0001
0000
0000
0100
0000
0000
0010
0000
1000
0000
0100
0000
0010
0000
0001
0000
,  // measure 8
0100
0000
0100
0001
0000
0001
0010
0000
0010
0100
0000
0100
0010
0000
0010
0000
,  // measure 9
0001
0000
0000
1000
0000
0000
0100
0000
0010
0000
0001
0000
1000
0000
0001
0000
,  // measure 10
0001
0000
0001
0100
0000
0100
0010
0000
0010
1000
0000
1000
0100
0000
0100
0000
,  // measure 11
0010
0000
0000
0001
0000
0000
1000
0000
0100
0000
0010
0000
0001
0000
1000
0000
,  // measure 12
0001
0000
0001
1000
0000
1000
0010
0000
0010
0100
0000
0100
0001
0000
0001
0000
,  // measure 13
0010
0000
0000
0001
0000
0000
0100
0000
0010
0000
1000
0000
0100
0000
1000
0000
,  // measure 14
0100
1000
0100
1000
0100
0000
0010
0001
0010
0001
0010
0000
0001
0100
0001
0100
,  // measure 15
0001
0100
0100
0010
1000
1000
0100
1000
,  // measure 16
0100
0010
0001
0100
0001
0010
0010
0001
,  // measure 17
0011
0001
0100
0010
1000
0100
1000
1010
,  // measure 18
1010
1000
0100
0010
0011
0001
0100
0001
,  // measure 19
1001
0001
0100
0001
0010
0001
0101
0001
,  // measure 20
0011
0001
0100
0010
1000
0100
1100
1000
,  // measure 21
1010
0001
1010
1000
1100
0000
0001
0000
,  // measure 22
0101
0000
1000
0000
0100
0000
0010
0001
0010
0000
0001
0000
0010
0000
0100
0000
,  // measure 23
0010
0010
0100
0010
0001
0001
0010
0001
,  // measure 24
1000
0001
1000
0100
1000
0010
0010
1000
,  // measure 25
1100
1000
0010
0100
0001
0010
0001
0101
,  // measure 26
0101
0100
0010
1000
1100
1000
0010
0100
,  // measure 27
0101
0001
1000
0001
1000
0001
0001
0010
,  // measure 28
0011
0001
0100
0110
0010
0010
0100
0010
,  // measure 29
1100
0100
1100
0100
0110
0010
0010
0001
,  // measure 30
0011
0000
0000
0101
0000
0000
1100
0000
0000
0101
0000
0000
1001
0000
0110
0000
,  // measure 31
1001
0000
0000
0000
0110
0000
0000
1000
0000
0000
0100
0000
0000
0000
0001
0000
,  // measure 32
0010
0000
0010
0000
0010
0000
0000
0100
0000
0000
0010
0000
1000
0000
0100
0000
,  // measure 33
0010
0000
0000
0001
0000
0000
1000
0000
0002
0000
0000
0000
0013
0000
0000
0000
,  // measure 34
0110
0000
0000
1000
0000
0000
0001
0000
0110
0000
0000
1000
0000
0000
0001
0000
,  // measure 35
0110
0000
1000
0000
0100
0010
0001
0001
,  // measure 36
0101
0000
0001
0010
0011
0000
0100
1000
,  // measure 37
1010
1000
0100
0010
0002
0000
0103
0001
,  // measure 38
0010
0000
0010
0000
0001
0010
0001
0000
0100
0000
0100
0000
0010
0100
0010
0000
,  // measure 39
0100
0000
0100
0000
0010
0000
0010
0000
0001
0010
0001
0010
0100
0010
0100
0010
,  // measure 40
0200
0320
2030
3200
,  // measure 41
0310
0000
0001
0000
1000
0000
0100
1000
0001
0000
0100
0000
0100
0000
0010
0000
,  // measure 42
0011
0000
0100
0001
1001
0000
0100
1000
,  // measure 43
1010
1000
0100
0010
0001
0101
0101
0000
,  // measure 44
0001
0000
1000
0000
0100
1000
0000
0010
1000
0000
0001
1000
0000
0001
1000
0000
,  // measure 45
0010
0000
1000
0000
0001
1000
0000
0001
0100
0000
0001
1000
0000
0001
0010
0000
,  // measure 46
0001
0000
0000
1000
0000
0000
0001
0000
0010
0000
0000
0000
0110
0000
0000
0000
,  // measure 47
1000
0000
0000
0100
0000
0000
0010
0000
0001
1000
0000
0110
0000
0000
1001
0000
,  // measure 48
1002
2003
3200
0320
,  // measure 49
0031
0000
1000
0000
0001
0000
0010
0001
1000
0000
0100
0000
0100
0000
0010
0000
,  // measure 50
0011
0000
0001
1000
1100
0000
1000
0010
,  // measure 51
1100
0001
1000
0010
0100
0110
0110
0000
,  // measure 52
1001
0000
0001
0000
1000
0001
0000
0100
0001
0000
1000
0001
0000
0100
0001
0000
,  // measure 53
0001
0000
1000
0000
0010
1000
0000
0001
1000
0000
0100
1000
0000
0001
1000
0000
,  // measure 54
0100
0000
0010
0000
0100
0001
0000
0100
0010
0000
0100
0001
0000
0100
0010
0000
,  // measure 55
0100
0100
1000
0100
0010
0010
0001
0001
,  // measure 56
0011
0000
0000
0001
0000
0000
0010
0000
0100
0000
1000
0000
0100
0000
0010
0000
,  // measure 57
0001
0000
0001
0100
0000
0100
0010
0000
0010
1000
0000
1000
0001
0000
1000
0000
,  // measure 58
0001
0000
0000
1000
0000
0000
0001
0000
0010
0000
0001
0000
1000
0000
0100
0000
,  // measure 59
0010
0000
0010
0001
0000
0001
1000
0000
1000
0010
0000
0010
0100
0000
0100
0000
,  // measure 60
0010
0000
0000
1000
0000
0000
0001
0000
1000
0000
0010
0000
0100
0000
0001
0000
,  // measure 61
0100
0000
0100
0010
0000
0010
1000
0000
1000
0100
0000
0100
0010
0000
0001
0000
,  // measure 62
0100
0000
0000
1000
0000
0000
0100
0000
0010
0000
0001
0000
0100
0000
0010
0000
,  // measure 63
0100
0001
0100
0001
0100
0000
0100
1000
0100
1000
0100
0000
0100
0010
0100
0010
,  // measure 64
0200
0000
0000
0000
,  // measure 65
0000
0000
0300
0000
;
