#TITLE:POODLE;
#SUBTITLE:;
#ARTIST:Y&Co.;
#TITLETRANSLIT:;
#SUBTITLETRANSLIT:;
#ARTISTTRANSLIT:;
#GENRE:;
#CREDIT:;
#MENUCOLOR:;
#NEWMETERSYSTEM:NO;
#BANNER:POODLE-bn.png;
#BACKGROUND:POODLE-bg.png;
#LYRICSPATH:;
#CDTITLE:MixMania II CD Title.png;
#MUSIC:POODLE.mp3;
#OFFSET:-0.380;
#SAMPLESTART:40.420;
#SAMPLELENGTH:12.000;
#SELECTABLE:YES;
#LISTSORT:;
#BPMS:0.000=160.000;
#STOPS:;
#BGCHANGES:;
#ATTACKS:;

//---------------dance-single - ----------------
#NOTES:
     dance-single:
     :
     Easy:
     4:
     0.315,0.351,0.057,0.106,0.000:
0000
0000
0000
0000
,
0000
0000
0000
0000
,
0000
0000
0000
0000
,
0000
0000
0000
0000
,
0000
0000
0000
0010
,
1001
0100
0001
1000
,
0100
1000
0010
0001
,
0100
0001
1000
0100
,
1000
0010
0100
0001
,
0020
0000
0000
0000
,
1000
1000
1000
0130
,
1001
0100
1000
0100
,
0010
0000
0001
0000
,
0001
0010
0100
1000
,
0200
0000
2300
0000
,
3010
0100
0001
1000
,
0100
0000
0010
0000
,
1000
0100
0010
0001
,
2000
0000
3002
0000
,
0013
0000
0100
0000
,
0010
0001
1000
0100
,
1000
0000
0100
0000
,
0010
0001
0100
0010
,
1000
0000
0001
0000
,
0010
0100
0001
1000
,
0020
0000
0032
0000
,
2003
0000
0001
3001
,
0110
1000
0010
0001
,
0100
1000
0010
1000
,
0100
0000
0010
0001
,
0010
1000
0100
1000
,
1000
0000
0100
0000
,
0010
0001
0010
0001
,
1000
0000
0100
1000
,
0100
0010
0001
0000
,
0010
0001
0100
0000
,
0010
1000
0100
0000
,
1000
0100
0001
0100
,
0010
1001
0100
1000
,
0010
0000
1000
0000
,
0100
0000
0001
0010
,
1000
0000
0100
0000
,
1000
0000
0010
0001
,
1000
0100
1000
0010
,
0001
0100
0001
0010
,
0100
1000
0100
0010
,
0001
0010
1000
0001
,
0010
1000
0100
1000
,
0010
0100
0001
0100
,
0010
0000
0001
0000
,
0010
0100
2002
3003
,
0100
1000
0100
0001
,
0010
0001
0100
0010
,
2000
0000
3002
0000
,
0203
0000
0010
0310
,
0001
0100
1000
0100
,
0001
0100
1000
0100
,
1001
0010
0001
0100
,
0010
1000
0100
1000
,
0001
1000
0100
0010
,
1000
0000
0001
0010
,
0001
1000
0100
1000
,
0010
0100
0001
0010
,
0001
0100
0001
0010
,
1000
0000
0001
0000
,
0010
0001
1000
0000
,
0010
1000
0001
0000
,
0100
1000
0010
0001
,
0100
1001
0010
0100
,
0100
0001
1000
1000
,
0100
1000
0010
0100
,
0001
0100
1000
0001
,
0010
1000
0100
0001
,
1000
0001
0010
0001
,
1000
0100
0010
0100
,
1000
0001
1000
0001
,
0010
1000
0001
0100
,
1000
0001
0100
0010
,
0001
0000
0000
0000
;

//---------------dance-single - Copied from----------------
#NOTES:
     dance-single:
     Copied from:
     Beginner:
     1:
     0.155,0.223,0.041,0.123,0.000:
0000
0000
0000
0000
,
0000
0000
0000
0000
,
0000
0000
0000
0000
,
0000
0000
0000
0000
,
0000
0000
0000
0000
,
0001
0000
0000
0000
,
1000
0000
0000
0000
,
0100
0000
0000
0000
,
0010
0000
0000
0000
,
1000
0000
0001
0000
,
0010
0000
0100
0100
,
0100
0000
0000
0000
,
1000
0000
0000
0000
,
0001
0000
0000
0000
,
0010
0000
0000
0000
,
0010
0000
0000
0000
,
0100
0000
0000
0000
,
1000
0000
0000
0000
,
0100
0000
0000
0000
,
0002
0000
0003
0000
,
0000
0010
0010
0000
,
0200
0000
0300
0000
,
0000
1000
1000
0000
,
0020
0000
0030
0000
,
0000
0001
0001
0000
,
1000
0000
0100
0000
,
0010
0000
0001
0000
,
1001
0000
0000
0000
,
0010
0000
0000
0000
,
0100
0000
0000
0000
,
1000
0000
0001
0000
,
1001
0000
0000
0000
,
1000
0000
0000
0000
,
0100
0000
0000
0000
,
0010
0000
0100
0000
,
0002
0000
0003
0000
,
2000
0000
3000
0000
,
0200
0300
0200
0300
,
0100
0100
0000
0000
,
0001
0000
0100
0000
,
1000
0000
0100
0000
,
0001
0000
0100
0000
,
1000
0000
0100
0000
,
0001
0000
0010
0000
,
1000
0000
0010
0000
,
0001
0000
0010
0000
,
1000
0000
0010
0000
,
0100
0000
1000
0000
,
0000
0001
0001
0000
,
0010
0000
0000
0000
,
0100
0000
0000
0000
,
1000
0000
0100
0000
,
0001
0000
0010
0000
,
0002
0003
0002
0003
,
0002
0003
0002
0003
,
0001
0000
1000
0000
,
0100
0000
0000
0000
,
0110
0000
0000
0000
,
0001
0000
0000
0000
,
1000
0000
0000
0000
,
0001
0000
0010
0000
,
0011
0000
0000
0000
,
1000
0000
0000
0000
,
0010
0000
0000
0000
,
0100
0000
1000
0000
,
1000
0000
0001
0000
,
0010
0000
0100
0000
,
0020
0030
0020
0030
,
0010
0010
0000
0000
,
1000
0000
0001
0000
,
1000
0000
0001
0000
,
1000
0000
0001
0000
,
0010
0000
0000
0000
,
1000
0000
1000
0000
,
0100
0000
0100
0000
,
0010
0000
0010
0000
,
0001
0000
0001
0000
,
0220
0000
0000
0000
0000
0000
0000
0330
;

//---------------dance-single - Copied from----------------
#NOTES:
     dance-single:
     Copied from:
     Medium:
     6:
     0.374,0.414,0.065,0.180,0.000:
0000
0000
0000
0000
,
0000
0000
0000
0000
,
0000
0000
0000
0000
,
0000
0000
0000
0000
,
0000
0000
0000
0000
0000
0000
1000
0100
,
1000
0000
0010
0000
0100
0000
0001
0010
,
0001
0000
0100
0000
0001
0000
0010
1000
,
0010
0000
0100
0000
1000
0000
0001
1000
,
0001
0100
0010
1000
,
0200
0000
0000
0000
,
0010
0001
1000
0301
,
1001
0100
1000
0010
,
0200
1000
0300
0100
0000
0000
1000
0000
,
0010
0100
0001
0010
,
0001
0010
0100
1000
0000
0000
0000
0000
,
1000
0100
1000
0001
,
0020
0000
0130
0010
0000
0000
1000
0000
,
0100
1000
0001
0010
,
0100
0000
0001
0010
0000
0001
1000
0100
,
1000
0000
0000
0100
0000
0000
1000
0000
,
0010
0000
0100
0100
,
1000
0000
0000
0001
0000
0000
0010
0000
,
0001
0000
0010
0010
,
0001
0000
0000
1000
0000
0000
0010
0000
,
0100
0000
1000
0010
,
0002
2003
3200
2300
,
3020
0000
0000
0200
0330
0000
0010
0000
,
1100
0000
0001
0000
1000
0000
0100
1000
,
0000
0000
0010
0000
0100
0000
0001
0010
,
0000
0100
0001
1000
,
0200
0000
1300
1000
,
0010
0000
0100
0000
0001
0000
0010
0001
,
0000
0000
0100
0000
0010
0000
1000
0100
,
0000
1000
0100
0001
,
0020
0000
0130
0000
,
1000
0000
0000
0001
0001
0000
0000
0000
,
0010
0000
0000
0100
0100
0000
0000
0000
,
1000
0000
0000
0001
0001
0000
0000
1000
,
1000
1001
1000
0100
,
0010
0001
0100
0001
,
1000
0000
0010
0000
0100
0000
1000
0001
,
1000
0100
1000
0010
,
0100
0000
0001
0000
1000
0000
0001
1000
,
0001
0100
0010
1000
,
0001
0000
0100
0000
0010
0000
0001
0010
,
0100
1000
0001
0100
,
0001
0000
0010
0000
0100
0000
1000
0100
,
0010
1000
0001
0100
,
1000
0100
0010
0100
,
1001
0000
0110
0000
,
1002
0100
0010
0103
,
1000
0000
0000
1000
0000
0000
0010
0000
,
0001
0100
0000
0000
0010
0000
1000
0000
,
2000
3200
0320
0032
,
2003
0000
0000
0002
3003
0000
0010
0001
,
0000
1000
0100
0000
1000
0000
0001
0000
,
0010
0100
0010
0100
0000
0000
1000
0000
,
0101
0000
1000
0000
0001
0000
0100
0010
,
0000
0000
0001
0000
1000
0000
0100
1000
,
0000
0010
1000
0100
,
2000
0000
3020
0130
,
0001
0000
1000
0000
0100
0000
0001
1000
,
0000
0000
0010
0000
0100
0000
0001
0010
,
0000
1000
0100
0010
,
0002
0000
2003
3010
,
0100
0000
0000
0010
0010
0000
0100
0000
,
1000
0000
0000
1000
1000
0000
0010
0000
,
0001
0000
0000
0100
0100
0000
0000
0001
,
0001
0110
1000
0001
,
0100
0000
0001
0000
0010
0000
0001
0100
,
1000
0100
1000
0010
,
1000
0000
0100
0000
1000
0000
0001
0100
,
1000
0100
0001
0010
,
1000
0000
0100
0000
1000
0000
0010
0001
,
0100
0000
0001
0000
1000
0000
0010
1000
,
0100
1000
0100
0001
,
0100
0000
0010
0000
0100
0010
0100
0000
,
1000
0000
0001
0000
0100
0000
0010
1000
;

//---------------dance-single - Copied from Copied f----------------
#NOTES:
     dance-single:
     Copied from Copied f:
     Hard:
     7:
     0.423,0.414,0.049,0.033,0.094:
0000
0000
0000
0000
,
0000
0000
0000
0000
,
0000
0000
0000
0000
,
0000
0000
0000
0000
,
0000
0000
0000
0000
0000
0000
1000
0100
,
0010
0000
0000
0000
0001
0000
0000
0010
0000
0000
0010
0000
0100
0000
0000
0000
,
1000
0000
0000
0000
1000
0000
0000
0010
0000
0000
0100
0000
0001
0000
0000
0000
,
0001
0000
0000
0000
1000
0000
0000
0100
0000
0000
0001
0000
0010
0000
0000
0000
,
0100
1000
0001
0100
,
0010
1000
0100
1000
,
0001
0100
0001
0100
0001
0000
0011
0000
,
0100
0000
1000
0000
0100
0000
1000
0100
,
0010
1000
0000
0001
0000
0100
0010
0000
,
1000
0001
0100
0010
,
0001
0010
0100
1000
0000
0000
1000
0000
,
0100
1000
0001
0100
,
0010
0001
0010
0100
0000
0000
0001
0000
,
1000
0100
1000
0010
,
1000
0100
0010
0001
0000
1000
0001
1000
,
0010
0000
0100
0001
0000
0010
1000
0000
,
0100
1000
0100
0100
1000
0000
0100
1000
,
0100
0000
0100
0010
0000
0100
0001
0000
,
0010
0001
0001
0010
0001
0000
0010
0001
,
0010
0000
0100
1000
0000
1000
0001
0000
,
0010
0100
0000
0000
1000
0100
0000
0010
,
0001
0100
0001
0010
,
1000
0100
1000
0001
0000
0100
0001
0000
,
0110
0000
0100
0000
0001
0000
1000
0010
,
0000
0000
0000
0000
0100
0000
0000
0000
0001
0000
0000
0100
0000
0000
0010
0000
,
0000
1000
0100
1000
,
0010
0001
0000
0010
0010
0000
0100
0000
,
1000
0000
0100
0000
0010
0000
0001
1000
,
0000
0000
0000
0000
0100
0000
0000
0000
0010
0000
0000
0001
0000
0000
0100
0000
,
0000
1000
0100
0010
,
1000
0001
0000
1000
0001
0000
0010
0000
,
0100
0000
0000
0001
0000
0000
0010
0000
0100
0000
0000
0000
0010
0000
0000
0000
,
0100
0000
0000
1000
0000
0000
0100
0000
0010
0000
0000
0000
0100
0000
0000
0000
,
0001
0000
0000
1000
0000
0000
0001
0000
1000
0000
0000
0001
0000
0000
1000
0000
,
0001
0000
0110
0000
0001
0010
0100
1000
,
0100
1000
0100
0010
,
0001
0000
0100
0000
0001
0000
0010
1000
,
0100
1000
0001
0100
,
0010
0000
0001
0000
1000
0000
0100
0001
,
0010
0100
1000
0010
,
1000
0000
0100
0000
0001
1000
0100
0000
,
1000
0010
0001
0100
,
0020
0000
2030
0100
,
3100
0001
0010
0100
,
1000
0000
0100
1000
0010
0000
0100
0000
,
0001
0000
0000
0001
1000
0000
0000
1000
,
0001
0000
1000
0000
0100
0010
0001
0000
,
0100
0000
0001
0010
0000
0010
1000
0000
,
0100
1000
0000
0000
1000
0100
0000
0010
,
0001
0010
1000
0100
,
1000
0010
0001
0010
0000
0000
0100
0000
,
1000
0100
1000
0010
,
0100
0001
0010
0001
0000
0000
0100
0000
,
1001
0000
0010
0000
0001
0000
0100
0001
,
0000
0000
0000
0000
0010
0000
0000
0000
1000
0000
0000
0100
0000
0000
0010
0000
,
0000
0100
0001
1000
,
0010
0100
0000
0010
0100
0000
1000
0000
,
0001
0000
0100
0000
1000
0000
0100
0001
,
0000
0000
0000
0000
1000
0000
0000
0000
0001
0000
0000
1000
0000
0000
0010
0000
,
0000
0010
1000
0001
,
0010
0010
0000
1000
0001
0000
0200
0000
,
1300
0000
0000
0010
0000
0000
1000
0000
0100
0000
0000
0000
0020
0000
0000
0000
,
0130
0000
0000
0001
0000
0000
0100
0000
0010
0000
0000
0000
1001
0000
0000
0000
,
0010
0000
0000
0100
0000
0000
0010
0000
0100
0000
0000
0010
0000
0000
0100
0000
,
0010
0000
1001
0000
1000
0100
0010
0001
,
1000
0000
0000
0000
1000
0000
0000
0010
0000
0000
1000
0000
0100
0000
0000
0000
,
0100
0000
0000
0000
0001
0000
0000
0100
0000
0000
0001
0000
0010
0000
0000
0000
,
0100
0000
0000
0000
1000
0000
0000
0001
0000
0000
1000
0000
0010
0000
0000
0000
,
0100
0000
0000
0000
1000
0000
0000
0100
0000
0000
0001
0000
0010
0000
0000
0000
,
0100
0000
0000
0000
1000
0000
0000
0001
0000
0000
0100
0000
0010
0000
0000
0000
,
1000
0000
0000
0000
0010
0000
0000
0100
0000
0000
0001
0000
0010
0000
0000
0000
,
0010
0000
0000
0000
0001
0000
0000
1000
0000
0000
0010
0000
0010
0000
0000
0000
,
1000
0000
0000
0000
0001
0000
0000
1000
0000
0000
0001
0000
0100
0000
0000
0000
,
0010
0000
0100
0000
1000
0001
1000
0001
;

//---------------dance-single - Copied from Copied f----------------
#NOTES:
     dance-single:
     Copied from Copied f:
     Challenge:
     8:
     0.523,0.509,0.106,0.114,0.098: // measure 1
0000
0000
0000
0000
,  // measure 2
0000
0000
0000
0000
,  // measure 3
0000
0000
0000
0000
,  // measure 4
0000
0000
0000
0000
,  // measure 5
1000
0000
0100
0000
0010
0001
0100
0000
,  // measure 6
0001
0000
1000
0000
0100
0000
0000
1000
0000
0000
0010
0000
0100
0000
0001
0000
,  // measure 7
1000
0000
0100
0000
0010
0000
0000
0001
0000
0000
0010
0000
1000
0000
0001
0000
,  // measure 8
1000
0000
0100
0000
1000
0000
0000
0010
0000
0000
0100
0000
0001
0000
1000
0000
,  // measure 9
0100
0000
0001
0000
0010
0000
0000
0100
0000
0000
0001
0000
0100
0000
1000
0000
,  // measure 10
0100
0000
0100
0000
0010
1000
0100
0000
,  // measure 11
1001
0000
0110
0000
0001
0100
1000
0000
,  // measure 12
1001
0000
0100
0000
1000
0010
0100
0001
,  // measure 13
0010
0001
0000
0100
0000
0001
1000
0010
,  // measure 14
1000
0100
0001
0100
,  // measure 15
1000
0100
0010
1000
0001
0000
0100
0000
,  // measure 16
0001
0010
0001
1000
0100
0000
1000
0000
,  // measure 17
0010
0000
1000
0100
0000
0010
0001
0100
,  // measure 18
0001
0000
0010
0000
0001
0000
0001
1000
,  // measure 19
0010
0100
0001
1000
0000
0100
0010
0100
,  // measure 20
0010
0000
1000
0100
0000
0010
0001
0000
,  // measure 21
0100
0001
0010
0001
0100
1000
0100
1000
,  // measure 22
0010
0000
0010
1000
0000
1000
0100
0000
,  // measure 23
1000
0100
1000
0010
0100
0001
0010
0001
,  // measure 24
0100
0000
0100
0001
0000
0001
0010
0000
,  // measure 25
0010
1000
0100
1000
0100
0000
1000
0000
,  // measure 26
0020
0100
0032
1000
,  // measure 27
0013
0001
0010
0100
0000
0100
1000
0100
,  // measure 28
0010
0000
1000
0000
0100
0000
1000
0200
,  // measure 29
0000
0000
0300
0000
0010
0000
0000
0000
0001
0000
0000
0110
0000
0000
0001
0000
,  // measure 30
0000
1000
0100
0010
,  // measure 31
1000
0001
0000
0100
0001
0000
0010
0000
,  // measure 32
0011
0000
0100
0000
0001
0000
1000
0020
,  // measure 33
0000
0000
0030
0000
0100
0000
0000
0000
0100
0000
0000
1010
0000
0000
0100
0000
,  // measure 34
0000
0000
0001
0100
1000
0000
0100
0000
,  // measure 35
0010
0001
0000
1000
0100
0000
1000
0000
,  // measure 36
0010
0000
0000
0010
0000
0000
1000
0000
0100
0000
0000
0000
1000
0000
0100
0000
,  // measure 37
0001
0000
0000
0010
0000
0000
0001
0000
0100
0000
0000
0000
0001
0000
0010
0000
,  // measure 38
0100
0000
0000
1000
0000
0000
0100
0000
0010
0000
0000
0001
0000
0000
1000
0000
,  // measure 39
0001
0000
0101
0000
0010
1000
0100
1000
,  // measure 40
0010
0000
0100
0000
1000
0001
0100
0001
,  // measure 41
0010
0000
0100
0000
0001
1000
0010
0100
,  // measure 42
0001
0000
1000
0000
0100
1000
0010
0100
,  // measure 43
0001
0000
1000
0000
0001
1000
0100
1000
,  // measure 44
0010
0000
1000
0000
0100
1000
0010
0100
,  // measure 45
1000
0000
1000
0000
1000
0100
0001
0100
,  // measure 46
1000
0000
0010
0000
0100
0001
0010
0001
,  // measure 47
0100
0000
1000
0000
0001
0010
0100
0010
,  // measure 48
0001
0000
0100
0000
1000
0001
0100
1000
,  // measure 49
0001
0000
0100
0000
0100
0010
0100
1000
,  // measure 50
0100
0001
1000
0100
,  // measure 51
0002
2003
3020
0230
,  // measure 52
0301
0000
1000
0100
0000
1000
0100
0010
,  // measure 53
0001
0100
0000
0001
0010
0100
0000
0001
,  // measure 54
0020
0000
0130
1000
0200
0000
0310
0001
,  // measure 55
0020
1000
1000
2000
3030
0000
1000
0100
,  // measure 56
0000
0010
0100
0000
1000
0001
1000
0000
,  // measure 57
0001
0010
0001
0100
0000
0001
0100
0010
,  // measure 58
1000
0000
0100
0000
0001
0000
1000
0002
,  // measure 59
0000
0000
0003
0000
0010
0000
0000
0000
0001
0000
0000
1100
0000
0000
0010
0000
,  // measure 60
0000
0000
1001
0000
1000
0001
0100
0000
,  // measure 61
0010
1000
0000
0001
0100
0000
0010
0000
,  // measure 62
1000
0000
0100
0000
0010
0000
0001
0020
,  // measure 63
0000
0000
0030
0000
0100
0000
0000
0000
0001
0000
0000
0110
0000
0000
1000
0000
,  // measure 64
0000
0000
1000
0001
0010
0000
0100
0000
,  // measure 65
1000
0100
0000
0100
0001
0000
0100
0000
,  // measure 66
1000
0000
0000
0100
0000
0000
0001
0000
0010
0000
0000
0000
0001
0000
0000
0000
,  // measure 67
0100
0000
0000
1000
0000
0000
0001
0000
0010
0000
0000
0000
0100
0000
1000
0000
,  // measure 68
0001
0000
0000
0100
0000
0000
0001
0000
0010
0000
0000
0001
0000
0000
1000
0000
,  // measure 69
0101
0000
1001
0000
1000
0100
0001
0100
,  // measure 70
0010
0000
0001
0000
1000
0000
0000
0100
0000
0000
1000
0000
0100
0000
0010
0000
,  // measure 71
0001
0000
0100
0000
0001
0000
0000
0010
0000
0000
0001
0000
0100
0000
0001
0000
,  // measure 72
1000
0000
0100
0000
0010
0000
0000
0001
0000
0000
1000
0000
0100
0000
0010
0000
,  // measure 73
0001
0000
0010
0000
0100
0000
0000
1000
0000
0000
0100
0000
1000
0000
0100
0000
,  // measure 74
0001
0000
0010
0000
0100
0000
0000
0010
0000
0000
1000
0000
0100
0000
0001
0000
,  // measure 75
0010
0000
0100
0000
1000
0000
0000
0100
0000
0000
0010
0000
0001
0000
0010
0000
,  // measure 76
0100
0000
0001
0000
0100
0000
0000
1000
0000
0000
0010
0000
0100
0000
1000
0000
,  // measure 77
0100
0000
0001
0000
0100
0000
0000
0010
0000
0000
0001
0000
0010
0000
1000
0000
,  // measure 78
0010
0000
0010
0000
0001
1000
0001
1100
;
