#TITLE:M-02stp.ver1.01;
#SUBTITLE:;
#ARTIST:Shoichiro Hirata;
#TITLETRANSLIT:;
#SUBTITLETRANSLIT:;
#ARTISTTRANSLIT:;
#GENRE:;
#CREDIT:;
#MENUCOLOR:;
#NEWMETERSYSTEM:NO;
#BANNER:M-02stp.ver1.01-bn.png;
#BACKGROUND:M-02stp.ver1.01-bg.png;
#LYRICSPATH:;
#CDTITLE:;
#MUSIC:M-02stp.ver1.01.mp3;
#OFFSET:-0.880;
#SAMPLESTART:29.960;
#SAMPLELENGTH:12.000;
#SELECTABLE:YES;
#LISTSORT:;
#BPMS:0.000=132.000;
#STOPS:;
#BGCHANGES:;
#ATTACKS:;

//---------------dance-single - ----------------
#NOTES:
     dance-single:
     :
     Easy:
     4:
     0.292,0.312,0.135,0.158,0.000:
0000
0000
0000
0000
,
0000
0000
0000
0000
,
1000
0100
0001
0010
,
0001
0000
0100
0100
,
1000
0010
0000
1000
,
0000
0100
0000
0001
,
0001
0010
0000
1000
,
0010
0001
2002
3003
,
0010
1000
0000
0010
,
0001
0010
0000
0100
,
1000
0001
0000
0010
,
0001
0100
2000
3200
,
0310
1000
0100
0001
,
0100
1000
0010
0010
,
0001
1000
0100
0001
,
2000
0000
0010
3020
,
0130
1000
0100
0010
,
0001
0100
0001
0010
,
0100
0001
1000
0100
,
1000
0010
0200
0320
,
0130
1000
0001
0100
,
0010
0001
1000
0100
,
0010
0001
1000
0001
,
0200
0000
0010
0310
,
1001
0100
1000
0000
,
0100
0010
0011
0000
,
1001
0010
0001
0000
,
0001
0010
1100
0000
,
1001
0100
0010
0000
,
1000
0001
0110
0000
,
1001
0010
0100
0000
,
0001
1000
0110
0000
,
2001
0100
3100
0010
,
0100
0001
1000
0010
,
1002
0100
0103
0010
,
1000
0001
0100
0010
,
0120
1000
1030
0100
,
0001
1000
0010
0100
,
0001
0010
0100
1000
,
0001
0010
0200
2300
,
3001
0010
0001
0100
,
1000
0010
1000
0100
,
0010
1000
0001
0100
,
0020
0000
0001
0031
,
0100
0010
1000
0100
,
0001
0100
1000
0010
,
1000
0001
0100
0010
,
0200
0000
0010
0310
,
1001
0100
1000
0000
,
0100
0000
0010
0001
,
0000
0010
0001
0010
,
0000
0100
1000
0100
,
0000
0010
0100
1000
,
0100
0001
0100
0100
,
1000
1000
0001
0010
,
2002
0000
3003
0010
,
1001
0100
1000
0100
,
0001
0010
0001
1000
,
0010
0100
1000
0001
,
1000
0100
0010
0001
,
1001
0001
1000
0100
,
1000
0100
0010
1000
,
0001
0100
0010
0100
,
0010
0001
0100
1000
,
0202
0000
0000
0000
,
0000
0000
0000
0303
;

//---------------dance-single - Copied from----------------
#NOTES:
     dance-single:
     Copied from:
     Beginner:
     1:
     0.136,0.234,0.032,0.040,0.000:
0000
0000
0000
0000
,
0000
0000
0000
0000
,
0000
0000
0000
0000
,
0000
0000
0000
0000
,
0100
0100
0000
1000
,
0000
0100
0000
0001
,
0000
0010
0000
0010
,
0000
0000
0000
0000
,
1000
0000
0000
0000
,
0001
0001
0000
0000
,
0100
0100
0000
0000
,
0020
0000
0030
0000
,
0001
0001
0000
1000
,
0000
0100
0000
1000
,
0000
0010
0000
0100
,
0200
0000
0000
0300
,
0100
0100
0000
1000
,
0000
0001
0000
0010
,
0000
0100
0000
0001
,
0000
1000
0000
0010
,
0000
0100
0000
0001
,
0000
1000
0000
0100
,
0000
1000
0000
0010
,
0000
0000
0000
0000
,
0100
0000
0001
0000
,
1000
0000
0100
0000
,
0010
0000
1000
0000
,
0001
0000
0010
0000
,
1000
0000
0001
0000
,
0100
0000
1000
0000
,
0010
0000
1000
0000
,
0100
0000
0010
0000
,
1001
0000
0000
0000
,
0000
0000
0010
0000
,
0110
0000
0000
0000
,
0000
0000
0100
0000
,
1100
0000
0000
0000
,
0000
0000
0001
0000
,
0011
0000
0010
0010
,
0010
0010
0020
0030
,
0010
0010
0000
1000
,
0000
0100
0000
0001
,
0000
0010
0000
1000
,
0000
0001
0000
0010
,
0000
0100
0000
1000
,
0000
0001
0000
1000
,
0000
0010
0000
0100
,
0000
0000
0000
0000
,
0100
0100
0000
1000
,
0000
0010
0000
0001
,
0000
1000
0000
0010
,
0000
0100
0000
0001
,
0000
0000
0100
0000
,
0100
0000
0100
0000
,
0000
1000
0000
0002
,
0003
0000
0000
0001
,
0001
0001
0000
1000
,
0000
0100
0000
0001
,
0000
0010
0000
0100
,
0000
0001
0000
1000
,
0000
0100
0000
1000
,
0000
0010
0000
0100
,
0000
0001
0000
0100
,
0000
0001
0000
0000
,
2000
0000
0000
0000
,
0000
0000
0000
3000
;

//---------------dance-single - Copied from----------------
#NOTES:
     dance-single:
     Copied from:
     Medium:
     6:
     0.365,0.442,0.063,0.317,0.016:
0000
0000
0000
0000
,
0000
0000
0000
0000
,
0000
0000
1000
0100
0010
0000
0001
0010
,
0100
1000
0001
0100
,
0010
0000
0001
1000
0100
0000
1000
0000
,
0100
0000
0010
0001
0100
0000
0001
0000
,
1000
0000
0001
0100
1000
0000
0010
0000
,
0100
0000
0000
2002
0000
0000
3003
0000
,
0010
0100
1000
0100
,
0001
0010
0001
0000
0100
0000
1000
0000
,
0010
1000
0100
0000
1000
0000
0001
0000
,
0100
0001
2000
3002
,
0013
0000
0100
0000
0001
0000
1000
0100
,
0001
0010
0001
1000
,
0100
1000
0010
0000
0100
0000
0001
0000
,
2000
0000
0002
3000
,
0013
0100
0001
1000
,
0100
0001
0010
0000
0100
1000
0010
0000
,
1000
0100
0001
0100
,
1000
0000
0010
0000
0100
0000
0100
1000
,
0100
0010
0001
0100
,
0001
0010
1000
0000
1000
0100
0001
0000
,
0020
2030
3200
0302
,
0023
0000
0000
0000
0001
0000
0001
1030
,
0100
1000
0100
0001
,
0010
0000
0010
0000
0001
0000
0100
1000
,
0100
0000
1000
0010
0001
0000
0100
0000
,
1000
0000
0010
0000
0001
0000
0001
0010
,
1000
0000
0100
1000
0010
0000
0100
0000
,
0001
0000
0100
0000
0010
0000
0010
1000
,
0100
0000
1000
0010
0001
0000
0100
0000
,
0001
0010
0001
0100
,
2000
3002
2003
3200
,
0320
0000
0032
0000
0010
0010
0023
0000
,
0230
2300
3002
0023
,
0230
0000
2300
0000
0100
0100
3200
0000
,
0302
0023
0032
0203
,
0320
0000
0032
0000
1000
1000
2003
0000
,
3020
0000
0200
0000
,
0000
0000
0330
1001
,
0110
0001
0100
1000
,
0100
0000
1000
0010
0001
0000
0100
0000
,
0001
0010
0001
1000
,
0100
0100
0000
0000
1000
0000
0100
0010
,
0001
0100
0001
0010
,
1000
0001
0100
0010
,
1000
0001
0100
1000
,
0120
0000
0100
0000
0000
0000
0100
0000
0000
0100
0000
0000
0030
0000
0000
0000
,
1001
0000
0100
1000
0010
0000
0100
0001
,
0010
0001
1000
0001
,
0010
1000
0100
0001
,
0010
0001
0100
0000
0001
0000
2000
0000
,
3100
0000
0010
1000
0100
0000
0100
0000
,
0010
0000
0001
1000
0100
0000
1000
0000
,
0001
0000
0100
0000
1000
0000
0010
0010
,
0100
0000
0000
1001
,
1001
1000
0100
0001
,
0010
0001
0100
0000
0002
0000
2003
0000
,
3010
0001
0100
1000
,
0001
0010
0100
0000
0001
0000
1000
0000
,
0001
0000
0010
0000
0001
0000
0100
0001
,
1000
0000
0100
0000
1000
0010
0001
0000
,
0100
0001
0010
0000
0100
1000
0010
0000
,
1000
0000
0000
0000
0001
0000
0000
1000
0000
0001
0000
1000
0000
0000
0000
0000
,
0022
0000
0000
0000
,
0000
0000
0000
0033
;

//---------------dance-single - Copied from----------------
#NOTES:
     dance-single:
     Copied from:
     Hard:
     8:
     0.416,0.495,0.135,0.206,0.238:
0000
0000
0000
0000
,
0000
0000
0000
0000
,
1000
0000
0001
1000
0001
0000
1000
0001
,
1000
0000
0010
0000
0100
0000
0001
1000
,
0100
1000
0010
0000
0100
0001
0010
0000
,
0100
1000
0010
0000
0100
0001
0010
0000
,
0001
1000
0100
0000
1000
0001
0100
0000
,
0020
0000
0000
2000
0000
0000
3030
0000
,
1100
0000
0000
1000
0000
0100
0000
0010
0000
0001
0000
0000
0000
0000
0100
0000
,
1001
0000
0000
0001
0000
0010
0000
0100
0000
1000
0000
0000
0000
0000
0100
0000
,
1001
0000
0000
1000
0000
0010
0000
0100
0000
0001
0000
0000
0000
0000
0010
0000
,
0001
0000
0000
0010
0000
0100
0000
1000
0000
0010
0000
0100
0000
0000
1000
0000
,
1100
0000
0001
0000
0100
1000
0010
0100
,
0001
0000
0010
0000
0001
0100
0010
1000
,
0100
0000
1000
0000
0001
1000
0020
0000
,
0130
0000
0000
0001
0000
0000
0000
0001
0000
1000
0000
0001
0000
0000
1000
0000
,
0001
0000
0100
0000
0010
0000
1000
0001
,
0100
0001
0010
0000
0001
0000
1000
0100
,
2000
3020
0230
0302
,
0103
0000
0010
0000
1000
0100
1000
0010
,
1100
0000
1000
0000
0010
0000
0100
0010
,
0001
0000
0100
0000
0001
0000
1000
0010
,
0001
0100
0001
0010
,
0100
0000
0001
2000
0000
0000
0001
0000
,
3010
0100
0001
1000
,
0100
0000
1000
0000
0010
0000
0100
0000
0001
0000
0000
1000
0000
0000
0010
0000
,
0010
0100
0010
0100
,
1000
0000
0100
0000
0001
0000
1000
0000
0100
0000
0000
0010
0000
0000
0001
0000
,
0100
1000
0010
0100
,
1000
0000
0100
0000
0001
0000
1000
0000
0001
0000
0000
0010
0000
0000
0001
0000
,
0001
0100
0010
1000
,
0100
0000
1000
0000
0100
0000
0010
0000
0001
0000
0000
1000
0000
0000
0001
0000
,
0200
0000
0000
0000
0000
0310
0000
1000
0000
0000
0000
0000
0010
0000
0000
0000
,
0000
0000
1001
0000
0000
0000
0000
0010
0000
0001
0000
0000
0000
0000
1000
0000
,
0200
0000
0000
0000
0000
0301
0000
1000
0000
0000
0000
0000
0100
0000
0000
0000
,
0000
0000
1001
0000
0000
0000
0000
1000
0000
0100
0000
0000
0000
0000
0010
0000
,
0002
0000
0000
0000
0000
0013
0000
1000
0000
0000
0000
0000
0010
0000
0000
0000
,
0000
0000
1001
0000
0000
0000
0000
0001
0000
0100
0000
0000
0000
0000
0010
0000
,
1000
0100
1000
0100
0010
0100
0010
0100
,
0010
0000
0000
0001
0000
0000
0010
0000
0000
0001
0000
0000
0010
0000
0100
0000
0010
0000
0100
0000
0010
0000
0100
0000
,
0010
1000
0100
0001
,
0100
1000
0020
0032
,
0103
0010
1000
0100
,
1000
0000
0100
0000
0000
0000
0010
0000
0000
0010
0000
0000
0001
0000
0000
0000
,
1001
0000
0100
0000
0001
0000
0010
0001
,
0100
0010
2000
3200
,
0310
0100
0100
1000
,
2002
0000
3003
0010
,
1001
0000
0100
1000
0001
0000
0010
0001
,
1000
0000
0100
1000
0020
0000
0230
0000
,
1300
0000
0100
0000
0001
1000
0010
0000
,
0100
0001
1000
0001
,
0011
0000
0100
0001
1000
0000
0100
0001
,
1000
0000
0010
1000
0200
0000
0301
0000
,
1000
0010
0100
0001
,
0020
0002
0033
0011
,
1100
0000
1000
0000
0100
0000
0001
0010
,
0001
0000
0100
0000
0000
1000
0000
0000
0100
0000
0000
0000
0001
0000
0010
0000
,
0001
0000
0000
1000
0000
0001
0000
1000
0000
0010
0000
0100
0000
0000
0010
0000
,
0001
0000
1000
0000
0100
0000
0000
1000
0000
0010
0000
0000
0001
0000
0000
0000
,
1001
0000
0010
0001
0100
0001
1000
0000
,
0100
0000
1000
0000
0000
0001
0000
0000
0200
0000
0000
0000
2300
0000
0000
0000
,
3010
0000
0000
1000
0000
0001
0000
0100
0000
1000
0000
0001
0000
0000
1000
0000
,
0100
0000
1000
0000
0010
0000
0000
1000
0000
0100
0000
0010
0000
0001
0000
0000
,
2002
0000
0000
0000
,
0000
0000
3003
1001
;

//---------------dance-single - Copied from Copied from----------------
#NOTES:
     dance-single:
     Copied from Copied from:
     Challenge:
     9:
     0.520,0.547,0.301,0.174,0.582: // measure 1
0000
0000
0000
0000
,  // measure 2
0000
0000
0000
0000
,  // measure 3
1000
0000
0100
1000
0010
0000
0010
0001
,  // measure 4
0100
0000
0000
0000
0001
0000
1000
0001
0000
1000
0000
0100
1000
0000
0010
0000
,  // measure 5
0110
0000
0000
0000
1000
0000
0000
0001
0000
1000
0000
0000
0010
0000
0001
0000
,  // measure 6
0100
0000
0000
0000
0100
0000
0010
1000
0000
0100
0000
0000
0001
0000
1000
0000
,  // measure 7
0010
0000
0000
0000
0001
0000
1000
0100
0000
0010
0000
0100
0000
0000
0010
0000
,  // measure 8
0200
0000
0000
0020
0000
0000
0330
0000
,  // measure 9
1001
0000
0000
1000
0000
0100
0000
0001
0000
0010
0000
0000
0000
0000
0001
0000
,  // measure 10
0100
0000
0000
0000
1000
0000
0000
0010
0000
1000
0000
0000
1100
0000
0000
0000
,  // measure 11
1000
0000
0010
0000
1000
0001
0100
0000
,  // measure 12
0001
0010
0000
0001
0000
0100
0000
0001
0000
1000
0000
0010
0000
0000
1000
0000
,  // measure 13
0100
0000
0000
0000
1000
0000
0000
0010
0000
0100
0000
0001
0000
0000
0010
0000
,  // measure 14
0001
0000
0000
0000
0100
0000
0000
0001
0000
1000
0000
0000
1001
0000
0000
0000
,  // measure 15
1000
0000
0000
0000
0010
0000
0000
0100
0000
0001
0000
0000
0020
0000
0000
0000
,  // measure 16
0031
0100
0000
0001
0000
1000
0000
0010
0000
0100
0000
0100
0000
0010
0001
0000
,  // measure 17
1000
0000
0000
0000
0100
0000
0000
0000
1000
0000
0000
0010
0000
0100
0001
0000
,  // measure 18
0100
0000
0000
0000
1000
0000
0000
0000
0010
0000
0000
0100
0000
0000
0001
0000
,  // measure 19
1000
0100
0000
0010
0000
0001
0000
0010
0000
0100
0000
1000
0000
0000
0000
0000
,  // measure 20
0100
0000
0000
0000
0001
0000
0000
1000
0000
0010
0000
1000
0001
0000
0010
0000
,  // measure 21
0001
0000
0000
0000
0100
0000
0000
0000
0001
0000
0000
1000
0000
0000
0010
0000
,  // measure 22
0100
0000
0000
0000
0001
0000
0000
0000
1000
0000
0000
0100
0000
0000
1000
0000
,  // measure 23
1000
0001
0000
0010
0000
0100
0000
0001
0000
1000
0000
0010
0000
0000
0000
0100
,  // measure 24
0000
0100
0000
0100
0000
0000
0000
0001
0000
0100
0000
0001
0010
0000
0010
0000
,  // measure 25
0100
0000
0000
0001
0000
1000
0000
0100
0000
0000
0100
0000
1100
0000
0000
0000
,  // measure 26
0100
0000
0100
0000
0001
0000
0010
0001
0000
0001
0000
0000
0000
0000
0100
0000
,  // measure 27
0001
0000
0000
1000
0000
0010
0000
0010
0000
0000
1000
0000
0100
0000
0000
0000
,  // measure 28
0000
0000
1000
0000
0001
0000
0100
0001
0000
0001
0000
1000
0100
0000
0010
0000
,  // measure 29
0011
0000
0000
0100
0000
1000
0000
0100
0000
0000
0001
0000
0110
0000
0000
0000
,  // measure 30
1000
0000
0100
0000
0001
0000
0010
0100
0000
0100
0000
0000
0001
0000
0010
0000
,  // measure 31
1100
0000
0000
0001
0000
0100
0000
0100
0000
0000
0010
0000
1000
0000
0000
0000
,  // measure 32
0100
0000
1000
0000
0100
0000
0010
1000
0000
1000
0000
0001
0010
0000
0010
0000
,  // measure 33
0102
0000
0000
0000
0000
0100
0000
0103
0000
0000
0010
0000
1001
0000
0000
0000
,  // measure 34
0010
0000
2100
0000
0000
0000
0000
0010
0000
3010
0000
0000
0010
0000
0000
0000
,  // measure 35
1200
0000
0000
0000
0000
0001
0000
0301
0000
0000
0100
0000
1001
0000
0000
0000
,  // measure 36
0100
0000
0021
0000
0000
0000
0000
0100
0000
0130
0000
0000
1001
0000
0010
0000
,  // measure 37
1002
0000
0000
0000
0000
0100
0000
0013
0000
0000
0000
0000
1001
0000
0000
0000
,  // measure 38
1000
0000
2100
0000
0000
0000
0000
0100
0000
3100
0000
0000
0010
0000
0000
0000
,  // measure 39
1001
0010
0100
1000
0001
0010
0100
1000
,  // measure 40
0001
0000
0000
0010
0000
0000
0100
0000
0000
1000
0000
0000
0001
0000
0010
0000
0100
0000
0010
0000
0001
0000
0010
0000
,  // measure 41
0100
0000
0000
0010
1000
0000
0000
0010
0100
0000
0000
0001
0010
0000
0001
0000
,  // measure 42
0010
0000
0100
0000
0000
0000
0001
0000
1000
0000
0000
0100
0000
0000
0010
0000
,  // measure 43
0001
0000
0000
0000
1000
0000
0100
0000
0000
1000
0000
0000
0010
0000
0000
0000
,  // measure 44
0100
0000
0001
0000
0000
0000
1000
0000
0000
0001
0000
0000
0010
0000
0000
0000
,  // measure 45
1001
0000
0000
0100
0010
0000
0000
0001
1000
0000
0000
0010
0100
0000
0100
0000
,  // measure 46
1000
0000
0010
0000
0000
0000
0100
0000
0001
0000
0000
0010
0000
0000
0100
0000
,  // measure 47
1000
0000
0000
0000
0100
0000
0001
0000
0000
0100
0000
0000
0110
0000
0000
0000
,  // measure 48
2200
0000
3300
1100
,  // measure 49
0011
0000
0100
0100
0200
0000
0310
0010
,  // measure 50
0020
0000
1030
1000
2000
0000
3002
0000
,  // measure 51
0013
0000
0000
0000
0100
0000
0001
0000
0000
0010
0000
0000
0001
0000
0000
0000
,  // measure 52
0100
0000
0001
0000
1000
0000
0010
1000
0000
0100
0000
1000
0001
0000
0010
0000
,  // measure 53
1100
0000
0001
1000
0200
0000
0301
1000
,  // measure 54
0200
0000
0301
1000
0200
0000
1300
0010
,  // measure 55
0001
0000
0000
0000
1000
0000
0100
0010
0000
1000
0000
0000
0010
0000
0100
0000
,  // measure 56
1020
0000
0200
0000
0330
0000
1001
0010
,  // measure 57
1100
0000
0000
0000
0010
0000
0000
0001
0000
0100
0000
0001
0000
1000
0010
0000
,  // measure 58
1000
0000
0100
0000
0000
1000
0000
0000
0020
0000
0000
0000
0130
0000
0001
0000
,  // measure 59
1000
0100
0000
0010
0000
0001
0000
1000
0000
0001
0000
0100
0000
0000
0010
0000
,  // measure 60
0100
0000
0001
0000
1000
0000
0000
1100
0000
0110
0000
0000
0011
0000
0000
0000
,  // measure 61
1001
0000
0000
0000
0100
0000
0000
0010
0000
0001
0000
0100
0000
0010
1000
0000
,  // measure 62
0100
0000
0100
0000
0000
0001
0000
0000
0200
0000
0000
0000
1300
0000
0001
0000
,  // measure 63
1000
0001
0000
0010
0000
1000
0000
0001
0000
1000
0000
0100
0000
0000
1000
0000
,  // measure 64
0100
0000
0010
0000
0001
0000
0000
0011
0000
0101
0000
1010
0000
1100
0000
0000
,  // measure 65
1001
0000
0010
0100
0010
0001
0010
0100
,  // measure 66
1000
0000
0100
0000
1000
0000
0000
0001
0000
1000
0000
0000
0110
0000
0000
0000
;
