#TITLE:Little Little Princess;
#SUBTITLE:;
#ARTIST:SHRINE 418;
#TITLETRANSLIT:;
#SUBTITLETRANSLIT:;
#ARTISTTRANSLIT:;
#GENRE:;
#CREDIT:;
#MENUCOLOR:;
#NEWMETERSYSTEM:NO;
#BANNER:Little Little Princess-bn.png;
#BACKGROUND:Little Little Princess-bg.png;
#LYRICSPATH:;
#CDTITLE:MixMania II CD Title.png;
#MUSIC:Little Little Princess.mp3;
#OFFSET:1.080;
#SAMPLESTART:52.120;
#SAMPLELENGTH:11.980;
#SELECTABLE:YES;
#LISTSORT:;
#BPMS:0.000=212.000,424.000=180.000;
#STOPS:;
#BGCHANGES:;
#ATTACKS:;

//---------------dance-single - ----------------
#NOTES:
     dance-single:
     :
     Easy:
     5:
     0.403,0.397,0.049,0.235,0.016:
0000
0000
0000
0000
,
0000
0000
0000
0000
,
1000
0000
1000
0000
,
1000
0000
1000
0000
,
0001
0000
0001
0000
,
0001
0000
0001
0000
,
1000
0001
0000
0001
,
1000
0001
0000
0001
,
0020
0000
0100
0100
,
0130
0000
0100
0010
,
1000
0100
0010
0001
,
0100
0000
0100
0000
,
0001
1000
0001
0010
,
0001
0100
0000
0100
,
0100
0001
0010
0100
,
1000
0100
0000
0100
,
1000
0000
0100
0000
0000
1000
0000
0001
,
0000
0000
0100
0100
,
0000
0100
0010
0000
,
0010
0100
0000
1000
,
0100
0000
0001
0010
,
0000
0100
0010
0000
,
0010
0100
0000
0100
,
1000
0001
0001
0001
,
1001
0010
0100
0000
,
0100
0010
0001
1000
,
0001
0000
0100
1000
,
0010
0000
0100
0001
,
0020
0030
0002
0003
,
0100
0010
1000
0100
,
0200
0000
0000
0300
,
0010
0000
0010
0010
,
0100
0000
0100
0100
,
1000
0000
1000
1000
,
0100
0000
0100
0100
,
0001
0000
0001
0001
,
0010
0000
0010
0010
,
0002
0003
2000
3000
,
0100
1000
0100
0010
,
0200
0300
0010
0010
,
0020
0030
0001
1000
,
0002
0003
0100
0100
,
0200
0300
1000
0100
,
2000
3000
0020
0030
,
0100
0001
0020
0030
,
0001
0001
0100
0100
,
0020
0000
0000
0030
,
1001
0000
0001
0001
,
1000
0000
1000
0000
,
1001
0000
1000
1000
,
0010
0000
0110
0000
,
0010
0100
0020
0030
,
0001
0100
0002
0003
,
1000
0000
0100
0000
,
0100
1000
0100
0000
,
0010
0100
0010
0100
,
0010
0100
0010
0100
,
0001
1000
0001
1000
,
0001
1000
0001
1000
,
0002
0000
0000
0000
,
2003
0000
0000
0000
,
3020
0000
0000
0000
,
2030
0000
0000
0000
,
3200
0000
0000
0000
,
0320
0000
0000
0000
,
0031
0001
0001
1000
,
0001
0000
1000
1000
,
1000
0001
1000
0000
,
0010
0010
0010
0100
,
0010
0000
0100
0100
,
0100
0010
0010
0010
,
0100
0010
0100
0100
,
0100
0000
0001
1000
,
0001
0001
0001
0000
,
1000
0001
1000
1000
,
1000
0000
0100
0010
,
0100
0100
0010
0010
,
0002
0000
0000
0000
,
0103
0100
0010
0100
,
0010
0010
0010
0000
,
1000
0100
0010
0001
,
0002
0000
0000
0003
,
1000
0001
1000
0001
,
1000
0001
1000
0001
,
1000
0010
1000
0010
,
1000
0010
2000
0000
,
3100
1000
0100
1000
,
0100
0000
0000
0000
,
0010
0001
0010
0001
,
0100
0000
0000
0000
,
0010
0100
0020
0030
,
1000
0100
2000
3000
,
0001
0000
0100
0000
,
0010
1000
0100
0010
,
0001
0100
0001
0100
,
0001
0100
0001
0100
,
0010
1000
0010
1000
,
0010
1000
0010
1000
,
0100
0100
0100
0100
,
0010
0010
0010
0010
,
0001
0001
0001
0001
,
1000
1000
1000
1000
,
0100
0000
0010
0000
,
0100
0010
0100
0010
,
1000
0000
0000
0000
1000
0000
0000
0000
0001
0000
0000
0000
,
0001
0000
0000
0000
0001
0000
0000
0000
1000
0000
0000
0000
,
1001
1000
0001
0010
,
2002
0000
0000
0000
,
0000
0000
0000
0000
,
3003
0000
0000
0000
;

//---------------dance-single - Copied from----------------
#NOTES:
     dance-single:
     Copied from:
     Beginner:
     2:
     0.156,0.265,0.032,0.105,0.000:
0000
0000
0000
0000
,
0000
0000
0000
0000
,
0020
0000
0000
0000
,
0030
0000
0000
0000
,
0200
0000
0000
0000
,
0300
0000
0000
0000
,
0020
0000
0000
0000
,
0030
0000
0000
0000
,
0200
0000
0000
0000
,
0300
0000
0000
0000
,
0100
0000
0000
0000
,
0000
0000
0000
0000
,
1000
0000
0000
0000
,
0000
0000
0000
0000
,
0100
0000
0000
0000
,
0000
0000
0000
0000
,
0001
0000
0000
0000
,
0000
0000
0000
0000
,
0010
0000
0000
0010
,
0000
0000
0010
0000
,
0000
0010
0000
0000
,
0100
0000
0000
0100
,
0000
0000
0100
0000
,
0000
0000
0000
0000
,
1001
0000
0000
0001
,
0000
0000
0002
0000
,
0000
0000
0000
0000
,
0003
0000
0000
0000
,
0000
0000
0000
0000
,
2000
0000
0000
0000
,
3000
0000
0000
0000
,
0100
0000
0100
0000
,
0100
0000
0100
0000
,
0100
0000
0100
0000
,
0100
0000
0000
0000
,
0010
0000
0010
0000
,
0010
0000
0010
0000
,
0010
0000
0010
0000
,
0010
0000
0000
0000
,
0100
0000
0000
0000
,
0001
0000
0000
0000
,
1000
0000
0000
0000
,
0100
0000
0000
0000
,
0020
0000
0000
0000
,
0030
0000
0000
0000
,
0002
0000
0000
0000
,
0003
0000
0000
0000
,
1001
0000
0000
0000
,
0010
0000
0000
0000
,
1001
0000
0000
0000
,
0100
0000
0000
0000
,
0200
0000
0000
0000
,
0300
0000
0000
0000
,
0020
0000
0000
0000
,
0030
0000
0000
0000
,
0100
0000
0100
0000
,
0100
0000
0100
0000
,
0100
0000
0100
0000
,
0100
0000
0100
0000
,
0100
0000
0000
0000
,
1000
0000
0000
0000
,
0001
0000
0000
0000
,
0010
0000
0000
0000
,
0001
0000
0000
0000
,
1000
0000
0000
0000
,
0100
0100
0100
0000
,
0000
0000
0100
0100
,
0100
0000
0000
0000
,
0100
0100
0100
0000
,
0000
0000
0100
0100
,
0100
0000
0000
0000
,
0010
0010
0010
0000
,
0000
0000
0010
0010
,
0010
0000
0000
0000
,
0010
0010
0010
0000
,
0000
0000
0010
0010
,
0010
0000
0000
0000
,
1001
0000
0000
0000
,
0001
0000
0001
0000
,
1000
0000
1000
0000
,
1000
0000
0000
0000
,
0100
0000
0000
0000
,
0020
0000
0000
0000
,
0000
0000
0000
0000
,
0000
0000
0000
0000
,
0000
0000
0030
0000
,
0100
0000
0100
0000
,
0100
0000
0000
0000
,
1000
0000
1000
0000
,
1000
0000
0000
0000
,
0001
0000
0000
0000
,
0010
0000
0000
0000
,
0100
0000
0000
0000
,
0000
0000
0000
0000
,
0010
0000
0010
0000
,
0010
0000
0010
0000
,
0010
0000
0010
0000
,
0010
0000
0010
0000
,
0001
0000
0000
0000
,
1000
0000
0000
0000
,
0001
0000
0000
0000
,
0010
0000
0000
0000
,
0100
0000
0000
0000
,
0200
0000
0000
0000
,
0300
0000
0000
0000
,
1000
0000
0000
0000
,
0001
0000
0010
0000
,
0002
0000
0000
0000
,
0000
0000
0000
0000
,
0003
0000
0000
0000
;

//---------------dance-single - Copied from----------------
#NOTES:
     dance-single:
     Copied from:
     Medium:
     7:
     0.495,0.530,0.186,0.065,0.024:
0000
0000
0000
0000
,
0000
0000
0000
0000
,
1001
0000
0000
0000
0001
0000
0000
1000
,
0000
0000
0000
0000
,
1100
0000
0000
0000
0100
0000
0000
0010
,
0000
0000
0000
0000
,
1001
0000
0000
0000
1000
0000
0000
0001
,
0000
0000
0000
0000
,
1010
0000
0000
0000
1000
0000
0000
0100
,
0000
0000
0100
0100
,
1000
0000
0100
0000
0010
0000
0001
0100
,
0000
1000
0001
0001
,
0010
0000
1000
0000
0100
0000
0010
0001
,
0000
1000
0010
0100
,
0001
0000
1000
0000
0001
0000
0010
0001
,
0000
0100
0010
0100
,
0010
0000
1000
0000
0100
1000
0000
1000
,
0000
0000
0000
0000
0001
0100
1000
0000
,
1000
0100
0010
0001
,
0010
0100
1000
0100
,
0010
0001
0010
0100
,
1000
0100
0010
0001
,
0010
0100
1000
0100
,
0010
0001
1000
1000
,
1001
0100
0010
0001
,
0010
0100
1000
0100
,
0010
0100
0010
0010
,
0011
0100
1000
0100
,
0010
0000
0100
0010
0000
0100
0000
0000
,
0001
0010
0100
1000
,
0001
1000
0001
0000
1001
0000
1001
0000
,
0001
1000
0010
0100
,
0010
0100
0020
0000
,
0130
0010
1000
0100
,
0010
0000
0000
0001
0000
0000
0100
0000
,
0001
0010
0001
0100
,
0010
0000
0000
1000
0000
0000
0100
0000
,
0001
1000
0001
1000
,
0100
0010
0001
1000
,
0001
0000
0000
0100
0000
0000
0010
0000
,
1000
0000
0000
0100
0000
0000
0010
0000
,
0100
0000
0000
0010
0000
0000
0100
0000
,
0001
0000
0000
1000
0000
0000
0001
0000
,
1001
0001
0100
0010
,
1000
0000
0000
0100
0000
0010
0000
0000
,
0100
0001
0100
0010
,
1000
0001
1000
0000
1001
0000
1001
0000
,
0001
1000
0000
0010
0000
1000
0000
0100
,
0000
0000
1100
0000
,
1000
0100
0000
0010
0000
0001
0000
0010
,
0000
0000
0101
0000
,
0001
0010
0002
0103
,
0010
1000
0200
1300
,
0100
0010
0001
1000
,
0001
0000
1000
0001
0000
0010
1000
0010
,
1000
0100
1000
0100
,
1000
0000
0100
0000
0010
0001
0010
0000
,
0001
0100
0001
0100
,
0001
0000
0100
0000
0010
1000
0100
0000
,
0100
0100
0100
0100
,
0010
0010
0010
0010
,
0001
0001
0001
0001
,
0100
0000
0100
0000
0100
0010
1000
0000
,
1000
1000
1000
1000
,
0100
0100
0010
0010
,
1001
0001
1000
0001
,
1000
0000
1100
1000
,
0100
1000
0100
0000
,
0110
0010
0100
0010
,
0100
0000
0011
0010
,
0001
0000
0010
0000
0001
1000
0001
0000
,
1001
0000
0100
0001
0100
0000
0010
0000
,
0010
0000
0000
0000
0110
0000
0010
0100
,
0010
1000
0001
0000
,
1010
0000
1000
0010
1000
0000
0100
0000
,
0010
0000
0000
0000
0011
0000
0010
0001
,
0010
0100
1000
0100
,
0020
0000
0000
0030
,
1001
0000
1000
0000
0001
1000
0000
0010
,
0000
0010
0000
0010
0000
0000
0100
0000
,
1000
0100
0010
0001
,
1000
0000
0001
0001
0000
0000
0000
0000
,
0100
0100
0010
0100
,
0010
1000
0100
0010
,
0001
0100
0010
0100
,
0010
1000
0002
0000
,
0103
0010
0000
1000
0000
0100
0000
1000
,
0000
0100
0100
0100
,
0010
0001
0000
0100
0000
0010
0000
0100
,
0000
0001
0001
0001
,
1000
0100
0200
0301
,
0010
0001
0200
0310
,
1000
0100
0010
0001
,
1000
0000
0001
1000
0000
0010
1000
0010
,
1000
0100
0000
0100
0000
1000
0000
0010
,
0000
0100
0001
0010
,
0001
0100
0000
0001
0000
1000
0000
0010
,
0000
0100
0100
0100
,
0010
1000
0100
0010
,
0001
0100
0010
1000
,
0001
0010
0001
0100
,
0010
0000
1000
0000
0100
0010
0001
0000
,
0100
0001
0010
0100
,
1000
0001
1000
0000
0010
0001
0010
0000
,
1000
0000
0000
0000
0100
0000
0000
0000
0010
0000
0000
0000
,
0001
0000
0000
0000
0010
0000
0000
0000
0100
0000
0000
0000
,
1001
0000
0000
1000
0000
0000
0001
0000
1000
0010
0000
0010
,
2000
0000
0000
0000
,
0000
0000
0000
0000
,
3000
0000
0000
0000
;

//---------------dance-single - Copied from----------------
#NOTES:
     dance-single:
     Copied from:
     Hard:
     8:
     0.605,0.662,0.089,0.049,0.081:
0000
0000
0000
0000
,
0000
0000
0000
0000
,
0001
0000
0100
0000
0001
0100
0010
1000
,
0000
0100
1000
0010
,
1000
0000
0100
0000
0010
0001
1000
0100
,
0000
0100
1000
0010
,
0100
0000
0001
0000
0001
0000
1000
0001
,
1000
0010
0100
0010
,
1000
0000
1000
0000
1000
0100
0010
0001
,
0000
0100
0001
0000
0010
0001
0010
0001
,
0100
0000
0010
0000
1000
0000
0100
1000
,
0000
1000
0010
0000
0100
0000
0001
0000
,
0010
0000
0001
0000
0100
0000
0001
1000
,
0000
1000
0010
0000
0100
0001
0010
0000
,
0100
0000
1000
0000
0100
0000
1000
0010
,
0000
0010
0100
0000
0001
0000
0010
0000
,
0001
0000
0100
0000
0010
0100
0000
0100
,
0000
1000
0100
0000
0010
0001
0100
0000
,
0010
1000
0100
0010
,
0001
0000
0100
0000
0001
0010
0001
0000
,
0100
0010
1000
0100
,
1000
0100
0010
0001
,
0100
0000
0010
0000
1000
0100
1000
0000
,
0010
0001
0010
0000
0100
0000
0100
0000
,
0010
0010
0100
1000
,
0001
1000
0010
0110
,
0100
0000
0110
0000
0010
1000
0100
0000
,
0010
0001
0100
0001
,
0010
0000
0001
1000
0000
0001
0000
0000
,
1000
0001
1000
0100
,
0010
0001
0010
0000
0100
1000
0100
0000
,
0010
0001
0100
0010
,
1000
0001
0000
1001
0000
0000
0001
0000
,
1000
0010
0100
0001
,
0010
0000
0010
0001
0000
0001
0010
0000
,
0100
1000
0100
1000
,
0010
0000
0010
1000
0000
1000
0001
0000
,
0100
0001
0010
0001
,
1000
0001
1000
1001
,
0001
0000
1000
0010
0000
0010
0100
0000
,
0100
0000
0100
0001
0000
0001
0010
0000
,
0010
0000
0010
0001
0000
0001
1000
0000
,
1000
0000
1000
0010
0000
0010
1000
0000
,
0100
0010
0001
1000
,
0001
1000
0010
1000
0000
1000
0000
0000
,
0100
1000
0100
0010
,
0001
1000
0001
0010
0001
0010
0001
0100
,
0001
0010
0000
0100
0000
0010
0000
1000
,
0000
0100
0010
0000
0001
0000
0010
0000
,
0001
0100
0000
0010
0000
1000
0000
0001
,
0000
0100
0010
0000
1000
0000
0100
0000
,
0010
0000
0001
0000
1000
0001
1000
0000
,
0010
0000
0001
0000
0100
0010
0100
0000
,
1000
0000
0100
0010
0000
0000
0001
0000
,
0100
0000
0010
1000
0000
1000
0001
1000
,
0100
0010
0000
0001
0000
0100
0000
0010
,
1000
0001
0100
0010
,
1000
0001
0000
0100
0000
0010
0000
0001
,
0000
0100
0001
0000
0010
0000
0100
0000
,
1000
0100
1000
0000
0010
0001
0010
0000
,
0100
0001
0100
0000
0010
1000
0010
0000
,
1000
0100
1000
0000
0010
0001
0010
0000
,
0100
0001
1000
0000
0001
1000
0100
0000
,
1000
0100
0010
0000
0010
0001
0010
0000
,
0100
0001
0010
0000
0010
0100
1000
0000
,
1000
0100
0010
0000
0001
0000
1000
0000
,
0001
0000
0000
0000
0001
0010
0100
0000
,
1000
0100
0010
0000
,
1000
0001
1000
0000
0100
0000
0010
0000
,
0100
0000
0000
0000
0001
1000
0010
0100
,
0010
0000
0010
0001
0010
0100
1000
0000
,
0100
1000
0100
0000
0010
0000
0100
0000
,
0010
0000
0000
0000
0001
1000
0010
0000
,
0010
1000
0100
0000
,
0010
0001
1000
0000
0001
0000
1000
0000
,
0100
0000
0000
0000
0010
1000
0100
0000
,
0010
0001
0100
0001
,
2000
0000
0200
3300
,
1100
0000
1000
0000
0100
0010
0000
0001
,
0000
0100
0000
0001
0000
0000
1000
0000
,
0001
0000
0001
1000
0000
1000
0010
0000
0010
0100
0000
0100
,
0010
0000
0100
0002
0010
0000
0013
0000
,
1000
0000
1000
0100
0000
0000
0010
0000
0100
0010
0000
0000
,
0010
0000
0001
1000
0000
0000
0001
0000
0100
0010
0000
0000
,
1000
0000
0100
0010
0000
0000
0001
0000
1000
0010
0000
0000
,
0100
0000
0010
0001
0000
0000
0200
0000
0000
0000
0000
0000
,
0310
1000
0000
0100
0000
0010
0000
0001
,
0000
1000
0001
1000
0010
1000
0100
0000
,
1000
0100
0000
0010
0000
0001
0000
0100
,
0000
0001
0010
0001
0100
0001
0010
0000
,
0001
0100
1010
0000
,
1000
0001
0101
0000
,
0010
0001
0100
0010
,
1000
0000
0001
1000
0000
1000
0001
1000
,
0001
0010
0000
0001
0000
0100
0000
0001
,
0000
1000
0100
1000
0010
1000
0100
0000
,
1000
0010
0000
0100
0000
0001
0000
0010
,
0000
0001
0010
0001
0100
0001
0010
0000
,
0001
0000
0001
0000
0100
0001
0100
0000
,
0010
0000
0010
0000
1000
0010
1000
0000
,
0100
0000
0100
0000
1000
0100
1000
0000
,
0010
0000
0010
0000
1000
0001
1000
0001
,
0100
0000
0100
0000
0010
1000
0010
0000
,
0001
0000
0001
1000
0000
1000
0010
0000
0010
0100
0000
0000
,
0110
0000
0000
0000
0001
0000
0000
0000
1000
0000
0000
0000
,
1100
0000
0000
0000
0100
0000
0000
0000
0010
0000
0000
0000
,
0110
0000
0000
1000
0000
0000
0001
1000
0100
0010
0000
0000
,
2002
0000
0000
0000
,
0000
0000
0000
0000
,
3003
0000
0000
0000
;

//---------------dance-single - Copied from----------------
#NOTES:
     dance-single:
     Copied from:
     Challenge:
     10:
     0.829,0.794,0.462,0.154,0.146: // measure 1
0000
0000
0000
0000
,  // measure 2
0000
0000
0000
0000
,  // measure 3
1000
0001
1000
0100
0010
0001
0010
0100
,  // measure 4
1000
0010
0100
0001
0100
0010
1000
0010
,  // measure 5
0100
0001
0010
0100
1000
0010
0100
0001
,  // measure 6
1000
0100
0010
0100
1000
0100
0010
0000
,  // measure 7
0011
0000
1001
0000
1000
0100
0010
0000
,  // measure 8
0011
0000
1001
0000
1000
0001
1000
0000
,  // measure 9
1100
0000
1010
0000
1000
0100
0010
0002
,  // measure 10
0000
0013
0100
0010
1000
0100
1000
0100
,  // measure 11
0010
0000
0100
0000
0010
1000
0100
0020
,  // measure 12
0000
0030
0001
0000
1000
0100
0001
0000
,  // measure 13
0010
0000
0001
0000
0100
0010
1000
0002
,  // measure 14
0000
0003
0010
1000
0100
1000
0010
0000
,  // measure 15
0001
0000
0010
0000
0001
0010
0100
2000
,  // measure 16
0000
3000
0010
0000
0100
0001
0010
0000
,  // measure 17
1000
0000
0001
0000
0010
0001
0000
1001
,  // measure 18
0000
0100
1000
0100
0020
0100
0200
0330
,  // measure 19
0100
0010
0001
1000
0100
0000
0100
1000
,  // measure 20
0010
0100
0001
0000
0001
1000
0010
0100
,  // measure 21
0001
0000
1000
0010
0100
0010
1000
0000
,  // measure 22
0100
0010
0001
1000
0100
0000
0001
0010
,  // measure 23
0100
1000
0001
0000
1000
0100
0010
0001
,  // measure 24
1000
0100
0010
0000
0011
0000
0101
0000
,  // measure 25
1000
0001
0100
0010
1000
0000
0100
0001
,  // measure 26
0010
0100
1000
0000
0100
0000
0010
0000
,  // measure 27
0001
0000
0000
0000
1000
0000
0000
0001
1000
0000
0000
1000
0100
0000
0000
0000
,  // measure 28
0100
0010
0001
1000
,  // measure 29
0001
0010
0001
0100
0000
0100
0010
0000
,  // measure 30
1000
0100
1000
0100
0010
0100
0010
0000
,  // measure 31
0010
0001
0010
0000
1100
0000
0011
0000
,  // measure 32
1001
0000
1001
0000
0110
0000
1000
0001
,  // measure 33
0010
0001
0000
2002
0000
3003
0100
0000
,  // measure 34
0010
0000
1000
0100
0010
0000
0100
0000
,  // measure 35
0010
0000
0001
0010
0100
0000
0010
0000
,  // measure 36
1000
0000
0001
1000
0001
0010
0001
0100
,  // measure 37
0010
0000
0010
1000
0000
1000
0100
0000
,  // measure 38
0010
0000
0100
0000
0010
0001
0100
0000
,  // measure 39
0010
1000
0100
0010
,  // measure 40
0001
0000
1000
0001
0000
0001
0100
0001
,  // measure 41
0010
0000
0010
0100
0000
0100
1000
0100
,  // measure 42
0001
0000
0001
0010
0000
0010
1000
0001
,  // measure 43
0010
0000
0010
0001
0000
0001
1000
0010
,  // measure 44
1000
1100
0110
0011
,  // measure 45
1001
0000
0001
1000
0001
1000
0001
0000
,  // measure 46
0010
0001
0100
0001
,  // measure 47
0010
0001
0100
0010
1000
0000
1100
0000
,  // measure 48
1000
0001
1000
0100
0000
0010
1000
0001
,  // measure 49
0000
0100
0001
0010
0100
1000
0001
0010
,  // measure 50
0100
0010
0100
1000
0000
0001
0010
1000
,  // measure 51
0000
1000
0001
0100
0010
0001
0010
0100
,  // measure 52
0010
0000
0001
0000
1000
0001
1000
0000
,  // measure 53
0010
0000
0100
0000
0010
1000
0100
0000
,  // measure 54
0010
0000
0100
0001
0000
0001
1000
0100
,  // measure 55
0010
0000
1001
0000
1001
1000
0001
0100
,  // measure 56
0001
1000
0100
0010
0000
0100
0001
0010
,  // measure 57
0000
1000
0001
0010
0001
0100
0010
0100
,  // measure 58
1000
0001
1000
0100
0000
0100
0001
1000
,  // measure 59
0001
0010
0100
0000
1001
0000
0110
0000
,  // measure 60
1000
0001
0000
0110
0000
0001
1000
0001
,  // measure 61
0010
0100
0000
0110
0000
1000
0100
0010
,  // measure 62
0100
0001
0000
1100
0000
0001
0100
0010
,  // measure 63
1000
0100
0000
1001
0000
0100
0010
0000
,  // measure 64
0001
0010
0000
0011
0000
0100
1000
0100
,  // measure 65
0010
0100
0000
1100
0000
0100
0001
1000
,  // measure 66
0001
0100
0010
1000
0100
0000
1100
0000
,  // measure 67
1001
0000
0010
0000
1000
0100
0010
0100
,  // measure 68
1000
0011
1100
0010
,  // measure 69
0001
0100
1000
0100
0001
0000
0101
0000
,  // measure 70
1010
0000
0001
0000
1000
0100
0010
0001
,  // measure 71
0010
0000
0100
1000
0100
0010
0001
0000
,  // measure 72
0100
1000
0100
0010
0100
0000
0010
0001
,  // measure 73
0010
0100
0010
0000
0001
1000
0100
1000
,  // measure 74
0001
0000
1000
0001
0010
0001
1000
0000
,  // measure 75
0001
0010
0001
0100
0010
0000
1000
0100
,  // measure 76
1000
0010
0100
0000
0001
0010
0100
1000
,  // measure 77
0001
0000
1000
0100
0010
0001
1000
0000
,  // measure 78
2001
0000
0020
3030
,  // measure 79
1010
0000
1000
0000
0001
0010
0001
0100
,  // measure 80
0000
0110
0000
1001
0000
0000
0100
0000
,  // measure 81
1000
0100
0010
0001
0000
0000
0001
1000
0010
0100
0000
0000
,  // measure 82
0010
0000
0001
0020
0000
0030
1001
0000
,  // measure 83
1000
0100
0010
0001
0000
0000
1000
0100
0010
0001
0000
0000
,  // measure 84
1000
0010
0100
0001
0000
0000
1000
0010
0100
0001
0000
0000
,  // measure 85
0001
0010
0100
1000
0000
0000
0001
0010
0100
1000
0000
0000
,  // measure 86
1000
0100
0010
0001
1000
0001
0200
0000
0000
0310
0000
0000
,  // measure 87
0001
0100
0000
1001
0000
0110
0000
1001
,  // measure 88
0000
0010
0001
0100
0001
1000
0100
1000
,  // measure 89
0010
0100
0000
0011
0000
1100
0000
0011
,  // measure 90
0000
0010
0100
0010
1000
0100
0010
0001
,  // measure 91
0020
0000
0032
0000
0103
0010
0100
1000
,  // measure 92
0200
0000
2300
0000
3010
0100
0001
0010
,  // measure 93
0200
0000
1300
0020
0000
0130
0001
0010
,  // measure 94
0100
1000
0001
0110
0000
1000
0100
0010
,  // measure 95
0001
0010
0001
0010
0001
0010
0001
0010
,  // measure 96
0001
0100
0010
1000
0100
0010
0001
1000
,  // measure 97
0100
1000
0100
1000
0100
1000
0100
1000
,  // measure 98
0100
1000
0100
0010
0100
0010
0001
1000
,  // measure 99
0001
0100
0001
0100
0001
0100
0001
0100
,  // measure 100
0010
0100
0010
0100
0010
0100
0010
0100
,  // measure 101
0010
1000
0010
1000
0010
1000
0010
1000
,  // measure 102
0100
0000
0000
0010
0000
0000
0100
0000
0000
0010
0000
0000
0001
0000
0000
0000
1000
0000
0100
0000
0000
0000
0001
0000
,  // measure 103
0100
0110
1001
0011
,  // measure 104
0001
0000
0100
0001
0000
1000
0001
0100
0010
1000
0000
0000
,  // measure 105
1001
0000
0000
0000
1010
0000
0000
0000
1100
0000
0000
0000
,  // measure 106
1001
0000
0000
0000
0101
0000
0000
0000
0011
0000
0000
0000
,  // measure 107
1000
0000
0000
0001
0000
0000
1000
0000
0000
0010
0000
0000
1000
0000
0100
0000
0010
0000
0001
0000
0010
0000
0100
0000
,  // measure 108
2000
0000
0000
0000
,  // measure 109
0000
0000
0000
0000
,  // measure 110
3000
0000
0000
0000
;
