#TITLE:Koi no Miracle*;
#SUBTITLE:;
#ARTIST:RuRuRuSYSTEM;
#TITLETRANSLIT:;
#SUBTITLETRANSLIT:;
#ARTISTTRANSLIT:;
#GENRE:;
#CREDIT:;
#MENUCOLOR:;
#NEWMETERSYSTEM:NO;
#BANNER:Koi no Miracle-bn.png;
#BACKGROUND:Koi no Miracle-bg.png;
#LYRICSPATH:;
#CDTITLE:MixMania II CD Title.png;
#MUSIC:Koi no Miracle.mp3;
#OFFSET:-0.360;
#SAMPLESTART:57.960;
#SAMPLELENGTH:11.980;
#SELECTABLE:YES;
#LISTSORT:;
#BPMS:0.000=175.000;
#STOPS:;
#BGCHANGES:;
#ATTACKS:;

//---------------dance-single - ----------------
#NOTES:
     dance-single:
     :
     Easy:
     3:
     0.279,0.342,0.026,0.163,0.000:
0000
0000
0000
0000
,
0000
0000
0000
0000
,
0000
0000
0000
0000
,
0000
0000
0000
0010
,
0010
0000
0001
0000
,
0100
0000
0010
0100
,
1000
0000
0100
0000
,
0001
0000
0010
0001
,
0100
0000
1000
0000
,
0100
0010
0001
0000
,
0010
0000
0001
0000
,
0010
0100
1000
0000
,
0001
0000
1000
0000
,
0100
1000
0010
0000
,
0100
0000
1000
0000
,
0000
1001
0000
1001
,
0020
0000
0230
0000
,
0010
0000
0001
0000
,
0302
0000
2003
0000
,
0100
0000
0010
0000
,
3200
0000
2300
0000
,
0010
0000
0001
0000
,
3002
0000
0023
0000
,
0130
1000
1000
0000
,
1001
0100
1000
0100
,
0010
0000
0100
0000
,
0001
1000
0001
0000
,
1000
0001
1000
0000
,
0100
1000
0100
0000
,
1000
0100
0001
0000
,
0010
0001
0100
0000
,
0010
1000
0100
0000
,
0010
0100
1000
0100
,
0001
0000
0010
0000
,
0100
0010
0100
0000
,
0010
0100
0010
0000
,
1000
0001
1000
0000
,
0001
0010
0001
0000
,
0100
0000
0010
0000
,
0100
0010
0001
0010
,
0200
0000
2300
0000
,
3200
0000
0320
0001
,
0031
0100
0001
0000
,
1000
0100
1000
0000
,
0001
0010
0100
0000
,
1000
0100
0010
0001
,
1000
0000
0100
0010
,
0100
0000
0001
0000
,
1000
0000
0100
0000
,
0010
0010
0020
0000
,
0130
0001
1000
0000
,
0100
1000
0001
0000
,
1000
0100
0010
0000
,
0001
1000
0010
0100
,
0001
0000
0001
0100
,
0002
0000
2003
0000
,
3002
0000
0100
0003
,
1000
0001
1000
0000
,
0100
0000
1000
0100
,
1000
0000
0100
0001
,
0010
0000
0001
0010
,
0001
0000
0100
0010
,
2000
3000
0100
0001
,
0010
0010
0000
0100
,
0001
0000
1000
0000
,
1000
0100
0010
0001
,
0010
0000
0001
0100
,
0001
0000
0000
0010
,
0100
0000
1000
0100
,
1000
0000
0000
1000
,
0002
0003
0010
0100
,
1000
0000
0100
0100
,
1000
0000
0001
0000
,
1000
0000
0100
0001
,
0010
0000
0100
0000
,
0001
0000
1000
0001
,
1000
0000
0100
0000
,
0010
0000
0001
0100
,
0010
0000
1000
0000
,
0001
0000
2000
0000
,
3100
0000
0000
0000
;

//---------------dance-single - Copied from----------------
#NOTES:
     dance-single:
     Copied from:
     Beginner:
     1:
     0.125,0.171,0.034,0.077,0.000: // measure 1
0000
0000
0000
0000
,  // measure 2
0000
0000
0000
0000
,  // measure 3
0000
0000
0000
0000
,  // measure 4
0000
0000
0000
0000
,  // measure 5
0010
0000
0000
0000
,  // measure 6
0001
0000
0000
1000
,  // measure 7
1000
0000
0000
0000
,  // measure 8
0100
0000
0000
0010
,  // measure 9
0010
0000
0000
0000
,  // measure 10
0001
0000
0000
0000
,  // measure 11
1000
0000
0000
0000
,  // measure 12
0100
0000
0000
0000
,  // measure 13
0010
0000
0000
0000
,  // measure 14
0001
0000
0000
0000
,  // measure 15
0010
0000
0000
0000
,  // measure 16
0000
0100
0000
0100
,  // measure 17
0100
0000
0010
0000
,  // measure 18
0100
0000
0000
0000
,  // measure 19
1000
0000
0001
0000
,  // measure 20
1000
0000
0000
0000
,  // measure 21
0010
0000
0001
0000
,  // measure 22
0010
0000
0000
0000
,  // measure 23
0100
0000
0000
0000
,  // measure 24
0100
0000
0000
0000
,  // measure 25
1000
0000
0000
0000
,  // measure 26
0001
0000
0000
0000
,  // measure 27
0200
0000
0000
0000
,  // measure 28
0000
0000
0300
0000
,  // measure 29
0010
0000
0000
0000
,  // measure 30
0100
0000
0000
0000
,  // measure 31
2000
0000
0000
0000
,  // measure 32
0000
0000
3000
0000
,  // measure 33
0001
0000
0000
0000
,  // measure 34
0010
0000
0000
0000
,  // measure 35
0002
0000
0000
0000
,  // measure 36
0000
0000
0003
0000
,  // measure 37
0100
0000
0000
0000
,  // measure 38
1000
0000
0000
0000
,  // measure 39
0020
0000
0000
0000
,  // measure 40
0000
0000
0030
0000
,  // measure 41
1001
0000
0000
0000
,  // measure 42
0000
0000
0000
0000
,  // measure 43
1000
0000
0000
1000
,  // measure 44
1000
0000
0000
0001
,  // measure 45
0001
0000
0000
0010
,  // measure 46
0010
0000
0000
0100
,  // measure 47
0100
0000
0000
0000
,  // measure 48
1000
0000
0000
0000
,  // measure 49
0001
0000
0000
0000
,  // measure 50
1001
0000
0000
0000
,  // measure 51
0010
0000
0000
0010
,  // measure 52
0010
0000
0000
1000
,  // measure 53
1000
0000
0000
0001
,  // measure 54
0001
0000
0000
0100
,  // measure 55
0100
0000
0000
0000
,  // measure 56
0010
0000
0000
0000
,  // measure 57
0100
0000
0000
0000
,  // measure 58
1001
0000
0000
0000
,  // measure 59
1000
0000
0000
0000
,  // measure 60
0002
0000
0003
0000
,  // measure 61
0010
0000
0000
0000
,  // measure 62
2000
0000
3000
0000
,  // measure 63
0010
0000
0000
0000
,  // measure 64
0100
0000
0000
0000
,  // measure 65
0001
0000
0000
0000
,  // measure 66
0110
0000
0000
0000
,  // measure 67
0010
0000
0000
0000
,  // measure 68
0200
0000
0300
0000
,  // measure 69
1000
0000
0000
0000
,  // measure 70
0020
0000
0030
0000
,  // measure 71
0001
0000
0000
0000
,  // measure 72
0100
0000
0000
0000
,  // measure 73
1000
0000
0000
0000
,  // measure 74
0100
0000
0000
0010
,  // measure 75
0010
0000
0000
0000
,  // measure 76
0001
0000
0000
1000
,  // measure 77
1000
0000
0000
0000
,  // measure 78
0010
0000
0000
0100
,  // measure 79
0100
0000
0000
0000
,  // measure 80
1000
0000
0020
0000
,  // measure 81
0030
0000
0000
0000
;

//---------------dance-single - Copied from----------------
#NOTES:
     dance-single:
     Copied from:
     Medium:
     6:
     0.394,0.551,0.000,0.154,0.004:
0000
0000
0000
0000
,
0000
0000
0000
0000
,
0000
0000
0000
0000
,
0000
0000
0000
0000
,
1000
0000
0001
0000
0000
1000
0000
0000
,
0001
0000
0000
1000
0000
0000
0010
0100
,
0010
0000
0100
0000
0000
0001
0000
0000
,
0010
0000
0000
0100
0000
0000
0001
1000
,
0010
0100
1000
0100
,
0010
0000
0001
0010
0000
0000
0100
0000
,
0001
1000
0100
0010
,
1000
0000
0100
0000
0001
0010
0001
0000
,
0100
0010
1000
0001
,
0100
0000
0010
0100
0000
0000
1000
0000
,
0100
0001
0100
1000
,
0000
0001
0001
0000
0000
1000
1000
0000
,
0001
1000
0010
0100
,
0010
0000
1000
0100
0000
0000
0000
0000
,
1000
0001
0010
0100
,
0001
0000
0010
0000
0100
0010
0100
0000
,
0001
1000
0100
0010
,
0100
0000
0001
0010
0000
0000
0000
0000
,
0100
0001
1000
0100
,
1000
0100
0010
0001
0000
0000
0100
0000
,
0001
1000
0100
1000
,
0010
0000
0100
0000
0010
0001
0010
0000
,
0100
0000
0001
0000
1000
0010
0000
0100
,
0000
0001
0000
0010
0001
0000
0010
0000
,
0100
0001
1000
0010
,
0100
1000
0100
0010
,
0001
0000
0010
0000
1000
0100
0000
1000
,
0000
0010
0000
0100
0010
0000
0100
0000
,
1000
0001
0100
0010
,
0001
0010
0100
1000
,
0100
0000
0001
0000
0010
0001
0000
0100
,
0000
0010
0000
1000
0100
0000
1000
0000
,
0100
1000
0010
0100
,
0001
1000
0001
0010
,
0100
0000
0010
0000
0100
0010
0000
1000
,
0000
0100
0000
0001
0000
0010
0001
0000
,
0100
0000
0000
0010
0000
0000
0100
0000
,
0010
0000
1000
0000
0001
1000
0001
1000
,
0010
0000
0100
1000
0001
0000
0100
0000
,
0010
0001
0100
0010
,
2000
3200
0320
0031
,
0200
0302
0023
0230
,
2300
3000
0010
0100
,
0001
1000
0100
0010
,
2000
0000
0000
3001
1000
0000
0010
0000
,
0100
0000
0001
0010
0000
0100
1000
0000
,
0100
0000
1000
0010
0100
0000
0001
0000
,
1000
0100
0010
0001
,
0020
0230
0302
1003
,
0200
2300
3200
0320
,
0032
0003
1000
0001
,
0100
0010
0001
1000
,
0100
1000
0001
0100
,
0001
0000
0100
1000
0000
1000
0100
0000
,
0010
0000
0000
0001
0000
0000
0010
0000
,
1000
0100
0001
1000
,
0100
0000
0000
1000
0000
0000
0100
0000
,
0010
0100
0001
1000
,
0010
0001
0010
0000
0100
0000
0001
1000
,
0001
0100
0010
1000
,
0100
0000
0000
1000
0100
0000
0000
0000
,
0010
0000
0000
0100
0000
0000
0010
0000
,
0001
0000
0000
0010
0000
0000
0100
0000
,
1000
0000
0100
1000
,
0100
0000
0000
0010
0000
0000
0001
0000
,
0010
0000
0100
0001
,
1000
0001
1000
0000
0010
0000
0100
0010
,
0100
1000
0100
0001
,
0001
0000
0000
0010
0000
0000
0100
0000
,
1000
0000
0000
0100
0000
0000
0010
0100
,
1000
0000
0100
0000
0000
0010
0000
0000
,
1000
0000
0000
0100
0000
0000
1000
0001
,
1000
0000
0001
0000
0000
0100
0000
0000
,
0010
0000
0000
0100
0000
0000
0010
1000
,
0001
0000
0001
0000
0000
0100
0000
0000
,
1000
0000
0000
0000
0000
0000
0000
0000
0010
0000
0000
0010
0000
0000
0100
0000
,
0200
0000
0000
0300
0000
0000
0000
0000
;

//---------------dance-single - Copied from----------------
#NOTES:
     dance-single:
     Copied from:
     Hard:
     7:
     0.472,0.479,0.060,0.017,0.004:
0000
0000
0000
0000
,
0000
0000
0000
0000
,
0000
0000
0000
0000
,
0000
0000
0000
0000
0000
0000
1000
0100
,
1000
0000
0100
0010
0000
0010
0001
0000
,
0010
0000
0001
0100
0000
0010
1000
0100
,
1000
0000
0100
1000
0000
1000
0010
0000
,
0010
0000
0010
0001
0000
0001
0100
0001
,
0010
0000
0010
1000
0100
0000
1000
0000
,
0100
0000
0010
0001
0000
0000
0100
0000
,
0001
1000
0001
1000
0100
0000
0010
0000
,
1000
0000
1000
0010
0000
0010
0100
0000
,
0001
0000
1000
0100
0001
0000
0010
0000
,
0001
0000
0100
0001
0000
0001
0010
0000
,
0010
1000
0100
1000
0010
0000
1001
0000
,
0000
0001
0011
0000
0000
1000
1100
0000
,
1000
0000
0001
0100
1000
0000
0010
0000
,
1000
0100
0010
0001
0000
0000
0100
0000
,
0001
0000
0010
0001
0010
0000
0100
0000
,
0001
0010
0100
1000
0000
0000
0001
0000
,
1000
0000
0100
1000
0010
0000
0100
0000
,
0010
1000
0100
0010
0000
0000
0100
0000
,
0001
1000
0010
0001
,
0100
0010
0100
0010
0000
0000
0100
0000
,
1000
0001
0010
0000
1000
0001
0100
0000
,
1001
0000
0010
0000
1000
0001
0100
0000
,
1001
0000
0100
0000
1000
0100
0000
0001
,
0000
0010
0001
0100
0010
0000
1000
0000
,
0100
1000
0010
0000
0100
0001
0010
0000
,
0100
0001
1000
0100
,
1000
0000
0001
0000
1000
0001
0000
1000
,
0000
0001
0000
1000
0010
0000
0100
0000
,
1000
0001
0100
0000
1000
0000
0100
0001
,
0010
0100
0010
0100
,
1000
0000
0001
0000
0100
0010
0000
1000
,
0000
0001
0000
1000
0010
0000
0100
0000
,
1000
0001
0010
0000
0001
0000
0001
1000
,
0100
0010
0100
0001
,
1000
0000
0001
0000
0010
0001
0000
1000
,
0000
0001
0000
0010
0001
0000
0100
0000
,
0010
0000
0000
0100
0000
0000
0010
0000
,
1000
0000
0100
0000
0001
0010
0001
0010
,
0100
0000
1000
0100
0010
0000
0001
0000
,
1000
0000
0001
0010
0100
0000
0001
0000
,
1000
0100
1000
0010
,
0100
0001
0010
0100
,
0002
1003
0100
1000
,
0010
1000
0100
1000
,
0010
0000
0100
0001
0010
0000
0100
0000
,
1000
0000
1000
0010
0000
0010
0001
0100
,
0001
0000
0010
0001
0100
0000
0010
0000
,
1000
0000
0100
1000
0010
0000
0100
0000
,
1000
0100
0001
0010
,
0001
0100
0001
0010
,
2000
3001
0010
0100
,
0001
1000
0001
1000
,
0010
1000
0100
1000
,
0001
0000
0001
0010
0000
0010
0100
1000
,
0100
0000
1000
0100
0000
0100
0010
0000
,
0010
0001
0010
0100
,
0001
0000
0001
0010
0000
0010
0100
0000
,
1000
0100
1000
0100
,
0001
0010
0001
0000
0100
0000
1000
0010
,
1000
0100
1000
0001
,
0010
0000
0100
0010
1000
0000
0100
0000
,
1000
0000
1000
0100
0000
0100
0001
0000
,
0100
0000
0100
0010
0000
0010
0100
0000
,
0010
0100
1000
0010
,
0001
0000
0001
1000
0000
1000
0001
0000
,
1000
0000
0100
0000
0010
1000
0100
0010
,
0100
1000
0100
0000
0010
0001
0010
0100
,
0010
0000
1000
0001
1000
0000
0001
0000
,
0110
0000
0001
0100
0000
0100
1000
0000
,
1000
0000
1000
0100
0000
0100
0010
0100
,
0010
0000
0010
0001
0000
0001
0100
0000
,
0100
0000
0100
0010
0000
0010
1000
0100
,
1000
0000
0010
1000
0000
1000
0100
0000
,
0100
0000
0010
0001
0000
0001
0010
0100
,
0010
0000
0010
0001
0000
0001
0010
0000
,
0100
0000
0000
0000
0001
0000
0000
0000
1000
0000
0000
0010
0000
0000
1000
0000
,
1001
0000
0000
0000
;

//---------------dance-single - Copied from Copied f----------------
#NOTES:
     dance-single:
     Copied from Copied f:
     Challenge:
     8:
     0.631,0.623,0.437,0.385,0.004:
0000
0000
0000
0000
,
0000
0000
0000
0000
,
0000
0000
0000
0000
,
0000
0000
0000
0000
0000
0000
0001
0010
,
0011
0000
0010
0100
0000
0100
1000
0000
,
1001
0000
0100
0010
0000
0010
0100
0001
,
0100
0000
0100
0010
0000
0010
1000
0000
,
0110
0000
1000
0100
0000
0100
0010
0001
,
0010
0000
0010
0100
1000
0000
1000
0100
,
0010
1000
0001
0200
0000
0301
0010
0000
,
0010
0100
1000
0100
0010
1000
0100
0001
,
0100
0000
0001
0000
0100
0010
1000
0100
,
1000
0000
1000
0100
0010
0000
0010
0100
,
1000
0001
0100
0020
0000
1030
0100
0000
,
0010
0100
1000
0100
0010
0002
0010
0003
,
0100
1000
1010
0000
0100
0001
0011
0000
,
1002
0000
0010
0010
0020
0000
0033
0000
,
0100
0010
0100
0002
0000
0013
0100
0000
,
2001
0000
0100
0100
0200
0000
3300
0000
,
0001
1000
0001
1000
0010
1000
0010
0000
,
2100
0000
0001
0001
0002
0000
3003
0000
,
0010
0001
0010
0200
0000
1300
0010
0000
,
1001
0101
1100
1010
,
1000
0100
0010
0002
0000
0013
0100
1000
,
0100
0010
0100
0000
0010
0001
0010
0100
,
1000
0000
1000
0001
1000
0000
0110
0000
,
1002
0000
0100
0000
0010
0010
0003
2001
,
0000
0100
0000
0010
0010
0000
3100
0000
,
0010
0100
0001
0000
0001
1000
0100
1000
,
0010
0000
0100
0010
0001
0000
1100
0000
,
0100
0000
0120
0000
1000
1000
0030
0110
,
0000
0010
1000
0010
0000
0001
0010
0100
,
1000
0100
1000
0000
0100
0010
0001
0100
,
0001
0010
0100
0000
0000
0001
1000
0001
,
0000
2010
0001
3010
,
0102
0100
0000
0100
0000
0010
0013
0000
,
0100
1000
0100
0000
0001
1000
0001
0010
,
0001
0000
0010
0100
0010
0000
0100
0000
,
2100
0000
0001
0000
0010
0010
3000
1002
,
0000
0010
0000
0010
0000
0003
0011
0000
,
1001
0000
0000
1100
0000
0000
1001
0000
,
0000
0011
0000
0000
1000
0100
0010
0001
,
0020
0000
0130
0010
0200
0000
1300
0100
,
2000
0000
3001
0010
0001
0000
0110
0000
,
0001
0100
0010
1000
,
0100
0010
1001
0011
,
0220
0330
1000
0100
,
0010
0000
0001
0000
0010
0000
0001
0010
,
0100
0000
1000
0001
1000
0000
0100
1000
,
0010
1000
0100
0020
0000
0031
0010
0100
,
2000
0000
3100
0010
0200
0000
0301
0010
,
0002
0000
0013
0100
0010
0000
1100
0000
,
0010
0001
0010
0100
,
0001
1000
1010
0110
,
0202
0303
0001
1000
,
0010
0001
0001
0000
0100
1000
1000
0000
,
0020
0100
0001
0100
,
0130
1000
0001
0200
0000
0310
0100
0010
,
1000
0001
0010
0100
1000
0010
1000
0000
,
2010
0000
3100
0010
0000
1000
0100
0010
,
0001
1000
0010
0100
0001
1000
0100
0000
,
0102
0000
0013
0100
0000
0100
1000
0100
,
0010
0001
0020
0000
0130
0010
0100
1000
,
0200
0000
0310
0001
1000
0000
0011
0000
,
1001
0000
0100
0010
0220
0000
0330
0000
,
1000
0001
1000
0002
0000
1003
0001
1000
,
0100
0010
0001
0100
0010
0100
0001
0000
,
0012
0000
0013
0001
0000
0001
0010
0001
,
0100
0010
0100
0001
0100
0010
0100
0000
,
2100
0000
3100
1000
0000
1000
0100
0010
,
0100
0010
0002
0000
0013
0100
1000
0100
,
0020
0000
1030
0001
0100
0000
0010
0000
,
1001
0000
0001
1000
0000
1000
0010
0000
,
1100
0000
0100
0010
0000
0010
0001
1000
,
0001
0000
0001
0100
0000
0100
0010
0000
,
1100
0000
0100
0001
0000
0001
1000
0010
,
0100
0000
0100
1000
0000
1000
0100
0000
,
0110
0000
0010
0001
0000
0001
1000
0100
,
1000
0000
1000
0010
0000
0010
0100
0000
,
1001
0000
0000
0000
0100
0000
0000
0000
0011
0000
0000
1100
0000
0000
1001
0000
,
2002
0000
0000
0000
0000
0000
0000
3003
;
