#TITLE:In The Ruins;
#SUBTITLE:;
#ARTIST:good-cool feat. CHiCO;
#TITLETRANSLIT:;
#SUBTITLETRANSLIT:;
#ARTISTTRANSLIT:;
#GENRE:;
#CREDIT:;
#MENUCOLOR:;
#NEWMETERSYSTEM:NO;
#BANNER:In The Ruins-bn.png;
#BACKGROUND:In The Ruins-bg.png;
#LYRICSPATH:;
#CDTITLE:MixMania II CD Title.png;
#MUSIC:In The Ruins.mp3;
#OFFSET:0.120;
#SAMPLESTART:47.540;
#SAMPLELENGTH:12.000;
#SELECTABLE:YES;
#LISTSORT:;
#BPMS:0.000=156.000;
#STOPS:;
#BGCHANGES:;
#ATTACKS:;

//---------------dance-single - ----------------
#NOTES:
     dance-single:
     :
     Easy:
     3:
     0.257,0.341,0.052,0.175,0.000:
0000
0000
0000
0000
,
0000
0000
0000
0000
,
0020
0000
1000
0000
,
0100
0000
1030
0000
,
0200
0000
0010
0000
,
0301
0000
0000
1001
,
0010
0001
0200
2300
,
3100
0000
1000
0000
,
0001
1000
0010
0100
,
0001
0000
1000
0000
,
0200
0000
1000
1300
,
0010
1000
0100
0000
,
0001
1000
0002
0003
,
0100
0001
0010
0000
,
1000
0000
0200
0300
,
0010
0000
0100
1000
,
0100
0000
0001
0000
,
0010
0000
1000
0000
,
0100
0100
1000
0010
,
0100
0000
0001
0000
,
0010
0000
0100
0000
,
0001
0000
1000
0000
,
0100
1000
0010
0100
,
0001
0000
1000
0000
,
0001
0000
0010
0000
,
1000
1000
0100
0100
,
0010
0001
0010
0001
,
0000
0010
0100
0000
,
0001
0000
1000
0000
,
0100
1000
0010
0000
,
0100
0000
1001
1001
,
0010
0100
0010
0000
,
1000
0001
1000
0000
,
0010
0001
0010
0000
,
0100
1000
0100
0000
,
1000
0001
1000
0000
,
0010
0100
0010
0000
,
0001
0100
1000
0000
,
0020
0000
2000
3030
,
0100
0100
1000
0001
,
0020
0000
0000
0030
,
0001
0000
0000
0001
,
1000
0000
0000
1000
,
0010
0000
0001
1000
,
0001
0000
0000
0010
,
0010
0000
0000
0010
,
0100
0000
0000
1000
,
0001
0000
0010
0100
,
2000
3002
0203
0300
,
0100
1000
0001
0100
,
0010
0000
0001
0000
,
0010
0000
0100
0000
,
1000
0000
0010
0001
,
0100
0010
1000
0001
,
0100
0000
0010
0000
,
1000
0000
0001
0000
,
1000
0100
0010
0001
,
0010
1000
0001
0000
,
1000
0000
0010
0000
,
0001
0100
0010
0000
,
0100
0000
1000
0000
,
0100
0010
0001
0000
,
1000
0000
0001
0000
,
0100
0001
1000
0000
,
0200
0000
0310
0000
,
0020
0000
1030
0000
,
2000
0000
3001
0000
,
0110
1000
1000
0000
,
0110
0001
0001
0000
,
2000
0000
0000
3002
0000
0000
0003
0000
,
2002
0000
0000
0000
,
3003
0000
0000
0000
;

//---------------dance-single - Copied from----------------
#NOTES:
     dance-single:
     Copied from:
     Beginner:
     1:
     0.164,0.217,0.044,0.175,0.000: // measure 1
0000
0000
0000
0000
,  // measure 2
0000
0000
0000
0000
,  // measure 3
0001
0000
0100
0000
,  // measure 4
1000
0000
0000
0000
,  // measure 5
1000
0000
0100
0000
,  // measure 6
0002
0000
0000
0003
,  // measure 7
0001
0000
0000
0000
,  // measure 8
0100
0000
1000
0000
,  // measure 9
0200
0000
0300
0000
,  // measure 10
0010
0000
0001
0000
,  // measure 11
0010
0000
0000
0100
,  // measure 12
0100
0000
1000
0000
,  // measure 13
0002
0000
0003
0000
,  // measure 14
0010
0000
0100
0000
,  // measure 15
2002
0000
0000
3003
0000
0000
0000
0000
,  // measure 16
0010
0000
0100
0000
,  // measure 17
0010
0000
1000
0000
,  // measure 18
1000
0000
0001
0000
,  // measure 19
0002
0000
0003
0000
,  // measure 20
1000
0000
0100
0000
,  // measure 21
0010
0000
0100
0000
,  // measure 22
0001
0000
0100
0000
,  // measure 23
2000
0000
3000
0000
,  // measure 24
0110
0000
0000
0000
,  // measure 25
0001
0000
0000
0000
,  // measure 26
1000
1000
0000
0000
,  // measure 27
0010
0010
0010
0010
,  // measure 28
0000
0000
0001
0000
,  // measure 29
0010
0000
0100
0000
,  // measure 30
1000
0000
0100
0000
,  // measure 31
0002
0000
0003
0000
,  // measure 32
0010
0000
0100
0000
,  // measure 33
0000
1000
1000
0000
,  // measure 34
0100
0000
1000
0000
,  // measure 35
0000
0001
0001
0000
,  // measure 36
0010
0000
0001
0000
,  // measure 37
0000
0100
0100
0000
,  // measure 38
0001
0000
1000
0000
,  // measure 39
0020
0000
0030
0000
,  // measure 40
2000
0000
3000
0000
,  // measure 41
0002
0000
0003
0000
,  // measure 42
0100
0000
0000
1000
,  // measure 43
1000
0000
0000
0010
,  // measure 44
0010
0000
0200
0000
,  // measure 45
0000
0000
0300
0000
,  // measure 46
1001
0000
0000
0000
,  // measure 47
0000
0000
0000
0000
,  // measure 48
1001
0000
0000
0000
,  // measure 49
2002
0000
3003
0000
,  // measure 50
0010
0000
0000
0000
,  // measure 51
0100
0000
1000
0000
,  // measure 52
0100
0000
0000
0000
,  // measure 53
0001
0000
0001
0000
,  // measure 54
0100
0000
0000
0000
,  // measure 55
0001
0000
1000
0000
,  // measure 56
0010
0000
0000
0000
,  // measure 57
1000
0000
0001
0000
,  // measure 58
0010
0000
0000
0000
,  // measure 59
1000
0000
0010
0000
,  // measure 60
0001
0000
0001
0000
,  // measure 61
0200
0000
0300
0000
,  // measure 62
0010
0000
1000
0000
,  // measure 63
0100
0000
0000
0000
,  // measure 64
0010
0000
0100
0000
,  // measure 65
2000
0000
0000
3000
0000
0000
0000
0000
,  // measure 66
0002
0000
0000
0003
0000
0000
0000
0000
,  // measure 67
2000
0000
0000
3000
0000
0000
0000
0000
,  // measure 68
0100
0000
0100
0000
,  // measure 69
0001
0000
0000
0010
,  // measure 70
0020
0000
0030
0000
,  // measure 71
0200
0000
0000
0000
,  // measure 72
0300
0000
0000
0000
;

//---------------dance-single - Copied from----------------
#NOTES:
     dance-single:
     Copied from:
     Hard:
     7:
     0.463,0.465,0.079,0.140,0.000:
0000
0000
0000
0000
,
0000
0000
0000
0000
,
1001
0000
0010
0000
0001
0000
0100
0001
,
0010
0100
1000
0010
,
1000
0000
0100
1000
0010
0000
0100
0000
,
2002
0000
3003
0010
,
0100
1000
0100
1000
0200
0000
0320
0000
,
0031
0100
0001
0000
0010
0000
0100
0000
,
2000
0000
3002
0000
0013
0001
0100
0000
,
1000
0000
0100
0000
1000
0000
0010
0001
,
0200
0000
0000
0000
0301
0001
0010
0000
,
1000
0100
0001
0000
0100
0000
1000
0010
,
0100
0000
0001
0000
0010
0001
0010
0100
,
1000
0000
0100
0000
1000
0000
0010
1000
,
0100
0000
0001
0010
0000
0020
0000
0030
,
0001
1000
0100
1000
,
0100
0000
0010
0000
0001
0010
1000
0100
,
1000
0000
0100
0000
1000
0000
1000
0100
,
0010
0001
0010
0000
1000
0100
0001
0000
,
0100
0000
1000
0000
0001
0000
0100
0001
,
0010
0000
0001
0000
0100
0000
0001
0010
,
1000
0000
0100
1000
0000
0000
1000
0100
,
1000
0010
1000
0100
0001
0000
0100
1000
,
0010
1000
0100
0001
,
0100
0010
0001
0010
,
1000
0010
0001
0000
0001
0100
1000
0000
,
1000
0100
0001
0100
1000
0100
0001
0000
,
0010
0000
0001
0000
0100
0001
0000
0010
,
0000
0001
0100
0000
1000
0000
0010
0100
,
0000
1000
0100
0000
0010
0001
0000
0100
,
0001
0010
0100
0001
0000
1001
0000
0000
,
0101
0000
1000
0000
0010
0100
0001
0000
,
1000
0000
0010
0001
0010
0100
0000
0001
,
0000
1000
0001
0000
0100
0010
0000
0001
,
0000
1000
0000
0100
0000
0110
0000
0000
,
1100
0000
0001
0000
0001
0010
0100
0000
,
0001
0000
0010
1000
0001
1000
0000
0010
,
0000
0000
0100
0000
0001
1000
0000
0100
,
0010
1000
0001
0010
0000
0100
0000
0000
,
0001
0001
1000
1000
0001
0000
1000
0100
,
0010
0000
0010
0100
0010
0000
0100
0000
,
1000
0000
0100
0001
0010
0000
0001
0000
,
0100
0000
1000
0010
1000
0000
0100
0000
,
1000
0000
0100
0010
0001
0000
0010
0100
,
1000
0000
0100
0000
1000
0000
0010
0100
,
0001
0000
0100
0010
1000
0000
0100
0000
,
1000
0000
0100
0010
0001
0000
0100
0000
,
0001
0000
1000
0001
0100
0000
0001
0000
,
1000
1000
0001
0001
1000
0001
1000
0000
,
0001
0000
0100
0010
1000
0000
0100
0000
,
0010
0000
0100
0010
0001
0000
0100
0000
,
0001
1000
0010
1000
,
0010
0001
1000
0100
1000
0010
0100
0000
,
0001
0000
1000
0100
0010
0000
0001
0000
,
1000
0000
0001
0010
0100
0000
0001
0000
,
1000
0100
0010
0001
,
1000
0010
0100
0001
0010
1000
0100
0000
,
1000
0000
0100
0000
1000
0000
0100
0010
,
0001
0000
0100
0000
0010
0000
0001
0100
,
0010
0000
1000
0000
0001
0000
0100
0010
,
0100
0000
0001
0000
1000
0100
1000
0000
,
0010
1000
0100
0000
0001
0000
0100
0000
,
0001
0010
0100
1000
,
0001
0100
0010
0000
1000
0000
0001
0000
,
1000
0100
1000
0010
0000
0020
0000
0030
,
0001
0010
0001
0100
0000
0200
0000
0300
,
0010
0100
0010
1001
0000
2002
0000
3003
,
0010
0000
1000
0000
0010
0000
0001
0010
,
0100
0001
0100
0010
,
2000
0000
3010
0002
0000
0103
0010
0000
,
0022
0000
0000
0000
,
0033
0000
0000
0000
;

//---------------dance-single - Copied from----------------
#NOTES:
     dance-single:
     Copied from:
     Medium:
     5:
     0.394,0.434,0.096,0.358,0.000:
0000
0000
0000
0000
,
0000
0000
0000
0000
,
1001
0100
1000
0010
,
0100
0001
0010
0001
,
1000
0100
1000
0010
,
0220
0000
0000
0330
,
0001
1000
0100
0000
2000
0000
3002
0000
,
0103
0001
0010
0000
0100
0000
1000
0000
,
0002
2003
3200
0320
,
0130
0000
0010
0001
0100
0000
0001
0000
,
2000
0000
0100
3010
,
0100
0001
0010
0000
0100
0000
0001
0000
,
0020
2030
3200
0302
,
0013
0000
0001
0100
1000
0000
0100
0000
,
1000
0000
0010
1000
0000
0001
0000
0000
,
0100
0010
0001
1000
,
0100
0000
0001
0000
0010
1000
0100
0000
,
1000
0100
0010
0001
,
0020
0000
1000
0030
,
0100
1000
0001
0010
,
0100
1000
0001
1000
,
0100
0010
1000
0100
,
2002
0000
0000
3003
,
0010
1000
0000
0100
0000
1000
0000
0100
,
0000
0010
0000
0000
0001
0000
0100
0000
,
0010
0001
0001
0010
,
0010
0000
1000
0000
0100
1000
0010
0000
,
0100
0001
1000
0100
,
0010
1000
0001
0100
,
0010
1000
0001
0100
,
0010
0001
0000
0011
0000
1100
0000
0000
,
0100
0000
1000
0000
0010
0100
0001
0000
,
0100
0010
1000
0000
,
0100
0000
1000
0000
0010
0100
0000
0010
,
0000
0001
0000
0010
0000
2000
0000
3000
,
0010
0000
0100
0000
1000
0001
0010
0000
,
0100
0001
0010
1000
,
0100
1000
0010
0100
,
0010
1000
0000
1010
0000
0101
0000
0000
,
0010
0000
1000
0000
0100
0001
0010
0000
,
0200
0300
0020
0030
,
0001
0000
0000
0100
0000
0000
1000
0000
,
0010
0000
0000
0100
0000
0000
0001
0000
,
0010
0000
0000
0100
0000
0000
0001
0000
,
2000
0000
0000
0100
0000
0000
0010
0000
,
3010
0000
0000
1000
0000
0000
0010
0000
,
0100
0000
0000
0001
0000
0000
1000
0000
,
0100
0000
0000
0010
0000
0000
0100
0000
,
0002
0000
0020
0033
,
0011
0000
0100
1000
0010
0000
0100
0000
,
1000
0100
0001
0010
,
0100
1000
0100
0010
,
0200
0000
2300
3200
,
1300
0000
0100
0010
0001
0000
0100
0000
,
0001
0010
0100
1000
,
0001
0010
0100
0010
,
0002
0000
0023
0032
,
0103
0010
1000
0000
0100
0000
1000
0000
,
0002
0203
0302
0023
,
0130
0010
1000
0000
0100
0000
0010
0000
,
0020
0000
1000
0130
,
0010
0001
0100
0000
0010
0000
1000
0000
,
0200
2300
3200
0320
,
0031
0100
0001
0000
0010
0000
0100
0000
,
0001
0000
1000
0010
0000
0001
0000
0000
,
0100
0000
0001
0010
0000
1000
0000
0000
,
0100
0000
1000
0010
0000
0100
0000
0000
,
1000
0001
0100
0010
,
0100
1000
0001
0100
,
0012
0000
0003
2010
0000
3000
0100
0000
,
2002
0000
0000
0000
,
3003
0000
0000
0000
;

//---------------dance-single - Copied from Copied f----------------
#NOTES:
     dance-single:
     Copied from Copied f:
     Challenge:
     9:
     0.640,0.620,0.245,0.341,0.100:
0000
0000
0000
0000
,
0000
0000
0000
0000
,
1001
0010
0001
0010
0100
0001
1000
0100
,
0010
1000
0100
1000
0010
0100
0001
1000
,
0100
0001
0010
0100
0010
0001
0010
1000
,
0202
0000
0300
1003
,
0100
0010
0100
0010
2000
0100
0200
3000
,
1300
0000
0100
0000
0010
0000
0001
0010
0000
0000
0100
0000
0100
0000
1000
0000
,
0100
0000
0000
0010
0000
0000
0001
0000
0000
0010
0000
0000
0100
0000
1000
0000
,
0010
0000
0100
0000
1000
0000
0100
0001
0000
0000
0100
0000
0010
0000
0100
0000
,
2001
0000
3010
0000
1000
0100
0020
0000
,
0130
0000
1000
0000
0100
0000
0001
0010
0000
0000
0001
0000
1000
0000
0001
0000
,
0100
0000
0000
1000
0000
0000
0100
0000
0000
0010
0000
0000
0001
0000
0010
0000
,
0001
0000
0010
0000
0100
0000
1000
0010
0000
0000
0100
0000
0001
0000
0100
0000
,
0010
1000
0100
1001
0000
2002
0000
3003
,
0010
0100
1000
0100
0010
1000
0000
0100
,
0001
0010
0001
0000
0100
0000
0010
0000
,
1000
0001
0100
0010
0000
0000
0001
0010
,
0100
1000
0100
0010
0001
0010
0100
1000
,
0100
1000
0100
0000
0010
0001
0000
0100
,
0000
0001
0010
0000
1000
0001
1000
0000
,
0100
0010
1000
0001
0000
0000
0100
0010
,
0001
0010
0100
1000
0100
0010
0001
0010
,
0100
1000
0001
0100
0000
0010
1000
0100
,
0000
0010
0001
0100
0000
0001
1000
0000
,
0010
0001
0011
0000
0100
1000
1100
0000
,
0001
1000
1001
0001
1001
0010
1001
0000
,
0100
0000
1000
0100
0010
0002
0000
2003
,
0000
3100
0010
0000
0020
0000
1030
0000
,
0100
1000
0001
0100
0010
0001
0000
0100
,
0001
0010
0100
1001
0000
1001
0000
0000
,
0100
1000
0100
0010
0001
0010
0101
0000
,
0001
0010
0001
1000
0100
1000
0000
0010
,
0000
1000
0100
1000
0010
0001
0100
0002
,
0000
2003
0000
3020
0000
0230
0000
0300
,
1000
0010
0100
1000
0001
0010
1100
0000
,
0100
1000
0100
0010
0001
0100
0000
0001
,
0000
1000
0100
1000
0001
0010
0001
0100
,
1000
0010
1000
0100
0000
1001
0000
0000
,
0100
0000
0010
0000
0100
0000
0010
0000
0001
0010
0000
0100
1000
0000
0100
0000
,
1000
0100
0010
0001
0020
0001
0002
0030
,
1003
0100
0100
1000
0100
0100
1000
0000
,
0100
1000
1000
0100
1000
1000
0100
0000
,
0010
0001
0001
0010
0001
0001
0010
0000
,
0001
0010
0010
0001
0010
0010
0001
0000
,
0100
0010
0010
0100
0010
0010
0100
0000
,
0010
0100
0100
0010
0100
0100
0010
0000
,
1000
0001
0001
1000
0001
0001
1000
0000
,
0110
0000
0000
0011
0000
0000
0101
0000
1001
0000
0000
0000
0100
0000
0000
0000
,
1000
0100
0010
0001
0010
0100
1000
0100
,
1000
0100
0010
0001
0010
0100
1000
0100
,
2000
3200
0320
0032
,
2003
3002
0203
0320
,
0031
0010
0100
1000
0100
0010
0001
0010
,
0001
0010
0100
1000
0100
0010
0001
0010
,
0002
0023
0230
2300
,
3002
2003
3020
0230
,
0310
0000
1000
0000
0100
0000
0010
0100
0000
0000
1000
0000
0100
0000
0001
0000
,
0010
0000
0000
0001
0000
0000
0010
0000
0000
1000
0000
0000
0100
0000
0010
0000
,
0100
0000
0001
0000
1000
0000
0100
0010
0000
0000
0100
0000
0010
0000
0001
0000
,
0020
0000
0130
1000
0001
1000
0100
0000
,
0011
0000
0100
0000
0001
0000
0100
1000
0000
0000
0100
0000
0010
0000
0001
0000
,
0010
0000
0000
0100
0000
0000
0010
0000
0000
0001
0000
0000
0010
0000
0100
0000
,
1000
0000
0010
0000
0100
0000
0010
0001
0000
0000
0001
0000
1000
0000
0010
0000
,
1000
0001
1000
1001
0000
1001
0000
0010
,
0100
1000
0100
1100
0000
1100
0000
0100
,
0010
0001
0010
0011
0000
0022
0000
0033
,
1001
0100
1000
0100
0010
1000
0001
0100
,
0010
0001
0100
0010
1000
0100
0020
0000
,
1030
0100
0000
0010
0001
0000
0001
0100
0000
0100
1000
0000
0010
0000
0100
0000
,
2002
0000
0000
0000
,
3003
0000
0000
0000
;
