#TITLE:走り続けて;
#SUBTITLE:;
#ARTIST:秋桜;
#TITLETRANSLIT:Hashiri Tsudzukeru;
#SUBTITLETRANSLIT:;
#ARTISTTRANSLIT:Fall Sakura;
#GENRE:;
#CREDIT:;
#MENUCOLOR:;
#NEWMETERSYSTEM:NO;
#BANNER:Hashiri Tsudzukeru-bn.png;
#BACKGROUND:Hashiri Tsudzukeru-bg.png;
#LYRICSPATH:;
#CDTITLE:MixMania II CD Title.png;
#MUSIC:Hashiri Tsudzukeru.mp3;
#OFFSET:-0.800;
#SAMPLESTART:54.780;
#SAMPLELENGTH:12.000;
#SELECTABLE:YES;
#LISTSORT:;
#BPMS:0.000=140.000;
#STOPS:;
#BGCHANGES:;
#ATTACKS:;

//---------------dance-single - ----------------
#NOTES:
     dance-single:
     :
     Easy:
     4:
     0.336,0.367,0.133,0.354,0.004:
0000
0000
0000
0000
,
0000
0000
0000
0000
,
0000
0000
0000
0000
,
0000
0000
0000
0000
,
1001
0100
0100
0010
,
0001
0010
0100
1000
,
0200
0300
2000
3000
,
0100
0010
0001
0010
,
0001
0000
1000
0000
,
0100
1000
0010
0100
,
0011
0000
1100
0000
,
0010
1000
0100
0010
,
0200
0000
0000
0000
,
0320
0000
0000
0100
,
0230
0000
2300
0000
,
3200
0320
0032
0023
,
0130
0000
0001
0000
,
0010
0001
0100
0000
,
1010
0000
0101
0000
,
0010
0001
1000
0100
,
2000
3200
0320
0230
,
0320
0000
0001
0001
,
0032
0000
0203
0000
,
0302
0203
0320
2030
,
3100
1000
0100
0010
,
0002
0100
0103
0010
,
1000
0100
1000
0010
,
2000
0100
0100
3100
,
1000
0001
0100
0010
,
1000
0100
0010
0001
,
1001
0000
0010
0010
,
1001
0000
0100
1000
,
1001
0010
0001
0100
,
0001
1000
0001
0010
,
0200
0000
0320
0000
,
0130
0001
0010
0100
,
2200
3300
0010
0100
,
0001
0100
0001
0010
,
0100
1000
0100
0010
,
0001
1000
1100
0011
,
1001
0100
0010
1000
,
0001
0100
0010
1000
,
0200
0000
2300
0000
,
3100
0010
0001
0010
,
0022
0033
0001
1000
,
0001
0100
0010
1000
,
0010
0100
0001
1000
,
0200
0000
0010
0010
,
0310
0100
1000
0100
,
0010
0001
1000
0001
,
0010
0001
1000
0010
,
0002
2003
3200
0320
,
0031
1000
0100
0010
,
0001
1000
0001
0010
,
0100
1000
0010
0100
,
0001
1000
1001
1001
,
0010
0100
0010
0100
,
1000
0100
1000
0100
,
0010
0001
0010
0001
,
0200
0302
2003
3020
,
0130
0010
0100
0010
,
0010
0001
1000
0100
,
1000
0001
1000
0001
,
0010
0000
0000
0000
0100
0000
0000
0000
0010
0000
0000
0010
0000
0000
0010
0000
;

//---------------dance-single - Copied from----------------
#NOTES:
     dance-single:
     Copied from:
     Beginner:
     1:
     0.118,0.198,0.097,0.142,0.000:
0000
0000
0000
0000
,
0000
0000
0000
0000
,
0000
0000
0000
0000
,
0000
0000
0000
0000
,
1000
0000
0000
0000
,
1000
0000
0000
0000
,
0001
0000
0000
0000
,
0001
0000
0000
0000
,
1001
0000
0000
0000
,
0010
0000
0000
0000
,
1001
0000
0000
0000
,
0100
0000
0000
0000
,
0020
0000
0030
0000
,
0020
0000
0030
0000
,
1000
0000
0000
0000
,
1000
0000
0000
0000
,
0001
0000
0000
0000
,
0001
0000
0000
0000
,
0100
0000
0000
0000
,
0100
0000
0000
0000
,
1000
0000
0000
0000
,
0001
0000
0000
0000
,
0010
0000
0000
0000
,
0100
0000
0000
0000
,
2000
3000
0000
0000
,
0002
0003
0000
0000
,
0020
0030
0000
0000
,
0002
0003
0000
0000
,
2000
3000
0000
0000
,
0200
0300
0000
0000
,
1001
0000
0000
0000
,
1001
0000
0000
0000
,
1001
0000
0000
0000
,
0110
0000
0000
0000
,
2002
0000
3003
0000
,
1000
0000
1000
0000
,
2000
0000
3000
0000
,
0002
0000
0003
0000
,
2000
0000
3000
0000
,
0001
0000
0001
0000
,
0001
0000
0000
0000
,
0100
0000
0000
0000
,
0010
0000
0000
0000
,
1000
0000
1000
0000
,
1000
0000
0000
0000
,
0001
0000
0000
0000
,
1001
0000
0000
0000
,
0110
0000
0000
0000
,
1001
0000
0000
0000
,
0001
0000
0000
0000
,
1000
0000
0000
0000
,
0100
0000
0100
0000
,
0100
0000
0000
0000
,
0010
0000
0000
0000
,
0001
0000
0000
0000
,
2002
0000
3003
0000
,
0001
0000
0000
0000
,
0010
0000
0000
0000
,
0100
0000
0000
0000
,
1000
0000
1000
0000
,
1000
0000
0000
0000
,
0010
0000
0000
0000
,
0100
0000
0000
0000
,
0010
0000
0000
0000
0020
0000
0000
0030
;

//---------------dance-single - Copied from----------------
#NOTES:
     dance-single:
     Copied from:
     Medium:
     5:
     0.404,0.452,0.239,0.380,0.027:
0000
0000
0000
0000
,
0000
0000
0000
0000
,
0000
0000
0000
0000
,
0000
0000
0000
0000
0000
0000
0000
1000
,
0100
0010
0001
0010
,
0100
1000
0001
0010
,
0100
1000
0100
0010
,
0001
1000
0001
0100
,
1001
0100
1001
0010
,
0002
0203
0320
1030
,
1100
0010
1100
0010
,
0002
2003
3200
0310
,
0001
0100
0010
0110
,
1000
0100
0010
0011
,
0001
0000
1000
0000
0100
0000
0010
0001
,
0100
0010
1000
1100
,
1010
0100
1010
0100
,
1000
0000
0001
0010
0100
0000
0001
0000
,
0101
0010
0101
0010
,
0100
0000
1000
0010
0100
0000
0001
0000
,
1000
0001
0200
0320
,
0230
0310
1000
1100
,
0011
0000
0100
0000
0001
0000
0010
0001
,
0100
0000
0010
0000
1000
0000
0100
1000
,
0002
2003
3020
0230
,
0320
0100
0100
0100
,
0230
0302
2003
3200
,
2300
0010
0001
3010
,
0020
0230
0302
0023
,
0032
0100
0100
0100
,
0023
0000
0000
0000
,
0002
0033
0011
0011
,
0001
0000
0000
0000
0100
0000
0000
0010
0000
0000
0000
0000
0100
0000
0000
0000
,
0001
0000
0000
0000
1000
0000
0000
0100
0000
0000
0000
0000
1000
0000
0000
0000
,
0010
0000
0000
0010
0100
0000
0001
0000
,
1000
0100
0010
0001
,
1002
0010
0010
0013
,
2001
3100
1002
0013
,
2001
0010
0100
3010
,
1000
0000
0100
0000
0010
0001
0100
0001
,
0010
0000
0000
0000
0010
0000
0000
0100
0000
0000
0000
0000
1000
0000
0000
0000
,
0100
0000
0000
0000
1000
0000
0000
0100
0000
0000
0000
0000
0001
0000
0000
0000
,
0100
0001
0010
0100
,
0001
0100
0010
1000
,
1200
1000
1000
1300
,
0021
0000
0000
0000
0001
0030
0000
0000
0201
0000
0000
0000
0001
0300
0000
0000
,
1020
1000
0100
0130
,
1001
0000
0000
0000
0100
0000
0000
0000
0100
0000
0000
0100
0000
0000
0100
0000
,
0100
0010
0100
0010
,
0100
0001
0010
0100
,
1000
0100
1000
0010
,
0002
0203
0320
2030
,
3001
0100
1000
0100
,
0011
0100
1100
0010
,
1001
0100
0001
0100
,
1000
0000
0001
0000
0100
0010
1000
0100
,
0010
0001
0010
0100
,
1000
0001
0010
0001
,
0100
1000
0001
0100
,
0002
2003
3020
0230
,
0301
0000
1000
0000
0100
0000
0010
0001
,
0010
0000
0100
0001
0100
0000
0020
0000
,
1030
0100
1000
0100
,
0010
0000
0000
0000
0001
0000
0000
0000
0001
0000
0000
1000
0000
0000
0001
0000
;

//---------------dance-single - Copied from Copied f----------------
#NOTES:
     dance-single:
     Copied from Copied f:
     Hard:
     7:
     0.452,0.480,0.345,0.115,0.111:
0000
0000
0000
0000
,
0000
0000
0000
0000
,
0000
0000
0000
0000
,
0000
0000
0000
0000
0000
0000
0000
0000
0000
0000
0000
0000
0000
0000
0001
1000
,
0001
0100
0001
0010
,
0100
0000
1000
0000
0100
1000
0010
1000
,
0001
0000
0100
0001
0000
0001
0010
0000
,
0100
1000
0100
0010
,
2000
0000
0000
3000
0100
0000
1000
0000
0200
0000
0000
0300
0010
0000
0001
0000
,
0100
0000
0000
0001
0000
0000
0100
0000
1000
0000
0000
0000
0010
0000
0100
0000
,
0002
0000
0000
0003
0100
0000
0010
0000
2000
0000
0000
3000
0100
0000
1000
0000
,
0100
0000
0000
0010
0000
0000
0001
0000
0100
0000
0000
0000
0001
0000
1000
0000
,
0100
0000
0000
0100
0000
0000
0100
0000
0000
0000
0000
0000
1001
0000
0000
0000
,
0001
0000
0000
0001
0000
0000
0001
0000
0000
0000
0000
0000
1000
0000
0100
0000
,
0010
0000
0000
0100
0000
0000
0010
0000
0000
0000
0100
0000
0001
0000
1000
0000
,
0001
0000
0000
0010
0000
0000
0100
0000
0000
0000
0000
0000
1000
0000
0001
0000
,
2000
0000
0000
3000
0100
0000
0010
0000
0002
0000
0000
0003
0100
0000
0001
0000
,
0010
0000
0000
0100
0000
0000
0001
0000
0100
0000
0000
0000
0010
0000
1000
0000
,
0020
0000
0000
0030
1000
0000
0100
0000
2000
0000
0000
3000
0100
0000
0010
0000
,
0001
0000
0000
0100
0000
0000
0010
0000
1000
0000
0000
0000
0100
0000
1000
0000
,
0100
0000
0000
0010
0000
0000
0001
0000
0000
0000
0100
0000
0000
0001
0000
0000
,
0010
0000
1001
0110
,
0001
0000
0000
0100
0000
0000
0010
0000
0000
0000
1000
0000
0100
0000
1000
0000
,
0100
0000
0000
0010
0000
0000
0100
0000
0000
0000
1000
0000
0100
0000
0001
0000
,
0010
0001
0100
0001
0000
0010
1000
0100
,
1000
0000
1000
0100
0010
0001
0000
0000
,
0100
0001
1000
0001
0000
0100
0001
0010
,
0100
1000
0100
0010
,
0100
0010
0100
0010
0000
0010
0001
0010
,
0100
0000
1000
0001
1000
0100
0000
0100
,
0010
0000
0010
0000
1000
0000
0001
0010
,
0010
1001
0020
0032
,
1003
0000
0100
0000
1000
0000
0000
0100
0000
0000
0010
0000
0001
0000
0000
0000
,
0100
0000
0001
0000
0010
0000
0000
0010
0000
0000
0100
0000
0001
0000
0000
0000
,
0200
0000
0310
1000
0200
0000
1300
0000
,
1100
1010
0101
0011
,
0101
0001
1000
0100
,
1001
0100
1010
0100
,
1000
0000
0000
0100
0000
0000
0010
0000
0001
0000
0000
1000
0000
0000
0001
0000
,
0100
0000
0010
0000
0100
0010
0100
0000
,
1001
0000
0000
0000
0100
0000
0000
1000
0000
0000
0100
0000
0010
0000
0001
0000
,
0100
0000
0000
0000
0001
0000
0000
0010
0000
0000
0100
0000
0000
0000
0010
0000
,
0100
0000
0000
0001
0000
0000
0100
0000
0010
0000
0000
1000
0000
0000
0100
0000
,
1000
1010
1001
0101
,
0110
1000
0100
0010
,
0101
0010
1001
0100
,
0001
0000
0000
0100
0000
0000
0010
0000
1000
0000
0100
0000
1000
0000
0002
0000
,
0000
0000
0000
0000
0013
0000
0000
0000
1000
0000
0000
0001
0000
0000
1000
0000
,
0010
0000
0100
1000
0000
1000
0100
0000
,
0010
0000
0010
0001
0000
0001
0100
0000
,
0010
0100
1000
0100
,
1001
0011
1100
1001
,
0110
0100
0001
0010
,
1100
0100
1010
0100
,
1001
0001
1000
0100
,
1001
0000
0000
0100
0000
0000
1000
0000
0010
0000
0100
0000
0001
0000
1000
0000
,
0001
0000
0100
1000
0000
1000
0100
0000
,
0100
0000
0100
0010
0000
0010
0001
0000
,
0101
0001
0010
0100
,
1001
0011
1100
0011
,
1001
0100
0010
0100
,
1100
0010
0101
0010
,
1001
0100
0010
0001
,
0100
0000
0000
0000
0010
0000
0000
0000
1001
0000
0000
1001
0000
0000
1001
0000
;

//---------------dance-single - Copied from----------------
#NOTES:
     dance-single:
     Copied from:
     Challenge:
     8:
     0.533,0.508,0.460,0.097,0.195: // measure 1
0000
0000
0000
0000
,  // measure 2
0000
0000
0000
0000
,  // measure 3
0000
0000
0000
0000
,  // measure 4
0000
0000
0000
0000
0000
0000
0000
0000
0000
0000
0000
0000
0000
0000
0010
0100
,  // measure 5
0010
0000
0000
0010
1000
0000
0000
1000
0001
0000
0000
0001
0010
0000
0000
0010
,  // measure 6
0100
0000
0000
0100
1000
0000
0000
1000
0010
0000
0000
0010
0100
0000
0000
0100
,  // measure 7
0001
0000
0000
0001
0010
0000
0000
0010
0001
0000
0000
0001
1000
0000
0000
1000
,  // measure 8
0100
0000
0000
0100
0010
0000
0000
0010
0001
0000
0000
0001
0010
0000
0000
0000
,  // measure 9
1001
0000
1000
0100
1100
0000
0100
0010
,  // measure 10
0011
0000
0000
1000
0000
0000
0001
0000
0200
0000
0000
0000
0310
0000
0010
0000
,  // measure 11
0011
0000
0001
1000
1010
0000
1000
0001
,  // measure 12
1001
0000
0000
0010
0000
0000
0100
0000
2000
0000
0000
0000
3100
0000
0010
0000
,  // measure 13
0001
0000
0000
0001
0000
0000
1000
0000
0100
0000
0010
0000
0100
0000
0010
0000
,  // measure 14
0001
0000
0000
1000
0000
0000
0001
0000
0010
0000
0100
0000
1000
0000
0100
0000
,  // measure 15
0010
0000
0000
0010
0000
0000
0010
0000
0100
0000
0010
0000
0001
0000
0010
0000
,  // measure 16
0100
0000
0000
0100
0000
0000
0100
0000
1000
0000
0001
0000
1000
0000
0100
0000
,  // measure 17
0110
0000
1000
0001
0011
0000
0001
0010
,  // measure 18
0110
0000
0000
1000
0000
0000
0001
0000
0010
0000
0000
0000
0001
0000
0100
0000
,  // measure 19
0110
0000
1000
0100
0110
0000
0010
0001
,  // measure 20
0101
0000
0000
1000
0000
0000
0010
0000
0100
0000
0000
0000
0001
0000
1000
0000
,  // measure 21
0100
0000
0000
1000
0000
0000
0001
0000
0000
0000
0010
0000
0000
0001
0000
0000
,  // measure 22
0100
1001
0200
0320
,  // measure 23
0130
0000
0000
0001
0000
0000
0010
0000
0000
0000
0100
0000
1000
0000
0100
0000
,  // measure 24
0010
0000
0000
0100
0000
0000
1000
0000
0000
0000
0001
0000
1000
0000
0010
0000
,  // measure 25
0100
0001
0010
0010
0000
0100
1000
0100
,  // measure 26
0100
0000
0001
1000
0100
0020
0000
0030
,  // measure 27
0001
0100
0010
1000
0000
0001
0010
0100
,  // measure 28
1100
1001
0101
1001
,  // measure 29
0010
1000
0100
0010
0000
0100
0001
0010
,  // measure 30
0100
0000
1000
0001
0100
0010
0000
0010
,  // measure 31
0200
0000
0010
0000
0010
0000
0001
0310
,  // measure 32
0220
0330
1001
1100
,  // measure 33
1010
0000
0010
0000
1000
0000
0100
0010
0000
0000
0001
0000
1000
0000
0001
0000
,  // measure 34
0010
0000
0100
0000
1000
0000
0001
0010
0000
0000
0100
0000
1000
0000
0100
0000
,  // measure 35
0020
0000
0130
0100
2000
0000
3100
0000
,  // measure 36
0110
0011
1100
0110
,  // measure 37
1001
0000
0100
0000
0010
0001
1000
0001
,  // measure 38
0100
0000
0000
1000
0000
0000
0100
0000
0010
0000
0000
0100
0000
0000
0010
0000
,  // measure 39
0001
0000
0000
0010
0000
0000
0100
0000
0100
0000
0010
0000
0001
0000
0100
0000
,  // measure 40
0010
0000
0000
1000
0000
0000
0001
0000
0001
0000
0010
0000
0100
0000
1000
0000
,  // measure 41
1100
0000
1000
0000
0100
0000
0010
0001
0000
0000
0001
0000
1000
0000
0010
0000
,  // measure 42
0100
0000
0001
0000
0100
0000
0010
1000
0000
0000
1001
0000
0000
0000
0010
0000
,  // measure 43
0100
0000
0000
0010
0000
0000
0100
0000
0001
0000
0000
1000
0000
0000
0100
0000
,  // measure 44
0011
0110
1100
1001
,  // measure 45
0110
0000
1000
0000
0001
1000
0010
0100
,  // measure 46
0001
0000
0000
1000
0000
0000
0010
0000
0100
0000
0000
0001
0000
0000
0010
0000
,  // measure 47
0100
0000
0000
1000
0000
0000
0100
0000
0010
0000
0001
0000
0100
0000
0002
0000
,  // measure 48
0000
0000
0003
0000
0010
0000
0000
0000
0011
0000
0000
1100
0000
0000
1001
0000
,  // measure 49
0010
0000
0010
1000
0000
1000
0100
0010
,  // measure 50
0001
0000
0001
0010
0000
0010
0100
1000
,  // measure 51
0100
0000
0010
0000
0001
0100
0010
0000
,  // measure 52
1001
0110
0011
1100
,  // measure 53
1001
0000
0100
0000
1000
0010
0100
0001
,  // measure 54
0010
0000
0010
0001
0100
0000
0100
0010
,  // measure 55
1000
0100
1000
0100
,  // measure 56
1001
0000
0000
0110
0000
0000
1001
0000
0001
0000
1000
0000
0001
0000
0010
0000
,  // measure 57
0100
0000
0100
1000
0000
1000
0100
0010
,  // measure 58
0001
0000
0001
0100
0000
0100
0010
1000
,  // measure 59
0100
0010
0001
0100
,  // measure 60
1001
0101
1010
0101
,  // measure 61
1001
0000
0010
0000
0001
0100
0010
1000
,  // measure 62
0100
0000
0100
1000
0001
0000
0001
0100
,  // measure 63
0010
0010
1000
0001
,  // measure 64
0100
0000
0001
0000
0010
0000
0000
0000
1100
0000
0000
0110
0000
0000
0011
0000
;
