#TITLE:GOODBYE TO YOU;
#SUBTITLE:;
#ARTIST:The Veronicas;
#TITLETRANSLIT:;
#SUBTITLETRANSLIT:;
#ARTISTTRANSLIT:;
#GENRE:;
#CREDIT:;
#MENUCOLOR:;
#NEWMETERSYSTEM:NO;
#BANNER:GOODBYE TO YOU-bn.png;
#BACKGROUND:GOODBYE TO YOU-bg.png;
#LYRICSPATH:;
#CDTITLE:MixMania II CD Title.png;
#MUSIC:Goodbye To You.mp3;
#OFFSET:-0.140;
#SAMPLESTART:70.760;
#SAMPLELENGTH:12.000;
#SELECTABLE:YES;
#LISTSORT:;
#BPMS:0.000=161.000;
#STOPS:;
#BGCHANGES:;
#ATTACKS:;

//---------------dance-single - ----------------
#NOTES:
     dance-single:
     :
     Easy:
     2:
     0.157,0.192,0.051,0.080,0.000:
0000
0000
0000
0000
,
0000
0000
0000
0000
,
0000
0000
0000
0000
,
0000
0000
0000
1000
,
1000
0000
0100
0000
,
0010
0000
0001
0000
,
0100
0000
0010
0000
,
1000
0000
0100
0000
,
0100
0000
0010
0000
,
0001
0000
0100
0000
,
0010
0000
0100
0000
,
0010
0000
1000
0000
,
1001
0000
0000
0000
,
0100
0000
0000
0000
,
0010
0000
0001
0000
,
0001
0000
0100
0000
,
0010
0000
0000
0000
,
1000
0000
0000
0000
,
0010
0000
1000
0000
,
0001
0000
0010
0000
,
0200
0000
0000
0000
,
0310
0000
0010
0000
,
0020
0000
0000
0000
,
1030
0000
1000
0000
,
2000
0000
0000
0000
,
3001
0000
0000
0000
,
1001
0000
0010
0000
,
0100
0000
0010
0000
,
0200
0000
0300
0000
,
0100
0000
0010
0000
,
1000
0000
0100
0000
,
0010
0000
0001
0000
,
0020
0000
0030
0000
,
0010
0000
0000
0000
,
1001
0000
0000
0000
,
0010
0000
0000
0000
,
0001
0000
0100
0000
,
0010
0000
1000
0000
,
0100
0000
0000
0000
,
0010
0000
0000
0000
,
0001
0000
1000
0000
,
0001
0000
1000
0000
,
0100
0000
0000
0000
,
0010
0000
0001
0000
,
0001
0000
0000
0000
,
0100
0000
0100
0000
,
0010
0000
0000
0000
,
0010
0000
0000
0000
,
1001
0000
0100
0000
,
0010
0000
0001
0000
,
0002
0000
0003
0000
,
0001
0000
0010
0000
,
0100
0000
1000
0000
,
0100
0000
0010
0000
,
0200
0000
0300
0000
,
0100
0000
1000
0000
,
1001
0000
0000
0000
,
0100
0000
0000
0000
,
0010
0000
0100
0000
,
0100
0000
0000
0000
,
1000
0000
0000
0000
,
0100
0000
0000
0000
,
0010
0000
0001
0000
,
0001
0000
0000
0000
,
0100
0000
0000
0000
,
0010
0000
0100
0000
,
0100
0000
0000
0000
,
1000
0000
0001
0000
,
0001
0000
0000
0000
,
0010
0000
0000
0000
,
1001
0000
0100
0000
,
1000
0000
0100
0000
,
2000
0000
3000
0000
,
1000
0000
0100
0000
,
0010
0000
0001
0000
,
0010
0000
0001
0000
,
0020
0000
0030
0000
,
0010
0000
0000
0000
,
0100
0000
0001
0000
,
0010
0000
0100
0000
,
1000
0000
0100
0000
,
0010
0000
0001
0000
,
1000
0000
0001
0000
,
0100
0000
0010
0000
,
1000
0000
0100
0000
,
0010
0000
0001
0000
,
0220
0000
0000
0000
,
0000
0000
0000
0330
;

//---------------dance-single - Copied from----------------
#NOTES:
     dance-single:
     Copied from:
     Beginner:
     1:
     0.073,0.126,0.029,0.022,0.000:
0000
0000
0000
0000
,
0000
0000
0000
0000
,
0000
0000
0000
0000
,
0000
0000
0000
0000
,
0010
0000
0000
0000
,
0010
0000
0000
0000
,
0100
0000
0000
0000
,
0100
0000
0000
0000
,
0010
0000
0000
0000
,
0010
0000
0000
0000
,
0100
0000
0000
0000
,
0100
0000
0000
0000
,
0001
0000
0000
0000
,
0000
0000
0000
0000
,
1000
0000
0000
0000
,
0000
0000
0000
0000
,
0100
0000
0000
0000
,
0000
0000
0000
0000
,
0010
0000
0000
0000
,
0000
0000
0000
0000
,
1001
0000
0000
0000
,
0000
0000
0010
0000
,
0010
0000
0000
0000
,
0000
0000
0010
0000
,
0010
0000
0000
0000
,
0200
0000
0000
0000
,
0300
0000
0000
0000
,
0000
0000
1000
0000
,
1000
0000
0000
0000
,
0000
0000
0001
0000
,
0001
0000
0000
0000
,
0000
0000
0010
0000
,
0010
0000
0000
0000
,
0000
0000
0000
0000
,
1001
0000
0000
0000
,
0000
0000
0000
0000
,
1000
0000
0000
0000
,
0000
0000
0000
0000
,
0100
0000
0000
0000
,
0000
0000
0000
0000
,
0010
0000
0000
0000
,
0000
0000
0000
0000
,
0010
0000
0000
0000
,
0000
0000
0100
0000
,
0100
0000
0000
0000
,
0000
0000
0010
0000
,
0010
0000
0000
0000
,
0200
0000
0000
0000
,
0300
0000
0000
0000
,
0000
0000
0001
0000
,
0001
0000
0000
0000
,
0000
0000
1000
0000
,
1000
0000
0000
0000
,
0000
0000
0010
0000
,
0010
0000
0000
0000
,
0000
0000
0000
0000
,
1001
0000
0000
0000
,
0000
0000
0000
0000
,
0010
0000
0000
0000
,
0010
0000
0000
0000
,
0100
0000
0000
0000
,
0000
0000
0000
0000
,
0001
0000
0000
0000
,
1000
0000
0000
0000
,
0001
0000
0000
0000
,
0000
0000
0100
0000
,
0100
0000
0000
0000
,
0000
0000
1000
0000
,
1000
0000
0000
0000
,
0020
0000
0000
0000
,
0030
0000
0000
0000
,
0000
0000
0010
0000
,
0010
0000
0000
0000
,
0000
0000
1000
0000
,
1000
0000
0000
0000
,
0000
0000
0001
0000
,
0001
0000
0000
0000
,
0000
0000
0000
0000
,
0100
0000
0000
0000
,
0000
0000
0000
0000
,
0010
0000
0000
0000
,
0000
0000
0000
0000
,
0100
0000
0000
0000
,
0000
0000
0000
0000
,
0001
0000
0000
0000
,
0000
0000
0000
0000
,
1001
0000
0000
0000
;

//---------------dance-single - Copied from----------------
#NOTES:
     dance-single:
     Copied from:
     Medium:
     6:
     0.394,0.513,0.132,0.088,0.000:
0000
0000
0000
0000
,
0000
0000
0000
0000
,
0000
0000
0000
0000
,
0000
0000
0000
1100
,
1001
0100
1000
0100
,
0010
0000
0001
0000
0100
0000
0010
1000
,
0100
1000
0001
0010
,
0100
0000
1000
0000
0001
1000
0001
1000
,
0001
0100
0010
1000
,
0100
0010
0001
1000
,
0100
0010
0001
1000
,
0001
0000
0010
0000
0100
0000
1000
0100
,
1000
0100
0010
0001
,
0100
0001
1000
0001
,
0100
0000
0001
0000
0100
0000
0001
0010
,
0000
0000
0100
0100
,
1000
0100
0010
0001
,
1000
0001
0100
0001
,
0010
0000
0100
0000
1000
0100
0000
0010
,
0000
0000
0100
0100
,
0010
0001
0100
0010
,
1000
0000
0000
0100
0000
0000
0100
0000
,
0000
0010
0001
0100
,
0001
0000
0000
0010
0000
0000
0010
0000
,
0000
0001
1000
0001
,
2000
0000
0100
3100
,
1100
0100
0010
0001
,
1000
0000
0001
0100
0000
0010
0000
1000
,
0001
1000
0100
0010
,
0001
1000
0001
1000
,
1001
0001
0010
0100
,
1000
0000
0001
1000
0000
0100
0000
0010
,
0001
0100
0001
0010
,
0100
1000
0010
0100
,
1001
0100
0010
0100
,
0010
1000
0100
0010
,
0001
0100
0001
0010
,
0002
0100
0010
0103
,
0011
0100
1000
0001
,
0100
0000
0001
0000
1000
0001
1000
0000
,
0100
0000
0010
0000
0100
0000
0000
0100
,
0000
1000
1000
1000
,
0100
0000
0010
0000
0001
0000
0100
0001
,
0000
0010
0000
0001
0000
0100
0010
0000
,
1000
0000
0100
1000
0000
0010
0000
1000
,
0000
0001
0000
1000
0000
0100
1000
0000
,
0100
0010
0001
1000
,
0002
0000
0010
0013
,
0011
0100
0010
0100
,
1000
0000
0001
0100
0000
0001
0000
1000
,
0010
0100
0001
0010
,
0100
1000
0100
0010
,
1001
0100
0001
0010
,
0100
0000
1000
0010
0000
0100
0000
0001
,
1000
0100
1000
0001
,
0010
0100
1000
0001
,
1001
0000
0010
1000
0001
0000
0100
0000
,
0001
0010
0100
1000
,
1001
0100
0010
0100
,
1001
0000
0010
0001
1000
0000
0100
0000
,
1001
0000
0010
0100
1000
0000
0100
0000
,
1000
0100
0010
0001
,
1001
0000
0001
0100
0010
0000
0100
0000
,
1001
0000
0100
0000
0010
0100
0010
1000
,
0100
0000
0100
0000
1000
0000
0100
0010
,
0000
0001
0000
1000
0000
0001
0100
0000
,
0010
0000
1000
0100
0000
0010
0000
0001
,
0000
0100
0010
1000
0000
1000
0001
0000
,
0100
0000
1000
0000
0100
0000
0001
0100
,
0020
0000
0100
0130
,
0110
1000
0100
0001
,
0100
0000
1000
0100
0000
0010
0000
0001
,
0100
0010
1000
0100
,
0001
0000
0100
1000
0000
0010
0000
0100
,
0001
0010
0001
0100
,
0010
0000
1000
0100
0000
0010
0000
0001
,
1000
0001
0010
0100
,
1001
0100
1001
0100
,
0010
0001
0100
0010
,
1000
0100
1000
0100
,
0010
0001
0100
0001
,
1000
0001
0010
0001
,
1000
0001
1000
0000
0001
0010
0001
0000
,
1000
0010
1000
0000
0100
0000
0100
0000
,
0020
0032
2003
3200
,
2300
3020
0130
0100
,
2002
0000
0000
0000
,
0000
0000
0000
3003
;

//---------------dance-single - Copied from----------------
#NOTES:
     dance-single:
     Copied from:
     Hard:
     7:
     0.471,0.545,0.146,0.124,0.000:
0000
0000
0000
0000
,
0000
0000
0000
0000
,
0000
0000
0000
0000
,
0000
0000
0000
0011
,
1100
0000
0001
0100
1000
0000
0100
0000
,
0010
0000
1000
0000
0100
0010
0001
0100
,
0001
0100
0010
1000
,
0001
0000
0100
0000
0001
0010
0100
1000
,
0100
1000
0100
0010
,
0001
0000
0100
0000
0001
0000
1000
0010
,
1000
0001
0100
0010
,
0100
0000
0001
0000
0010
0100
1000
0100
,
0010
0000
0100
0001
0010
0000
0100
0000
,
0001
0000
1000
0010
0000
0100
0000
0000
,
0001
0000
0100
0010
0001
0000
0100
0001
,
0000
0010
0100
0001
,
1000
0000
0100
1000
0010
0000
1000
0100
,
0000
0010
0000
0001
0000
0100
0001
0000
,
0010
0000
0001
0100
0010
1000
0000
0200
,
0000
2300
0100
3100
,
0010
0000
0001
0100
0001
0000
0001
0010
,
0000
0100
0000
1000
0000
0100
0010
0000
,
0100
0000
0001
1000
0001
0100
0001
0010
,
0000
0010
0000
0100
0000
1000
0100
0000
,
1000
0000
0010
1000
0010
0000
1001
0000
,
0202
0000
0000
0303
,
1001
0000
0100
0010
1000
0000
0100
0000
,
0010
0000
0001
0100
0000
0001
0000
1000
,
0010
0000
0100
0000
1000
0000
0100
0010
,
0001
0000
0100
0001
0000
0010
0000
0100
,
1000
0100
0010
1000
,
0001
0000
0100
0001
0000
0001
0000
1000
,
0001
0100
0010
1000
,
0010
0000
0100
0000
0001
1000
0001
0100
,
0001
0000
1000
0100
0010
0000
0100
0000
,
0001
0000
0100
0000
0001
0000
0010
0001
,
0100
0000
0010
1000
0100
0000
0001
1000
,
0001
1001
0110
1001
,
0001
0000
0100
0010
0001
0000
0100
0001
,
0000
1000
0000
0010
0000
0100
0010
0000
,
0100
0000
0001
1000
0001
0000
1000
0000
,
0010
1010
0101
1010
,
0101
0000
1000
0001
1000
0000
0100
0010
,
0000
0001
0000
1000
0000
0001
0100
0000
,
0010
0000
1000
0100
0000
0011
0000
1100
,
0000
0100
0010
0001
0000
0001
0100
0000
,
0010
0000
0001
1000
0001
0000
0001
0010
,
0002
0000
0000
1000
0000
1000
0000
0100
,
0103
0100
0010
1000
,
0100
0000
0010
0001
0000
0100
0000
0001
,
0010
0100
1000
0100
,
1000
0000
0001
0010
0000
0001
0000
0100
,
0010
1000
0100
1000
,
0010
0000
0100
0001
0000
0100
0000
0010
,
1000
0100
0010
0001
,
0100
0000
0001
0000
0010
0001
0001
0010
,
0001
1000
0100
0010
,
0001
0000
0100
0000
0001
0000
0010
0001
,
1001
0000
0100
0000
1000
0000
0010
1000
,
1001
0000
1000
0000
0100
0000
0010
0001
,
1001
0001
0100
0010
,
1000
0000
0100
0000
0010
0000
0001
1000
,
1001
0000
0100
0000
0001
0000
1000
0001
,
1001
0000
0100
0000
0010
0100
0001
1000
,
0002
0000
0203
0000
0320
0000
1030
0100
,
0000
1000
0000
0200
0000
0310
0001
0000
,
0100
0000
0001
2000
0000
3200
0000
2300
,
0000
3010
0100
0002
0000
0013
0100
0000
,
0010
0000
0001
1000
0010
1000
0100
0010
,
0200
0000
0000
0010
0000
0010
0300
0010
,
0001
0000
1000
0001
1000
0000
0100
0000
,
0010
0000
0001
1000
0000
0001
0000
0010
,
0100
0000
0001
0100
0010
0000
1000
0000
,
0001
1000
0100
0010
0000
0100
0000
0010
,
0100
0000
1000
0001
0100
0000
0001
0000
,
0010
0000
0001
0100
0000
0010
0000
1000
,
0100
0000
0010
0001
0100
0000
0001
0000
,
1000
0000
0001
0000
1000
0000
0001
0010
,
0100
1000
0100
0010
0001
1000
0000
0001
,
0000
0100
0010
1000
0000
0100
0010
0001
,
0100
0000
0001
1000
0000
0001
1000
0100
,
0000
1000
0010
0100
0000
0001
0010
0000
,
0001
0100
0001
0100
0001
0100
0001
0100
,
0010
0100
0010
0100
0010
0100
0010
0100
,
0020
0000
0130
0001
0100
0001
0100
0010
,
1000
0100
1000
0100
0000
0010
0000
0001
,
0022
0000
0000
0000
,
0000
0000
0000
0033
;

//---------------dance-single - Copied from ----------------
#NOTES:
     dance-single:
     Copied from:
     Challenge:
     8:
     0.552,0.577,0.175,0.037,0.000: // measure 1
0000
0000
0000
0000
,  // measure 2
0000
0000
0000
0000
,  // measure 3
0000
0000
0000
0000
,  // measure 4
0000
0000
0000
1001
,  // measure 5
0011
0000
0001
0100
0010
0000
1000
0100
,  // measure 6
0000
1000
0010
0100
0001
0010
0001
0100
,  // measure 7
0010
0000
1000
0100
1000
0000
0010
1000
,  // measure 8
0000
0100
0010
0001
1000
0001
1000
0010
,  // measure 9
1000
0000
0100
1000
0010
0000
0010
0100
,  // measure 10
0000
0100
0001
0010
0001
0100
0010
1000
,  // measure 11
0100
0000
1000
0100
0010
0000
0010
0001
,  // measure 12
0000
0001
0100
0001
0010
0001
0100
0010
,  // measure 13
0100
0000
0100
1000
0010
0000
0010
0000
,  // measure 14
0110
0000
0100
0001
0000
0001
0010
0001
,  // measure 15
0100
0000
0010
1000
0100
0000
0100
1000
,  // measure 16
0000
1000
0100
0010
0001
1000
0001
0010
,  // measure 17
0100
0000
0100
1000
0100
0010
0001
0100
,  // measure 18
0000
0101
0000
0001
1000
0010
1000
0100
,  // measure 19
0010
0000
0100
1000
0010
1000
0000
0100
,  // measure 20
0000
0100
0001
0000
0010
0000
0011
0000
,  // measure 21
0101
0000
0001
0100
0010
1000
0100
1000
,  // measure 22
0000
1000
0100
0010
0000
0010
0011
0000
,  // measure 23
1100
1000
0010
0100
0001
0010
0100
1000
,  // measure 24
0000
0110
0000
1100
0000
0100
0010
0001
,  // measure 25
0100
0000
0001
0010
0100
1000
0100
0010
,  // measure 26
0001
0000
0100
0001
0000
0011
0000
1000
,  // measure 27
1010
0000
0100
1000
0010
0100
0001
0000
,  // measure 28
0010
0000
0001
0100
0000
0010
0000
1000
,  // measure 29
0100
1000
0010
0100
0001
0010
0001
0100
,  // measure 30
0001
0000
0001
0010
0000
0100
0000
1000
,  // measure 31
0100
1000
0010
0100
0001
1000
0001
1000
,  // measure 32
0100
1000
0010
0100
0000
0100
0000
0001
,  // measure 33
0010
0001
0100
0010
1000
0100
1000
0100
,  // measure 34
0010
0001
0100
0001
0010
0100
0010
1000
,  // measure 35
1100
0000
0100
0010
0001
0100
0000
0001
,  // measure 36
0000
0010
0000
0001
0000
0100
0000
0001
,  // measure 37
0010
0100
0000
1000
0000
0100
0000
1000
,  // measure 38
0000
0000
0010
1000
0100
0010
0000
0001
,  // measure 39
0000
0000
0100
0001
0010
0001
0100
0010
,  // measure 40
0000
1000
0000
0100
0000
1000
0100
0010
,  // measure 41
0001
0000
0100
0001
1000
0100
0000
1000
,  // measure 42
0000
0000
0010
1000
0001
1000
0000
0001
,  // measure 43
0000
0000
0100
0000
0001
0000
0010
0001
,  // measure 44
0000
0100
0000
1001
0000
0010
1000
0000
,  // measure 45
0100
0000
1000
0100
0000
0110
0000
0001
,  // measure 46
0000
0100
0001
1000
0000
0010
0100
0000
,  // measure 47
1000
0000
0100
0001
0100
1000
0010
1000
,  // measure 48
0100
0000
0010
0001
0000
0101
0000
1000
,  // measure 49
1100
0000
0100
1000
0100
0000
0010
0001
,  // measure 50
0100
0000
0001
1000
0000
0001
0000
1000
,  // measure 51
0100
0000
0010
0001
0100
0000
0010
1000
,  // measure 52
0100
0000
0010
0001
0000
1000
0000
0100
,  // measure 53
0010
0000
0100
0001
0010
0000
0100
1000
,  // measure 54
0010
0100
0001
0100
0000
1000
0000
0010
,  // measure 55
1000
0000
0100
1000
0010
0000
0100
0001
,  // measure 56
0010
0001
0100
0010
1000
0001
1000
0001
,  // measure 57
0110
0000
0010
1000
0001
0000
0100
0001
,  // measure 58
0010
0000
0001
0100
0010
0000
1000
0010
,  // measure 59
1100
0000
0100
1000
0010
0000
0100
0001
,  // measure 60
0011
0000
0001
0100
0010
0000
0001
1000
,  // measure 61
0011
0000
0100
1000
0010
0100
0001
1000
,  // measure 62
0000
0001
0000
1000
0000
0001
0100
0010
,  // measure 63
0110
0000
0100
1000
0100
1000
0000
0100
,  // measure 64
0011
0000
0100
0000
0001
0010
0100
1000
,  // measure 65
0010
0000
0100
0000
0001
0000
1000
0001
,  // measure 66
0000
1000
0000
0010
0000
1000
0100
0010
,  // measure 67
0001
0000
0100
0001
0000
0010
0000
0100
,  // measure 68
0000
1000
0100
1000
0000
0010
1000
0100
,  // measure 69
0010
0000
0001
0100
0001
0010
0001
0100
,  // measure 70
0020
0000
0000
1000
0000
1000
0000
1030
,  // measure 71
0100
0000
0100
0010
0001
0000
0100
0001
,  // measure 72
0010
0000
0100
1000
0010
1000
0100
0010
,  // measure 73
0001
0000
0100
0001
0010
0000
0100
1000
,  // measure 74
0010
0100
0001
0010
0000
0001
0000
1000
,  // measure 75
0001
0100
0010
1000
0100
0000
0001
0000
,  // measure 76
0001
0010
0100
0001
0000
1000
0000
0100
,  // measure 77
2000
0000
3100
0000
0010
0001
0100
0001
,  // measure 78
0000
0100
0000
1000
0000
0100
0010
0001
,  // measure 79
0100
0001
0010
0100
1000
0100
1000
0010
,  // measure 80
0100
0001
0010
0001
0000
0100
0001
0010
,  // measure 81
0100
1000
0001
1000
0010
0001
1000
0001
,  // measure 82
0000
0010
0001
0100
0000
0001
1000
0010
,  // measure 83
1000
0100
1000
0100
0010
0100
0010
0100
,  // measure 84
0010
0001
0010
0001
0100
0001
0100
0001
,  // measure 85
0020
0000
0130
0010
0100
0010
0100
0010
,  // measure 86
0001
0010
0001
0010
0001
1000
0010
0100
,  // measure 87
0220
0000
0000
0000
,  // measure 88
0000
0000
0000
0330
;
