#TITLE:First Kiss;
#SUBTITLE:;
#ARTIST:BJJ;
#TITLETRANSLIT:;
#SUBTITLETRANSLIT:;
#ARTISTTRANSLIT:;
#GENRE:;
#CREDIT:;
#MENUCOLOR:;
#NEWMETERSYSTEM:NO;
#BANNER:First Kiss-bn.png;
#BACKGROUND:First Kiss-bg.png;
#LYRICSPATH:;
#CDTITLE:MixMania II CD Title.png;
#MUSIC:First Kiss.mp3;
#OFFSET:-0.260;
#SAMPLESTART:45.100;
#SAMPLELENGTH:12.000;
#SELECTABLE:YES;
#LISTSORT:;
#BPMS:0.000=107.000;
#STOPS:;
#BGCHANGES:;
#ATTACKS:;

//---------------dance-single - ----------------
#NOTES:
     dance-single:
     :
     Easy:
     4:
     0.261,0.363,0.185,0.262,0.000:
0000
0000
0000
0000
,
0000
0000
0000
0000
,
0000
0000
0000
0000
,
0010
0000
0010
1001
,
0010
0100
1000
0000
,
1000
0100
0010
0010
,
0001
0000
1000
0000
,
0001
1000
0100
1000
,
0010
0000
0010
0000
,
0100
0010
0100
0100
,
0010
1000
1000
0100
,
0200
0300
0000
0010
,
0011
0010
0100
0010
,
1010
0100
1000
0100
,
1100
0100
0010
0001
,
0202
0303
2200
3300
,
0110
0010
0100
0010
,
0011
0010
1000
1000
,
2200
3300
0022
0033
,
1001
1001
2002
3003
,
0010
0010
0001
0001
,
1000
0100
1000
0100
,
0100
0010
0010
0100
,
0002
0000
1000
1003
,
1100
1000
1000
0100
,
0010
0010
0010
0001
,
0100
0001
0010
0100
,
0200
2300
3200
2300
,
3100
0000
0100
0010
,
0100
0000
0100
0001
,
0010
0000
0010
0100
,
1000
1000
1000
1000
,
0110
0001
2000
3000
,
1000
0001
0020
0030
,
0002
0003
2000
3000
,
1001
1001
2002
3003
,
0010
0001
0010
1000
,
0100
0001
0100
1000
,
1000
0100
0100
0010
,
2000
0000
0001
3001
,
0011
0010
0010
0100
,
0001
0001
0001
1000
,
0002
0203
0302
0203
,
0301
0010
0100
1000
,
1000
0000
0000
0000
;

//---------------dance-single - Copied from----------------
#NOTES:
     dance-single:
     Copied from:
     Beginner:
     1:
     0.103,0.150,0.068,0.049,0.000:
0000
0000
0000
0000
,
0000
0000
0000
0000
,
0000
0000
0000
0000
,
0000
0000
1000
1000
,
1000
0000
1000
0000
,
0000
0000
0001
0000
,
0000
0000
0010
0000
,
0000
0000
0100
0000
,
0100
0000
0100
0000
,
0000
0000
1000
0000
,
0000
0000
0010
0000
,
0000
0000
0001
0000
,
1001
0000
0000
0000
,
1001
0000
0000
0000
,
1001
0000
0000
0000
,
2002
0000
0000
0000
,
3003
0000
0000
0000
,
1001
0000
0000
0000
,
0110
0000
0110
0000
,
0020
0000
0000
0030
,
0010
0000
0000
0010
,
0010
0000
0000
1000
,
1000
0000
0001
0000
,
0002
0000
0000
0003
,
0001
0000
0000
0100
,
0100
0000
0000
0010
,
0010
0000
0010
0000
,
2000
0000
0000
3000
,
1000
0000
0000
0000
,
1000
0000
0000
0000
,
0001
0000
0000
0000
,
0001
0000
0001
0000
,
0001
0000
0000
0000
,
0010
0000
0000
0000
,
0100
0000
0100
0000
,
0010
0010
0010
0010
,
0010
0000
0000
1000
,
1000
0000
0000
0100
,
0100
0000
0100
0000
,
0100
0000
0000
0000
,
0010
0000
0000
0001
,
0001
0000
0000
0000
,
1000
0000
0001
0000
,
0010
0000
0100
0000
,
0100
0000
0000
0000
;

//---------------dance-single - Copied from----------------
#NOTES:
     dance-single:
     Copied from:
     Challenge:
     9:
     0.559,0.577,0.758,0.087,0.389:
0000
0000
0000
0000
,
0000
0000
0000
0000
,
0000
0000
0000
0000
,
0000
0000
0000
0000
1000
0100
1100
0000
,
1010
0000
0100
0010
0001
0000
0010
0001
0100
0000
0010
2000
0000
3000
0100
0000
,
1000
0000
0100
0010
0000
0010
0001
0000
0010
0000
0000
0000
1001
0000
0100
0000
,
1001
0000
1010
0100
1010
0000
0101
0010
,
0101
0000
0010
0001
0000
0010
0000
0000
0100
0000
1000
0100
0000
0010
0000
0000
,
0110
0000
1000
0001
1000
0000
0100
0001
0010
0000
0010
0100
0000
0000
1000
0000
,
0100
0000
0001
0010
0000
0001
0100
0000
0010
0000
1000
0000
1100
0000
0100
0000
,
0110
0000
0110
0010
0011
0000
0011
0010
,
0110
0000
1000
0001
0000
0100
0000
0000
0110
0000
0100
0000
0101
0000
0001
0000
,
1001
0000
0010
1000
0001
0000
0001
1000
0100
0000
0100
0010
0001
0000
0000
0000
,
1001
0000
0010
1000
0100
0000
0100
0010
0100
0000
0100
1000
0100
0000
0000
0000
,
0011
0000
0010
1000
0100
0000
0100
0010
0001
0000
0001
1000
0010
0000
0000
0000
,
0110
0000
1100
0000
0011
0101
0000
1010
,
1001
0000
0010
0100
1000
0000
0100
1000
0100
0000
0100
0001
0010
0000
0000
0000
,
0011
0000
0001
1000
0001
0000
1000
0001
1000
0000
0010
0100
0010
0000
0010
0000
,
0011
0000
0001
0010
0000
0000
0010
0000
0110
0000
0100
2000
0000
0000
3000
0000
,
1001
0000
1001
0000
1100
0011
0000
0011
,
0101
0000
1000
0100
0000
0010
0000
0100
0000
0000
0100
0000
0001
0000
0010
0000
,
1100
0000
0010
0100
0000
0010
0000
0002
0000
0000
0003
0000
1000
0000
0001
0000
,
0020
0000
0130
0100
2000
0000
3100
0100
,
1100
0000
0000
0000
0100
0000
0001
0000
0010
0000
0001
0010
0000
0100
0000
0000
,
1001
0000
0010
0100
0000
1000
0000
0100
0000
0000
0100
0000
0010
0000
0001
0000
,
0101
0000
0001
0010
0000
0100
0000
2000
0000
0000
3000
0000
0100
0000
0010
0000
,
0011
0000
0001
1000
1100
0000
1000
0001
,
0110
1000
0110
0001
0110
1000
0110
0001
,
1001
0000
1000
0001
0000
0001
1000
0000
0000
0000
0000
0000
0100
0010
0001
0000
,
0110
0000
0100
1000
0000
1000
0010
0000
0000
0000
0000
0000
0100
0000
0001
0000
,
0011
0000
0001
0100
0000
0010
1000
0000
0000
0000
0000
0000
0100
1000
0010
0000
,
0011
0110
0011
0110
1100
0110
1100
0110
,
1001
0000
0100
1000
0100
0000
0100
0000
0010
0000
0001
1000
0000
0100
0010
0001
,
0010
0000
0100
0010
0000
0100
0000
0110
0000
0000
0000
0000
1001
0000
0100
0000
,
0011
0000
0001
0010
0000
0000
1000
0000
1100
0000
1000
0100
0000
0000
0000
0000
,
1100
0000
0011
0000
1100
1010
0000
0101
,
0011
0000
0001
0100
0000
0010
0000
1000
0000
0000
0100
0000
0010
0000
0001
0000
,
1001
0000
1000
0100
0000
0010
0000
0002
0000
0000
0003
0000
0100
0000
0010
0000
,
2000
0000
3001
0010
0020
0000
0130
0001
,
0110
0000
0100
0000
1100
0000
1000
0000
1001
0000
0001
0100
0000
0001
0000
0000
,
1000
0000
0001
0100
0000
0010
0000
0011
0000
0000
0100
0010
0001
0100
0010
0000
,
0100
0000
1000
0100
0000
1000
0000
1100
0000
0000
1000
0000
0010
0000
0100
0000
,
0001
0000
0001
0010
0100
0000
1000
0001
,
1010
0100
0011
0100
1001
0010
1100
0010
,
1001
0000
0000
0000
;

//---------------dance-single - Copied from Copied f----------------
#NOTES:
     dance-single:
     Copied from Copied f:
     Hard:
     6:
     0.407,0.430,0.437,0.155,0.189: // measure 1
0000
0000
0000
0000
,  // measure 2
0000
0000
0000
0000
,  // measure 3
0020
0000
0000
0000
,  // measure 4
0000
0000
0000
0000
0100
0100
0130
0000
,  // measure 5
0100
1000
0001
0100
0010
0000
0001
0000
,  // measure 6
0010
0000
0000
0010
0000
0000
0001
0000
0011
0000
0000
0000
0100
0000
0001
0000
,  // measure 7
2000
0000
3100
1000
0200
0000
0310
0100
,  // measure 8
0010
0000
0000
0001
0000
0000
0010
0000
0110
0000
0000
0000
1000
0000
0001
0000
,  // measure 9
0010
0100
1000
0100
0010
0100
0001
0100
,  // measure 10
0001
0000
0000
0010
0000
0000
0100
0000
1100
0000
0000
0000
1000
0000
0100
0000
,  // measure 11
0200
0000
0310
0010
2000
0000
3100
0100
,  // measure 12
0010
0000
0000
0001
0000
0000
1000
0000
1010
0000
0000
0000
0001
0000
0001
0000
,  // measure 13
1001
0000
1001
0000
1010
0000
1010
1000
,  // measure 14
1001
0000
0011
0000
0101
0000
0101
0001
,  // measure 15
0011
1001
1010
1001
,  // measure 16
0110
0010
1000
1000
0001
2000
0000
3001
,  // measure 17
1001
0000
0110
0000
1001
0000
1100
0001
,  // measure 18
1010
0000
1001
0000
0101
0000
0011
0010
,  // measure 19
0110
0000
0000
0100
0000
0000
0100
0000
1100
0000
0000
1000
0000
0000
1000
0000
,  // measure 20
1100
0000
1100
0000
0100
0020
0000
0031
,  // measure 21
0011
0000
0000
1000
0000
0001
0000
1000
0000
0000
0000
0000
0010
0000
0100
0000
,  // measure 22
0100
0000
0000
1000
0000
0100
0000
0010
0000
0000
0000
0000
0001
0000
0010
0000
,  // measure 23
0100
0000
0010
0100
0010
0000
0100
1000
,  // measure 24
0100
0000
0000
0000
0100
0000
0010
0001
0000
0000
0000
0000
0010
0000
0000
0000
,  // measure 25
1001
0000
0000
0100
0000
0001
0000
0010
0000
0000
0000
0000
0010
0000
1000
0000
,  // measure 26
1000
0000
0000
0100
0000
0100
0000
1000
0000
0000
0000
0000
1000
0000
0100
0000
,  // measure 27
0010
0001
1000
0010
,  // measure 28
0200
0000
0302
0000
0023
0000
0032
0100
,  // measure 29
0103
0000
0000
0100
0000
0000
0100
0000
0000
0000
0000
0000
0010
0000
1000
0000
,  // measure 30
0001
0000
0000
0001
0000
0000
0001
0000
0000
0000
1000
0000
1000
0000
0001
0000
,  // measure 31
0001
0000
0000
0010
0000
0000
0001
0000
0000
0000
0000
0000
0100
0000
0000
0000
,  // measure 32
0011
0001
0010
0001
0010
0100
1000
0100
,  // measure 33
1100
0000
1000
0000
0000
0100
0000
0000
0000
0000
0000
0000
0100
0000
1000
0000
,  // measure 34
1010
1010
0000
1001
0000
0000
0100
0010
,  // measure 35
1000
0000
0000
0100
0000
0000
0010
0000
0001
0000
0000
0010
0000
0000
0000
0000
,  // measure 36
0011
0000
0011
0000
0100
2000
0000
3100
,  // measure 37
1100
0000
0000
0100
0000
0001
0000
0100
0000
0000
0000
0000
0010
0000
0001
0000
,  // measure 38
0100
0000
0000
0010
0000
1000
0000
0010
0000
0000
0000
0000
0100
0000
0001
0000
,  // measure 39
0002
0000
0013
1000
0200
0000
1300
0100
,  // measure 40
1000
0000
0000
0000
0010
0000
0000
0000
0100
0000
0000
0001
0000
0001
0000
0000
,  // measure 41
1000
0000
0001
0010
0000
0001
0000
0100
0000
0000
0000
0000
0010
0000
1000
0000
,  // measure 42
0100
0000
0100
1000
0000
0001
0000
0100
0000
0000
0000
0000
0010
0000
0001
0000
,  // measure 43
0011
0101
1010
1100
,  // measure 44
1000
1000
0001
0001
1000
0001
1001
0000
,  // measure 45
0220
0330
0000
0000
;

//---------------dance-single - Copied from----------------
#NOTES:
     dance-single:
     Copied from:
     Medium:
     6:
     0.309,0.321,0.136,0.117,0.160: // measure 1
0000
0000
0000
0000
,  // measure 2
0000
0000
0000
0000
,  // measure 3
0200
0000
0000
0000
,  // measure 4
0000
0000
0000
0000
0000
0000
0000
0000
0000
0000
1000
0000
1000
0300
0000
0000
,  // measure 5
1100
0000
1000
0100
0100
0000
0000
0000
,  // measure 6
0001
0000
0000
0001
0000
0000
0001
0000
0001
0000
0000
0000
1000
0000
0001
0000
,  // measure 7
1000
0000
1000
0000
0100
0000
0100
1000
,  // measure 8
0010
0000
0000
1000
0000
0000
0010
0000
0010
0000
0000
0000
0100
0000
0000
0000
,  // measure 9
0001
0100
1000
0100
,  // measure 10
0010
0000
0000
1000
0000
0000
0001
0000
0010
0000
0000
0000
0100
0000
0001
0000
,  // measure 11
0100
0000
0100
0001
0100
0000
0010
1000
,  // measure 12
0010
0000
0000
0010
0000
0000
1000
0000
0010
0000
0000
0000
0100
0000
0000
0000
,  // measure 13
1001
0100
0001
0010
,  // measure 14
1001
0000
0100
0000
0100
1000
0100
0010
,  // measure 15
0110
1000
0100
0010
,  // measure 16
0011
0000
0101
0000
0010
0010
0000
1000
,  // measure 17
1100
0000
0100
0000
0001
0000
0010
0001
,  // measure 18
0100
0000
0010
0000
1000
0000
0100
1000
,  // measure 19
0100
0000
0000
0100
0000
0000
0010
0000
0001
0000
0000
0001
0000
0000
0000
0000
,  // measure 20
0002
0000
2003
0000
0001
0002
3003
1001
,  // measure 21
0001
0000
0000
1000
0000
0001
0000
1000
0000
0000
0000
0000
0100
0000
0000
0000
,  // measure 22
1000
0000
0000
0100
0000
0100
0000
0100
0000
0000
0000
0000
1000
0000
0000
0000
,  // measure 23
0001
0001
1000
0010
,  // measure 24
0002
0100
0013
0010
,  // measure 25
0100
0000
0000
1000
0000
0100
0000
1000
0000
0000
0000
0000
0100
0000
0000
0000
,  // measure 26
0001
0000
0000
0010
0000
0001
0000
0010
0000
0000
0000
0000
0100
0000
0000
0000
,  // measure 27
0001
0001
0100
0010
,  // measure 28
1000
1000
0100
0000
0100
0100
0010
0000
,  // measure 29
0011
0000
0000
0010
0000
0000
0000
0000
,  // measure 30
0101
0000
0000
0001
0000
0000
0000
0000
,  // measure 31
1010
0000
0000
1000
0000
0000
0000
0000
,  // measure 32
0100
0100
0100
0100
0100
0100
0100
0100
,  // measure 33
0110
0000
0010
0000
0000
1000
0000
0000
0000
0000
0000
0000
0100
0000
1000
0000
,  // measure 34
0001
0001
0000
1000
0000
0000
0100
0100
,  // measure 35
1000
0000
1000
1000
0001
0000
0010
0000
,  // measure 36
0002
0000
2003
0000
0010
0020
3030
1010
,  // measure 37
1000
0000
0000
0100
0000
1000
0000
0010
0000
0000
0000
0000
0100
0000
0100
0000
,  // measure 38
0100
0000
0000
1000
0000
1000
0000
1000
0000
0000
0000
0000
0100
0000
0001
0000
,  // measure 39
0010
0000
0010
0001
0100
0000
0001
0000
,  // measure 40
1001
0000
0000
0000
1000
0000
0000
0000
0001
0000
0000
1000
0000
1000
0000
0000
,  // measure 41
0100
0000
0000
0010
0000
0100
0000
0100
0000
0000
0000
0000
0010
0000
0000
0000
,  // measure 42
0100
0000
0000
0010
0000
1000
0000
0010
0000
0000
0000
0000
1000
0000
0100
0000
,  // measure 43
0010
0001
0010
0100
,  // measure 44
2000
3200
0320
0032
,  // measure 45
1003
0000
0000
0000
;
