#TITLE:Can't Stop My Love;
#SUBTITLE:;
#ARTIST:Yumi Kawamura;
#TITLETRANSLIT:;
#SUBTITLETRANSLIT:;
#ARTISTTRANSLIT:;
#GENRE:;
#CREDIT:;
#MENUCOLOR:;
#NEWMETERSYSTEM:NO;
#BANNER:Can't Stop My Love-bn.png;
#BACKGROUND:Can't Stop My Love-bg.png;
#LYRICSPATH:;
#CDTITLE:MixMania II CD Title.png;
#MUSIC:Can't Stop My Love.mp3;
#OFFSET:-0.420;
#SAMPLESTART:69.260;
#SAMPLELENGTH:12.000;
#SELECTABLE:YES;
#LISTSORT:;
#BPMS:0.000=100.000;
#STOPS:;
#BGCHANGES:;
#ATTACKS:;

//---------------dance-single - ----------------
#NOTES:
     dance-single:
     :
     Easy:
     3:
     0.242,0.255,0.217,0.175,0.008:
0000
0000
0000
0000
,
1001
0000
0010
0010
,
1001
0000
0100
0100
,
1001
0000
0001
1000
,
1001
0000
1000
1000
,
1100
0100
0200
0300
,
0011
0001
0002
0003
,
0101
0001
1000
0001
,
1000
0100
2000
3000
,
1100
1000
0020
0030
,
0011
0010
0200
0300
,
1001
0001
1001
1000
,
2020
0000
0000
3030
,
1001
0100
1000
0100
,
0010
0001
0010
0001
,
1000
0001
0100
0010
,
1000
0100
0020
0030
,
0100
0010
0100
0010
,
0001
1000
0100
1000
,
0010
0100
0001
1000
,
0001
0010
0200
0300
,
0100
0100
0100
1000
,
0010
0010
0010
1000
,
0001
0001
0001
0100
,
0010
0010
0010
0010
,
1001
0100
0100
1000
,
0010
0010
0010
0100
,
0001
0001
0001
1000
,
0000
0010
0000
0000
0010
0000
0000
0020
0000
0000
0000
0000
0030
0000
0000
0000
,
1001
0001
0001
0000
,
1001
1000
1000
0000
,
0110
0100
0010
0100
,
0110
0010
0100
0010
,
1001
0001
1000
0000
,
1001
1000
0001
0000
,
0010
0001
1000
0100
,
0010
0001
1000
0100
,
2000
3001
0002
1003
,
2002
0000
0000
3003
,
1001
0010
0001
0000
,
1001
0010
1000
0000
,
2000
3001
0002
0013
,
0020
0130
0200
0310
,
1001
0010
0100
0000
,
1001
0100
0010
0000
,
0020
0130
0200
0301
,
0002
0000
0000
0003
,
0011
0000
0000
0000
;

//---------------dance-single - Copied from----------------
#NOTES:
     dance-single:
     Copied from:
     Beginner:
     1:
     0.089,0.137,0.025,0.075,0.000:
0000
0000
0000
0000
,
0100
0000
0000
0000
,
0100
0000
0000
0000
,
0100
0000
0000
0000
,
0100
0000
0000
0000
,
0100
0000
0000
0000
,
0010
0000
0000
0000
,
0001
0000
0000
0000
,
0001
0000
0000
0000
,
1000
0000
0000
0000
,
0001
0000
0000
0000
,
0010
0000
0000
0000
,
0002
0000
0000
0000
,
0003
0000
0000
0000
,
1000
0000
0000
0000
,
0100
0000
0000
0000
,
0010
0000
0000
0000
,
0100
0000
0000
0000
,
0010
0000
0000
0000
,
0001
0000
0000
0000
,
1000
0000
0000
0000
,
0020
0000
0030
0000
,
0020
0000
0030
0000
,
0200
0000
0300
0000
,
1001
0000
1001
0000
,
1001
0000
0000
0000
,
0002
0000
0003
0000
,
2000
0000
3000
0000
,
0200
0000
0300
0000
,
0010
0010
0010
0000
,
0001
0001
0001
0000
,
1000
0000
1000
0000
,
0100
0000
0100
0000
,
0010
0010
0010
0000
,
0100
0100
0100
0000
,
1000
0000
0001
0000
,
1000
0000
0001
0000
,
0010
0000
0001
0000
,
0200
0000
0000
0000
,
0300
0000
0010
0000
,
1000
0000
0100
0000
,
0001
0000
0000
0000
,
1000
0000
0000
0000
,
0100
0000
0010
0000
,
0001
0000
1000
0000
,
0001
0000
0100
0000
,
0020
0000
0000
0000
,
0030
0000
0000
0000
;

//---------------dance-single - Copied from----------------
#NOTES:
     dance-single:
     Copied from:
     Medium:
     6:
     0.301,0.314,0.133,0.067,0.183:
0000
0000
0000
0000
,
0100
0100
0000
0000
0000
0000
0000
0000
,
0100
0100
0000
0000
0000
0000
0000
0000
,
0010
0010
0000
0000
0000
0000
0000
0000
,
0100
0100
0000
0000
0001
0000
1000
0001
,
0001
0000
0100
0000
0000
0001
0000
1000
0000
0000
0000
0000
0100
0000
0000
0000
,
0010
0000
0100
0000
0000
0010
0000
0001
0000
0000
0000
0000
0010
0000
0000
0000
,
0001
0100
1000
0100
,
0001
0000
0100
0000
1000
0100
0010
0001
,
0100
0000
0001
0000
0000
0010
0000
0010
0000
0000
0000
0000
0100
0000
0000
0000
,
0001
0000
0010
0000
0000
1000
0000
1000
0000
0000
0000
0000
0100
0000
0000
0000
,
1000
0100
0010
0001
,
0100
0001
0010
0001
0100
0010
0200
0000
,
0300
0000
0010
0000
0000
0100
0000
0010
0000
0000
0000
0000
0100
0000
0000
0000
,
1000
0000
0100
0000
0000
0010
0000
0001
0000
0000
0000
0000
0100
0000
0000
0000
,
0001
0000
1000
0000
0000
0010
0000
0010
0000
0000
0000
0000
0100
0000
0000
0000
,
0001
1000
0000
0000
0200
0000
2300
0000
,
3100
0000
1000
0000
0000
0100
0000
0100
0000
0000
0000
0000
1000
0000
0000
0000
,
0100
0000
0001
0000
0000
0100
0000
0001
0000
0000
0000
0000
0100
0000
0000
0000
,
0001
0000
0010
0000
0000
0001
0000
0100
0000
0000
0000
0000
0010
0000
0000
0000
,
1000
0000
0010
0000
0000
0100
0000
0001
0000
0000
0000
0000
0100
0000
0000
0000
,
1001
0000
0100
0001
0100
0000
1001
0000
,
0110
0000
1000
0001
1000
0000
0110
0000
,
1001
0000
0001
1000
0001
0000
0110
0000
,
0001
0001
0100
0100
0010
0010
1000
1000
,
0100
0000
1000
0100
0001
0000
0110
0000
,
1001
0000
0001
0100
1000
0000
1001
0000
,
0110
0000
1000
0100
0001
0000
1000
0000
,
0000
0110
0000
0000
0110
0000
0000
0110
0000
0000
0000
0000
0001
0000
0000
0000
,
0100
0000
0001
1000
0000
1000
0000
1000
0000
0000
0000
0000
0100
0000
0000
0000
,
0010
0000
1000
0100
0000
0100
0000
0100
0000
0000
0000
0000
0010
0000
0000
0000
,
0001
1000
0001
0000
0010
0001
0010
0000
,
0002
0000
2003
0000
3002
0000
0103
0100
,
0010
0000
0100
0010
0000
0010
0000
0010
0000
0000
0000
0000
0100
0000
1000
0000
,
0001
0000
0100
0001
0000
0001
0000
0001
0000
0000
0000
0000
0010
0000
1000
0000
,
0010
0000
0100
0001
0100
0000
0001
0010
,
0001
0000
1000
0010
1000
0000
0100
0010
,
0100
0000
0001
1000
0001
0000
0010
0000
,
2002
0000
0000
3003
,
0010
0000
1000
0000
0000
0001
0000
0100
0000
0000
0000
0000
0001
0000
0000
0000
,
1000
0000
0001
0000
0000
0100
0000
0001
0000
0000
0000
0000
1001
0000
0000
0000
,
0001
0100
0010
1000
,
0100
0000
1000
0000
0010
0001
1000
0100
,
0010
0000
0001
0000
0000
0100
0000
0010
0000
0000
0000
0000
0100
0000
0000
0000
,
0001
0000
1000
0000
0000
0001
0000
1000
0000
0000
0000
0000
0100
0000
0000
0000
,
0010
0100
0010
0001
,
1000
0001
1000
0001
1000
0001
0010
0000
,
1001
0000
0000
0000
;

//---------------dance-single - Copied from----------------
#NOTES:
     dance-single:
     Copied from:
     Hard:
     7:
     0.398,0.392,0.158,0.150,0.254:
0000
0000
0000
0000
,
0011
0011
0000
1000
0001
1000
0001
0000
,
1010
1010
0000
0001
1000
0001
1000
0000
,
0110
0110
0000
0001
1000
0001
0001
0000
,
1001
1001
0000
1000
0001
1000
1000
0000
,
1000
0000
0100
0010
0000
0010
0000
0001
0000
0000
0000
0000
0100
0000
0000
0000
,
0001
0000
0010
0100
0000
0100
0000
1000
0000
0000
0000
0000
0001
0000
0000
0000
,
1000
0100
0010
0000
0001
0100
0010
0000
,
0100
0001
1000
0001
1000
0100
0010
0001
,
0100
0000
0001
1000
0000
0001
0000
0100
0000
0000
0000
0000
0010
0000
0000
0000
,
0100
0000
1000
0001
0000
1000
0000
0100
0000
0000
0000
0000
1000
0000
0000
0000
,
0100
0010
0001
1000
0001
0000
0100
0000
,
0001
0000
0000
0010
0000
0000
0100
0000
0000
1000
0000
0000
0100
0000
0000
0010
0000
0000
0100
0000
1000
0000
0001
0000
,
0100
0010
0000
0000
1000
0000
0000
0100
0000
0000
0000
0000
0010
0000
0100
0000
,
0010
1000
0000
0000
0001
0000
0000
0010
0000
0000
0000
0000
0100
0000
1000
0000
,
0010
0100
0000
0000
0001
0000
0000
1000
0000
0000
0000
0000
0100
0000
0010
0000
,
0001
1000
0000
0000
0100
0000
0000
0000
0020
0000
0000
0000
0001
0000
0001
0000
,
0031
0100
0000
0000
0001
0000
0000
1000
0000
0000
0000
0000
0100
0000
1000
0000
,
0010
0100
0000
0000
0001
0000
0000
0010
0000
0000
0000
0000
0001
0000
1000
0000
,
0100
0010
0000
0000
0001
0000
0000
0010
0000
0000
0000
0000
0100
0000
1000
0000
,
0100
0010
0000
0000
0100
0000
0000
1000
0000
0000
0000
0000
0100
0000
0000
0000
,
0020
0000
0000
0000
0130
0000
0010
0100
0000
0000
0000
0000
0100
0000
0001
0000
,
0020
0000
0000
0000
0031
0000
0010
0001
0000
0000
0000
0000
0100
0000
0001
0000
,
0200
0000
0000
0000
0310
0000
1000
0010
0000
0000
0000
0000
1000
0000
0100
0000
,
0020
0031
0002
0103
0200
0310
0020
1030
,
0200
0000
0000
0000
1300
0000
0100
1000
0000
0000
0000
0000
0100
0000
0010
0000
,
0002
0000
0000
0000
0013
0000
0001
0100
0000
0000
0000
0000
0100
0000
0001
0000
,
0020
0000
0000
0000
0031
0000
0100
0001
0000
0000
0000
0000
0100
0000
0001
0000
,
0000
1001
0000
0000
0110
0000
0000
1001
0000
0000
0000
0000
1000
0000
0001
0000
,
0110
0000
0001
1000
0000
0100
0000
0100
0000
0000
1000
0000
0100
0000
0010
0000
,
0011
0000
0001
0010
0000
0001
0000
0001
0000
0000
0000
0000
0100
0000
0010
0000
,
1001
0001
1000
0000
1000
0100
0010
0000
,
0001
1000
0001
0000
0010
0001
0100
0001
,
0011
0000
0001
0010
0000
0010
0000
0100
0000
0000
0000
0000
0001
0000
1000
0000
,
1100
0000
1000
0100
0000
0100
0000
0001
0000
0000
0000
0000
0100
0000
0001
0000
,
0020
0000
0031
0100
0020
0000
1030
0100
,
2000
0000
3100
1000
0200
0000
0310
0100
,
0020
0000
0031
0100
0002
0000
1003
0010
,
0200
0000
0000
0000
0000
0000
0010
0010
,
0310
0000
1000
0001
0000
0100
0000
0010
0000
0000
1000
0000
0001
0000
1000
0000
,
0001
0000
0010
0001
0000
0100
0000
0100
0000
0000
0000
0000
0010
0000
1000
0000
,
0100
1000
0100
0000
0001
0100
0001
0000
,
0010
0001
0100
0010
0001
1000
0001
1000
,
1010
0000
1000
0001
0000
1000
0000
0010
0000
0000
0000
0000
0100
0000
0001
0000
,
0011
0000
0001
0010
0000
0100
0000
0100
0000
0000
0010
0000
1000
0000
0100
0000
,
0010
0001
0010
0100
1000
0001
1000
0100
,
0010
0001
1000
0100
0010
0001
1000
0100
,
1100
0000
0000
0000
;

//---------------dance-single - Copied from ----------------
#NOTES:
     dance-single:
     Copied from:
     Challenge:
     9:
     0.532,0.490,0.142,0.050,0.738: // measure 1
0000
0000
0000
0000
,  // measure 2
1010
0000
1001
0000
0000
1000
0001
1000
0000
1000
0000
0100
0000
0000
0010
0000
,  // measure 3
1010
0000
0101
0000
0000
0001
0010
0100
0000
1000
0000
0100
0000
0000
0010
0000
,  // measure 4
0110
0000
1001
0000
0000
0100
0001
0100
0000
0010
0000
1000
0000
0000
0001
0000
,  // measure 5
0011
0000
1100
0000
0000
0001
1000
0001
0000
0100
0000
1000
0000
0000
0100
0000
,  // measure 6
0010
0000
0001
0010
0000
0001
0000
0100
0000
0001
0000
1000
0001
0000
1000
0000
,  // measure 7
0001
0000
0100
0010
0000
0010
0000
1000
0000
0100
0000
1000
0100
0000
0010
0000
,  // measure 8
0001
0000
0100
0001
0000
0010
0000
0001
0000
0100
0001
0100
0000
0001
0010
0100
,  // measure 9
0000
0100
1000
0100
0000
1000
0010
0000
1000
0000
0100
0000
0010
0000
0001
0000
,  // measure 10
0100
0000
0001
0010
0000
0001
0000
0100
0000
0100
0010
1000
0000
1000
0100
0010
,  // measure 11
0001
0000
0001
0100
0000
0010
0000
0100
0000
0010
0000
0010
1000
0010
0100
0010
,  // measure 12
1000
0100
1000
0001
0000
0001
1000
0100
0000
1000
0001
1000
0000
0100
1000
0100
,  // measure 13
0010
0000
0000
0001
0000
0000
0100
0000
0000
0010
0000
0000
1000
0000
0000
0001
0000
0000
0100
0000
0001
0000
1000
0000
,  // measure 14
0010
0100
0000
1000
0001
1000
0000
0100
0000
0000
0100
0000
0010
0000
1000
0000
,  // measure 15
0100
1000
0000
0001
0010
0001
0000
1000
0000
0000
1000
0000
0100
0000
0010
0000
,  // measure 16
0001
0010
0000
0100
1000
0001
0000
0010
0000
0000
0100
0000
0010
0000
1000
0000
,  // measure 17
0001
0100
0000
0010
0100
0010
1000
0100
0010
0000
0010
0001
0000
0001
1000
0000
,  // measure 18
0100
1000
0000
0100
0010
0001
0000
1000
0000
0000
1000
0000
0001
0000
0010
0000
,  // measure 19
0001
0100
0000
0010
0100
1000
0000
0100
0000
0000
0001
0000
1000
0000
0100
0000
,  // measure 20
0010
0001
0000
0010
0100
0010
0000
0001
0000
0000
0010
0000
1000
0000
0001
0000
,  // measure 21
0010
0001
0000
0100
1000
0100
0000
0001
0000
0000
1000
0000
0001
0000
0100
0000
,  // measure 22
0110
0000
0000
1000
0100
1000
0100
1000
0000
0000
0000
0000
0100
0000
0010
0000
,  // measure 23
0001
0000
0000
0010
0001
0010
0001
0010
0000
0000
0000
0000
0100
0000
0010
0000
,  // measure 24
0000
0000
0000
0100
0010
0100
0010
0100
0000
0000
0000
0000
0001
0000
1000
0000
,  // measure 25
0002
0010
0023
0100
0230
1000
2300
0100
,  // measure 26
3100
0000
0100
1000
0100
0010
0001
0010
0000
0000
0100
0000
0001
0000
0010
0000
,  // measure 27
0001
0000
0100
0001
0010
0001
0010
0001
0000
0000
0100
0000
0100
0000
0001
0000
,  // measure 28
1000
0000
0010
1000
0100
1000
0100
1000
0000
0000
1000
0000
0100
0000
1000
0000
,  // measure 29
0000
0011
0000
0000
1010
0000
0000
1001
0000
0000
0000
0001
0020
0000
0230
0000
,  // measure 30
0310
0100
0010
0001
0000
1000
0000
0001
0000
0000
0100
0000
0010
0000
0100
0000
,  // measure 31
0001
0100
0010
1000
0000
0010
0000
1000
0000
0000
0100
0000
0010
0000
0001
0000
,  // measure 32
1000
0001
1000
0010
0000
0010
0100
0001
0000
0001
1000
0010
0000
0000
0100
0000
,  // measure 33
0001
1000
0001
0100
0000
0010
1000
0000
0001
0000
0010
0000
0100
0000
1000
0000
,  // measure 34
0100
1000
0100
0010
0000
0100
0000
0001
0000
0000
0010
0000
0001
0000
0100
0000
,  // measure 35
0010
1000
0100
0010
0000
0001
0000
0010
0000
0000
0100
0000
0010
0000
0010
0000
,  // measure 36
0110
1000
1000
0001
0100
0001
0010
0000
,  // measure 37
1001
0001
0010
0001
0100
0010
1000
0000
,  // measure 38
0110
0001
0100
0001
0100
0001
1000
0100
,  // measure 39
1001
0010
0100
0001
0100
0001
0010
0010
,  // measure 40
0001
1000
0001
0100
0000
0010
0000
0010
0000
0000
0100
0000
0010
0000
0100
0000
,  // measure 41
0001
1000
0010
0100
0000
0010
0000
0100
0000
0000
1000
0000
0010
0000
0100
0000
,  // measure 42
0001
0010
0100
1000
0000
1000
0000
0100
0000
0100
0001
0010
0000
0010
0001
1000
,  // measure 43
0000
0100
0010
0001
0000
1000
0001
1000
0100
0000
0100
0000
0010
0000
0010
0000
,  // measure 44
0010
0100
0001
0010
0000
0100
0000
1000
0000
0000
0010
0000
0001
0000
1000
0000
,  // measure 45
0100
1000
0100
0001
0000
1000
0000
0010
0000
0000
0100
0000
0010
0000
0001
0000
,  // measure 46
0100
0001
0100
0001
0000
0100
0010
1000
0000
0100
0010
0001
0000
1000
0001
1000
,  // measure 47
0100
0000
0010
0000
0100
0000
0010
0000
0001
0000
0100
0000
1000
0100
0001
0000
,  // measure 48
1001
0000
0000
0000
;
