#TITLE:CLIO;
#SUBTITLE:;
#ARTIST:co-ping;
#TITLETRANSLIT:;
#SUBTITLETRANSLIT:;
#ARTISTTRANSLIT:;
#GENRE:;
#CREDIT:;
#MENUCOLOR:;
#NEWMETERSYSTEM:NO;
#BANNER:CLIO-bn.png;
#BACKGROUND:CLIO-bg.png;
#LYRICSPATH:;
#CDTITLE:MixMania II CD Title.png;
#MUSIC:CLIO.mp3;
#OFFSET:-1.240;
#SAMPLESTART:76.000;
#SAMPLELENGTH:12.000;
#SELECTABLE:YES;
#LISTSORT:;
#BPMS:0.000=69.000,16.000=138.000;
#STOPS:16.000=1.740
;
#BGCHANGES:;
#ATTACKS:;

//---------------dance-single - ----------------
#NOTES:
     dance-single:
     :
     Easy:
     3:
     0.217,0.270,0.100,0.235,0.000:
0000
0000
0000
0000
,
2100
0000
0010
3000
,
0012
0100
0100
0003
,
2001
0010
0001
0000
,
3001
1000
0001
0001
,
0200
0000
0300
0000
,
1000
0001
0010
0010
,
2000
0000
3000
0000
,
0100
0010
0001
0001
,
2000
0000
3000
0000
,
1000
0100
0010
0001
,
0002
0000
0003
0000
,
1002
0000
0003
0000
,
2001
0000
3000
0000
,
1020
0000
0030
0000
,
0201
0000
0300
1000
,
0100
0000
0001
0010
,
0001
0000
0100
0000
,
2000
3000
0020
0030
,
0002
0003
0200
0300
,
0020
1030
2000
3001
,
0010
0000
1000
0000
,
1001
0000
1000
0100
,
1000
0000
0010
0001
,
0011
0000
0001
1000
,
0100
0000
1000
0000
,
0010
0000
0001
1000
,
0001
0000
0100
0010
,
0110
0000
0010
1000
,
0001
0000
0010
0100
,
0200
0000
0300
1000
,
0002
0000
0003
0010
,
0200
0000
0300
1000
,
0002
0000
0203
0000
,
0310
0000
0001
1000
,
0020
0000
0031
0010
,
0002
0000
0003
0000
,
0100
0000
0010
1000
,
1001
0000
0001
0000
,
0010
0000
1000
0100
,
1000
0000
0100
0000
,
0010
0000
0001
0010
,
0001
0000
0100
0000
,
1000
0000
0100
1000
,
0010
0000
0100
0000
,
0020
0000
0000
0030
,
0100
1000
0100
0001
,
0100
0000
0010
0001
,
0010
0000
1000
0000
,
0100
0000
1000
0001
,
0010
0001
1000
0100
,
1000
0000
0100
0000
,
1000
0000
0010
0000
,
0001
0000
0100
1000
,
0002
0003
0000
0000
;

//---------------dance-single - Copied from----------------
#NOTES:
     dance-single:
     Copied from:
     Beginner:
     1:
     0.112,0.147,0.045,0.018,0.000:
0000
0000
0000
0000
,
0000
0000
0000
0000
,
0010
0000
0010
0000
,
0100
0000
0100
0000
,
0100
0000
0000
0000
,
1000
0000
0000
0000
,
0001
0000
0000
0000
,
0010
0000
0000
0000
,
0010
0000
0000
0000
,
0100
0000
0000
0000
,
0001
0000
0000
0000
,
0010
0000
0000
0000
,
1001
0000
0000
0000
,
1001
0000
0000
0000
,
0110
0000
0000
0000
,
0110
0000
0000
0000
,
2000
0000
3000
0000
,
0002
0000
0003
0000
,
0010
0000
0000
1000
,
1000
0000
0000
0100
,
0100
0000
0000
0001
,
0001
0000
0001
0000
,
0001
0000
0000
1000
,
1000
0000
0000
0010
,
0010
0000
0000
0100
,
0100
0000
0000
0001
,
0001
0000
0000
0010
,
0010
0000
0000
1000
,
1000
0000
0000
0000
,
0001
0000
1000
0000
,
0001
0000
0000
0010
,
0010
0000
0000
0100
,
0100
0000
0000
0010
,
0010
0000
1000
0000
,
0001
0000
0000
1000
,
1000
0000
0000
0100
,
0100
0000
0000
0000
,
0000
0000
0000
0000
,
1001
0000
0000
1000
,
0000
0001
0000
1000
,
0000
0010
0000
0010
,
0000
1000
0000
1000
,
1000
0000
0000
0010
,
0010
0000
0000
0000
,
0001
0000
0000
0000
,
0010
0000
0000
0000
,
0100
0000
0000
1000
,
1000
0000
0000
0000
,
0001
0000
0000
0010
,
0010
0000
0000
0000
,
0100
0000
0000
0010
,
0010
0000
0000
0000
,
0010
0000
0000
0001
,
0001
0000
0000
0000
,
0100
0000
0000
0000
;

//---------------dance-single - Copied from----------------
#NOTES:
     dance-single:
     Copied from:
     Medium:
     5:
     0.312,0.320,0.100,0.262,0.000:
0000
0000
0000
0000
0000
0000
0000
0100
,
0200
0000
0000
1000
2000
0000
3300
0000
,
0100
0000
0010
0001
0020
0000
0000
0001
,
0002
0030
0000
0010
0200
0000
0303
0000
,
1001
0000
0000
0000
1000
0000
0000
0001
,
1000
0000
0001
0010
,
0100
0000
0000
0100
1000
0100
0000
1000
,
0001
0100
0010
0100
,
1000
0000
0001
0000
0100
0000
0000
0010
,
0001
0000
0100
1000
,
0010
0000
0000
0000
1000
0000
0100
0001
,
0010
0100
0001
1000
,
0010
0000
0000
1000
0000
2000
0000
3001
,
0000
0100
1000
0010
,
0100
0000
0000
0001
0000
0002
0000
1003
,
0000
1000
0001
0010
,
0001
0000
0000
0100
0000
0020
0000
0130
,
0000
0010
1000
0100
,
1000
0001
0010
0100
,
1000
0001
1000
0100
,
0010
0001
1000
0010
,
0002
0000
0000
2003
0000
0000
3010
0000
,
1100
0100
0001
0020
,
0032
0000
0103
0000
0010
0000
1000
0100
,
2000
0000
3100
0000
1000
0000
0010
1000
,
0200
0000
0301
0000
0010
0000
0001
0010
,
0002
0000
0103
0000
0010
0000
0010
1000
,
0200
0000
1300
0000
0001
0000
0010
0001
,
2000
3100
1000
0010
,
0100
0000
0001
0000
0010
0000
0100
0010
,
0002
0013
1000
0020
,
2030
0000
3100
0000
1000
0000
0010
1000
,
0200
1300
0100
0010
,
0002
0000
0003
2000
0000
3000
0100
0000
,
1000
0000
0100
0000
1000
0000
0010
1000
,
0002
0000
1003
0000
0100
0000
0010
0001
,
2000
3000
0200
0300
,
0020
0000
0030
0001
0000
0000
1000
0000
,
0110
0000
0000
1000
0000
0000
0100
0000
,
1000
0100
0010
0001
,
0010
0000
0000
0001
0000
0000
0000
0000
,
1001
0000
0000
0000
0010
0000
1000
0100
,
1000
0000
0000
0100
0000
0000
0010
0000
,
0001
0000
0000
0000
0100
0000
0001
0010
,
0001
0000
0000
0100
0000
0000
0001
0000
,
1000
0000
1100
0110
,
0011
0100
1000
0100
,
0010
0001
1000
0001
,
0010
0000
0000
0100
0000
0000
0000
0000
,
0011
0000
0100
0001
,
1000
0000
0000
0010
0000
0000
0100
0000
,
1000
0100
1000
0010
,
0100
0000
0000
1000
0000
0000
0011
0000
,
0101
0010
1000
0001
,
0220
0000
0000
0330
0000
0000
0000
0000
;

//---------------dance-single - Copied from Copied f----------------
#NOTES:
     dance-single:
     Copied from Copied f:
     Hard:
     7:
     0.378,0.417,0.081,0.127,0.023:
0000
0000
0000
0000
0000
0000
0000
0001
,
2000
0000
0010
0001
3200
0000
1000
0300
,
2200
0000
0300
0010
3200
0000
0000
1000
,
2300
0000
0100
0100
3020
0000
0200
0030
,
0301
0000
0000
0000
1000
0000
0000
0000
0001
0000
0000
1000
0000
0000
0100
0000
,
1000
0000
0010
0000
0100
0001
0010
0000
,
0001
0000
0100
0001
0010
0001
0000
0001
,
1000
0000
0100
1000
0100
0000
1000
0000
,
0100
0000
0000
0000
0010
0000
0001
0000
1000
0000
0000
0100
0000
0000
0010
0000
,
0001
0000
0100
0001
0010
0100
0100
1000
,
0100
0000
1000
0000
0100
0000
0010
0001
,
0010
0000
0100
0001
0000
0100
1000
0000
,
0100
1000
0100
0010
0000
0010
0001
0100
,
0000
0100
0001
1000
,
0010
0001
0010
0100
0000
0100
1000
0100
,
0000
0010
1000
0100
,
0001
0000
0000
1000
0000
0001
1000
0010
,
0000
0100
1000
0100
,
0010
0000
0000
0000
0001
0000
0000
0010
0000
0000
0001
0000
0000
0000
0100
0000
,
0001
0000
0000
0000
1000
0000
0000
0100
0000
0000
1000
0000
0000
0000
0100
0000
,
1000
0000
0000
0000
0100
0000
0000
0010
0000
0000
0100
0000
0000
0000
0010
0000
,
0200
0000
0000
0002
0000
0000
0303
0000
,
0100
0000
1000
0100
0001
0000
0010
0000
,
0001
0000
0100
0010
1000
0000
0100
1000
,
0100
0000
0001
0100
1000
0000
0010
0001
,
0100
0000
0010
1000
0000
1000
0100
0000
,
1000
0000
0001
0000
0100
1000
0010
0000
,
0101
0000
1000
0000
0100
0001
0010
0000
,
1100
0000
1000
0000
0001
0000
0100
0010
,
0002
0000
0013
0200
0000
1300
0000
0100
,
1000
0000
0100
0000
1000
0100
0010
0000
,
0001
0000
0010
0000
0001
0000
0100
0001
,
0010
0000
0100
0000
1000
0000
1000
0100
,
0010
0000
0010
0001
0000
0001
0010
0100
,
0001
0000
0100
0000
0010
1000
0001
0100
,
0010
0000
0100
0001
0100
0010
1000
0100
,
0010
1000
0100
0001
,
0010
0000
0001
0100
0000
0001
1000
0000
,
0100
0000
1000
0100
0010
0000
0001
0000
,
0100
0000
0001
0000
0010
0001
0100
0000
,
0010
0000
1000
0100
1000
0000
0100
0000
,
1001
0000
0100
0000
1000
0100
0010
0000
,
0001
0000
1000
0000
0010
0000
0001
1000
,
0010
0000
0100
0000
1000
1000
0000
0001
,
0100
0000
0000
1100
0000
0000
0101
0000
,
1001
0000
0100
0000
1000
0100
0010
0001
,
0010
0000
0001
1000
0100
0000
1000
0000
,
0001
0000
0010
0000
0100
0000
0010
0001
,
0100
0000
0010
1000
0100
0000
1000
0000
,
1001
0000
0100
0000
1000
0010
0001
0000
,
0100
0000
0001
0010
0100
0000
1000
0000
,
0001
0000
0100
0000
0001
0000
0010
0100
,
1000
0000
0100
1000
0100
0000
1000
0000
,
0001
0000
0100
0000
0010
0001
0010
0000
,
2200
3300
0000
0000
;

//---------------dance-single - Copied from Copied f----------------
#NOTES:
     dance-single:
     Copied from Copied f:
     Challenge:
     8:
     0.508,0.566,0.181,0.091,0.131: // measure 1
0000
0000
0000
0000
,  // measure 2
1000
0100
0010
0001
1000
0100
0010
0001
1000
0100
0010
0001
1000
0100
0010
0001
,  // measure 3
1000
0000
0000
0001
0000
0000
0010
0000
0100
0000
0000
0000
1000
0000
0001
0000
0010
0000
0000
0100
0000
0000
0010
0000
1000
0000
0000
0000
0000
0000
0100
0000
,  // measure 4
0100
0000
0000
1000
0000
0000
0001
0000
1000
0000
0000
0000
0100
0000
0010
0000
0001
0000
0000
0000
0010
0000
0000
0000
0100
0000
0000
0000
0010
0000
0000
0000
,  // measure 5
2200
3300
0000
0000
0000
0000
0000
0000
0100
0000
0000
0000
1000
0000
0000
0000
0010
0000
0000
0000
0000
0000
0100
0000
0000
0000
0000
0000
0001
0000
0000
0000
,  // measure 6
0010
0000
0100
0001
0010
0100
1000
0100
,  // measure 7
1000
0000
0100
1000
0010
0100
0000
0001
,  // measure 8
0010
0000
0100
0001
0010
0000
0100
0001
,  // measure 9
0100
0000
0000
0000
0010
0000
1000
0000
0100
0000
0000
0100
0000
0000
0010
0000
,  // measure 10
0001
0000
0100
0001
0010
0100
1000
0001
,  // measure 11
0100
0000
1000
0000
0100
1000
0010
0100
,  // measure 12
0001
0000
0010
0001
0000
0001
0100
0010
,  // measure 13
1000
0100
1000
0100
0000
0100
0010
0001
,  // measure 14
0000
0000
0100
0000
0001
1000
0010
0100
,  // measure 15
0001
0010
0001
0010
0000
0010
0100
1000
,  // measure 16
0000
0000
1000
0000
0001
1000
0100
1000
,  // measure 17
0010
0000
0010
0100
0000
0100
0001
0010
,  // measure 18
0000
0000
0100
0000
1000
0001
1000
0010
,  // measure 19
0100
0000
0000
0000
1000
0000
0000
0100
0000
1000
0100
0000
0000
0000
0100
0000
,  // measure 20
0010
0000
0000
0000
0001
0000
0000
0100
0000
0001
0100
0000
0000
0000
0010
0000
,  // measure 21
0100
0000
0000
0000
0010
0000
0000
0001
0000
1000
0001
0000
0000
0000
0100
0000
,  // measure 22
2000
0000
3000
0020
0000
0031
0100
0000
,  // measure 23
1000
0000
0100
1000
0010
0000
0101
0000
,  // measure 24
1010
0000
0100
1000
0010
0000
0100
1000
,  // measure 25
0100
0000
0010
0001
0100
0010
1000
0100
,  // measure 26
0010
0000
0010
0100
0000
1000
0100
1000
,  // measure 27
0010
0000
0001
1000
0100
0010
0100
0010
,  // measure 28
0001
0000
0100
1000
0010
0100
0001
0010
,  // measure 29
0100
0000
0001
0000
1000
0000
0100
1000
,  // measure 30
0010
0000
0000
0000
0010
0000
0001
0000
0000
0000
0001
0000
0000
0000
0001
0010
,  // measure 31
0100
0000
1000
0000
0100
1000
0010
0000
,  // measure 32
1010
0000
0100
0000
1000
0100
0010
0001
,  // measure 33
0010
0000
0100
0000
0001
1000
0110
0110
,  // measure 34
1010
0000
0001
0101
0000
1000
0100
0010
,  // measure 35
0110
0000
1000
0000
0100
1000
0100
0010
,  // measure 36
0001
0000
0100
0001
0010
0001
1000
0100
,  // measure 37
2000
3002
2003
3002
,  // measure 38
2003
0000
3001
0011
0100
0010
1010
0000
,  // measure 39
0100
1000
0100
0010
0100
0010
0001
0010
,  // measure 40
0100
0010
0100
1000
1000
0001
0010
0100
,  // measure 41
0010
0001
0010
0100
1000
0001
0010
0100
,  // measure 42
1000
0100
0010
0001
0010
0010
0100
1000
,  // measure 43
0110
0000
0000
0000
0000
0000
0011
0000
1000
0000
0000
0000
0100
0000
1000
0010
,  // measure 44
0100
0000
1000
0100
0110
0000
0011
0000
,  // measure 45
1010
0000
0100
0011
1000
0000
0110
1000
,  // measure 46
0110
0001
0100
0010
1000
0100
1000
0001
,  // measure 47
1100
0001
0010
0100
1000
0010
0100
0010
,  // measure 48
0100
0001
0010
0100
0010
0001
0010
0001
,  // measure 49
1000
0100
1000
0010
0100
0001
1000
0100
,  // measure 50
0010
0001
1000
0001
0010
0001
0100
0010
,  // measure 51
0100
0001
1000
0100
0010
0001
0010
0100
,  // measure 52
1000
0100
0010
0001
1000
0100
1000
0010
,  // measure 53
0100
0001
0010
0100
1000
0001
0100
0010
,  // measure 54
1000
0000
0100
0000
1000
0000
0001
0000
1000
0000
0001
0000
0100
0010
0100
0010
,  // measure 55
0200
0000
0000
0300
0000
0000
0000
0000
;
