#TITLE:Back Into The Light;
#SUBTITLE:-Feelings Won't Fade Vocal Mix-;
#ARTIST:Sota Fujimori;
#TITLETRANSLIT:;
#SUBTITLETRANSLIT:;
#ARTISTTRANSLIT:;
#GENRE:;
#CREDIT:;
#MENUCOLOR:;
#NEWMETERSYSTEM:NO;
#BANNER:Back Into The Light -Feelings Won't Fade Vocal Mix-bn.png;
#BACKGROUND:Back Into The Light -Feelings Won't Fade Vocal Mix-bg.png;
#LYRICSPATH:;
#CDTITLE:MixMania II CD Title.png;
#MUSIC:Back Into The Light -Feelings Won't Fade Vocal Mix-.mp3;
#OFFSET:-0.020;
#SAMPLESTART:79.720;
#SAMPLELENGTH:12.000;
#SELECTABLE:YES;
#LISTSORT:;
#BPMS:0.000=144.000;
#STOPS:;
#BGCHANGES:;
#ATTACKS:;

//---------------dance-single - ----------------
#NOTES:
     dance-single:
     :
     Easy:
     2:
     0.201,0.239,0.016,0.074,0.000: // measure 1
0000
0000
0000
0000
,  // measure 2
0000
0000
0000
0000
,  // measure 3
0000
0000
0000
0000
,  // measure 4
0000
0000
0000
0000
,  // measure 5
1000
0000
0001
0000
,  // measure 6
1000
0000
0010
0000
,  // measure 7
0100
0000
0001
0000
,  // measure 8
0020
0000
0000
0100
,  // measure 9
0130
1000
0000
0001
,  // measure 10
0000
0100
0000
1000
,  // measure 11
0010
1000
0000
0100
,  // measure 12
0000
1000
0000
0100
,  // measure 13
0010
0001
0000
0010
,  // measure 14
0000
0001
0000
0100
,  // measure 15
1000
0100
0000
0010
,  // measure 16
0000
0100
0000
0001
,  // measure 17
0100
1000
0000
0100
,  // measure 18
0000
1000
0000
0100
,  // measure 19
0010
1000
0000
0100
,  // measure 20
0000
1000
0000
0010
,  // measure 21
0100
0001
0000
0010
,  // measure 22
0000
0001
0000
1000
,  // measure 23
0001
1000
0000
0100
,  // measure 24
0000
0010
0000
1000
,  // measure 25
0100
0010
0001
0000
,  // measure 26
0010
0000
0100
1000
,  // measure 27
0100
0000
1000
0000
,  // measure 28
0010
0000
0001
0010
,  // measure 29
0100
0000
1000
0000
,  // measure 30
0001
0000
0010
0000
,  // measure 31
0200
0000
0000
0000
,  // measure 32
0300
0000
0010
1000
,  // measure 33
0100
0000
1000
0000
,  // measure 34
0100
0000
0001
0010
,  // measure 35
0100
0000
1000
0000
,  // measure 36
0001
0000
1000
0100
,  // measure 37
0001
0000
0010
0000
,  // measure 38
0100
0000
0001
1000
,  // measure 39
0100
0000
0010
0000
,  // measure 40
0002
0000
0000
1000
,  // measure 41
1003
0000
0100
0000
,  // measure 42
0010
0000
1000
0001
,  // measure 43
1000
0000
0100
0000
,  // measure 44
0010
0000
1000
0000
,  // measure 45
0010
0000
0100
0000
,  // measure 46
1000
0000
0100
0010
,  // measure 47
0001
0000
0100
0000
,  // measure 48
0020
0000
0200
0330
,  // measure 49
1001
0000
1000
0000
,  // measure 50
0100
0000
1000
0100
,  // measure 51
0100
0000
1000
0000
,  // measure 52
0010
0000
0100
0001
,  // measure 53
0010
0000
0001
0000
,  // measure 54
0100
0000
0010
0100
,  // measure 55
0010
0000
1000
0000
,  // measure 56
0001
0000
0100
1000
,  // measure 57
0100
0000
1000
0000
,  // measure 58
0100
0000
0010
0100
,  // measure 59
1000
0000
0100
0000
,  // measure 60
1000
0000
0100
1000
,  // measure 61
0001
0000
1000
0000
,  // measure 62
0010
0000
1000
0100
,  // measure 63
0010
0000
0100
0000
,  // measure 64
0001
0000
0010
0001
,  // measure 65
0010
0000
0100
0000
,  // measure 66
0001
0000
1000
0000
,  // measure 67
0100
0000
0010
0000
,  // measure 68
1000
0000
0001
0000
,  // measure 69
1000
0000
0100
0000
,  // measure 70
0010
0000
0100
0000
,  // measure 71
1000
0000
0100
0000
,  // measure 72
0002
0003
0200
0300
,  // measure 73
2002
0000
0000
3003
;

//---------------dance-single - Copied from----------------
#NOTES:
     dance-single:
     Copied from:
     Beginner:
     1:
     0.112,0.178,0.025,0.074,0.000:
0000
0000
0000
0000
,
0000
0000
0000
0000
,
0000
0000
0000
0000
,
0000
0000
0000
0000
,
0220
0000
0000
0000
,
0000
0000
0330
0000
,
2002
0000
0000
0000
,
0000
0000
3003
0000
,
0000
1000
0000
0001
,
0000
1000
0000
0001
,
0000
0010
0000
0100
,
0000
0010
0000
0100
,
0000
1000
0000
0100
,
0000
0010
0000
0001
,
0000
0001
0000
0010
,
0000
0100
0000
1000
,
0000
0010
0000
0100
,
0000
0001
0000
0010
,
0000
1000
0000
0001
,
0000
1000
0000
0010
,
0000
0100
0000
1000
,
0000
0001
0000
0010
,
0000
0100
0000
0001
,
0000
1000
0000
0010
,
0010
0000
0000
0000
,
0100
0000
0000
0000
,
0001
0000
0000
0000
,
0010
0000
0000
0000
,
1000
0000
0000
0000
,
0001
0000
0000
0000
,
1000
0000
0000
0000
,
0000
0000
0000
0000
,
0110
0000
0000
0000
,
1000
0000
0000
0000
,
0001
0000
0000
0000
,
0010
0000
0000
0000
,
0100
0000
0000
0000
,
0001
0000
0000
0000
,
1000
0000
0000
0000
,
0100
0000
0000
0000
,
2000
0000
0000
0000
,
3000
0000
0000
0000
,
0002
0000
0000
0000
,
0003
0000
0000
0000
,
0020
0000
0000
0000
,
0030
0000
0000
0000
,
0200
0000
0000
0000
,
0300
0000
0000
0000
,
0100
0000
0010
0000
,
1000
0000
0100
0000
,
0001
0000
0000
0000
,
1000
0000
0000
0100
,
0100
0000
0000
0000
,
1000
0000
0000
0000
,
0010
0000
0000
0000
,
0001
0000
0100
0000
,
0010
0000
0000
0000
,
1000
0000
0000
0000
,
0100
0000
0000
0000
,
1000
0000
0000
0001
,
0001
0000
0000
0000
,
1000
0000
0000
0000
,
0010
0000
0000
0000
,
0100
0000
0000
0000
,
1000
0000
0000
0000
,
0001
0000
0000
0000
,
0010
0000
0000
0000
,
0100
0000
0000
0000
,
1000
0000
0000
0000
,
0100
0000
0000
0000
,
0001
0000
0000
0000
,
0010
0000
0000
0000
,
2000
3000
0000
0000
;

//---------------dance-single - Copied from----------------
#NOTES:
     dance-single:
     Copied from:
     Medium:
     4:
     0.281,0.389,0.074,0.099,0.004:
0000
0000
0000
0000
,
0000
0000
0000
0000
,
0000
0000
0000
0000
,
0000
0000
0000
0000
,
1000
0100
1000
0001
,
0100
0010
1000
0100
,
0001
1000
0010
0100
,
0002
0000
2000
3003
,
0010
0100
1000
0100
,
0001
0000
1000
0000
,
0010
1000
0100
0010
,
0100
0000
0001
0000
,
0010
0001
0100
0010
,
1000
0000
0100
0000
,
1000
0100
0010
0001
,
1000
0000
0100
0000
,
0010
0100
0010
0001
,
0100
0000
1000
0000
,
1000
0001
0100
0010
,
1000
0000
0100
0000
,
0001
0010
0100
0001
,
0010
0000
1000
0000
,
0100
1000
0001
0100
,
0010
0000
0100
0000
,
1001
0000
0010
0001
,
0100
0010
1000
0000
,
0001
0000
1000
0100
,
0001
0000
0010
0100
,
0010
0000
0001
0000
,
1000
0001
0100
1000
,
0010
0000
0100
0000
,
1000
0100
1000
0100
,
0010
0000
0001
0100
,
1000
0001
0100
0001
,
0010
0000
1000
0100
,
0001
0000
0010
0001
,
1000
0000
0010
0000
,
0100
0010
0100
1000
,
0100
0010
0001
0010
,
0100
0000
0000
0010
,
1001
0000
0100
0000
,
0010
0000
0100
1000
,
1001
0000
0010
0000
,
0100
0001
0010
0100
,
1001
0000
0010
0000
,
0001
0000
0100
0001
,
1001
0100
0001
0010
,
1001
1000
0110
0001
,
1001
0010
0100
0010
,
0200
0000
0010
0301
,
0010
0100
0001
1000
,
0020
0000
0100
1030
,
0100
1000
0010
0100
,
2000
0000
0100
3001
,
0010
0100
0001
0010
,
0002
0000
0100
1003
,
0010
0100
1000
0001
,
0200
0000
0010
0310
,
0100
0001
1000
0010
,
0020
0000
0100
0130
,
0001
1000
0100
0001
,
0002
0000
0010
0013
,
0100
0001
0010
0100
,
2000
0000
0100
3100
,
0010
0000
1000
0100
,
0001
0000
0010
0001
,
1000
0000
0100
0010
,
1000
0000
0100
0001
,
1000
0100
1000
0000
,
0001
0100
0010
0000
,
0100
1000
0100
0010
,
0001
0000
0000
0000
1000
0000
0000
0001
0000
0000
1000
0000
0000
0000
0000
0000
,
2002
0000
0000
3003
;

//---------------dance-single - Copied from----------------
#NOTES:
     dance-single:
     Copied from:
     Hard:
     6:
     0.359,0.329,0.041,0.049,0.037:
0000
0000
0000
0000
,
0000
0000
0000
0000
,
0000
0000
0000
0000
,
0000
0000
0000
0000
0000
0000
0100
0100
,
0100
0000
1000
0000
0100
0000
0010
0001
,
0010
0000
0100
0000
0001
0000
1000
0010
,
0100
1000
0001
0100
,
2002
0000
0000
3003
,
0010
0100
1000
0000
0100
0000
1000
0000
,
1000
0010
0001
0000
0100
0000
0001
0000
,
0010
0001
0100
0000
1000
0000
0100
0000
,
1000
0001
0010
0000
1000
0000
0001
0000
,
0100
1000
0001
0000
0100
0000
0010
0000
,
0001
0010
0100
0000
0001
0000
1000
0000
,
0100
1000
0010
0000
0100
0000
0010
0000
,
0001
0010
0001
0000
1000
0000
0100
0000
,
0010
1000
0100
0000
1000
0000
0010
0000
,
0100
1000
0001
0000
0100
0000
1000
0000
,
0010
0001
0010
0000
0001
0000
0100
0000
,
0010
1000
0010
0000
0100
0000
1000
0000
,
0001
1000
0001
0000
0100
0000
0010
0000
,
1000
0010
0100
0000
0001
0000
1000
0000
,
0100
1000
0010
0000
0100
0000
1000
0000
,
0001
0010
0001
0000
0100
0000
0001
0000
,
1000
0000
0100
0000
1000
0000
0010
1000
,
0000
0000
1000
0100
0000
1000
0000
0010
,
1000
0000
0100
0000
1000
0000
0100
0010
,
0000
0000
0100
0000
0001
0000
0010
0001
,
0000
0100
0000
0001
0000
0000
0010
0000
,
0100
0000
0001
0100
0000
1000
0000
0100
,
0000
1000
0000
0100
0000
0000
0010
0000
,
0100
0000
0010
0000
0100
1000
0001
0000
,
0100
0000
0010
0000
0001
0000
0010
0001
,
0000
0000
0100
0010
0000
0001
0000
1000
,
0000
0000
1000
0000
0100
0000
0010
1000
,
0000
0000
0000
0000
0001
0000
0000
0000
1000
0000
0000
0010
0000
0000
1000
0000
,
0000
0100
0000
0010
0000
0001
0001
0001
,
0000
1000
0001
0000
0010
0000
0100
0000
,
0001
1000
0100
0010
,
2002
0000
0000
0000
3003
0000
0010
0100
,
0010
0000
0000
0100
0000
0000
1000
0000
,
0000
0000
0100
0000
1000
0000
0100
0010
,
0001
0000
0000
0010
0000
0000
0100
0000
,
0000
0001
0000
1000
0000
0000
0000
0000
,
0100
0000
0000
1000
0000
0010
0000
0010
,
0000
0000
0000
0000
0100
0000
1000
0100
,
0001
0000
0010
0001
0000
0000
0010
0000
,
0100
0000
1000
0100
0000
1000
0000
1001
,
0000
0110
0000
0000
1000
0000
0100
0000
,
0001
0000
0000
0000
0010
0000
0000
0000
0001
0000
0000
0010
0000
0000
0001
0000
,
0010
1000
0001
1000
,
0100
0000
1000
0000
0010
1000
0000
0001
,
1000
0000
0000
0100
0000
0000
1000
0000
,
0010
0000
0100
0000
1000
0000
0010
0100
,
0001
0000
0100
0001
0000
0000
0010
0000
,
0001
0000
1000
0001
0000
1000
0000
0100
,
1000
0010
0100
1000
,
0100
0000
0000
0000
0010
0000
0000
0000
0001
0000
0000
0010
0000
0000
0100
0000
,
1000
0100
1000
0100
,
0010
0000
1000
0000
0100
1000
0000
0100
,
0010
0000
0001
0000
0100
0000
0010
0100
,
0010
1000
0001
0100
,
0001
0000
0000
0010
0000
0000
0001
0000
0000
0000
0100
0000
0000
0000
0000
0000
,
0010
0000
0000
1000
0000
0000
0010
0000
0000
0000
1000
0000
0100
0000
1000
0000
,
0000
0100
1000
0010
,
0100
0001
0010
0100
,
1000
0100
1000
0001
,
0010
0100
0010
0001
,
1000
0000
0000
0000
0100
0000
0000
0010
0000
0000
0001
0000
0000
0000
0000
0000
,
0010
0000
0000
0000
0010
0000
0000
1000
0000
0000
0100
0000
0000
0000
0000
0000
,
0100
0000
0000
0000
1000
0000
0000
0010
0000
0000
0100
0000
0000
0000
0000
0000
,
0010
0000
0000
0000
0001
0000
0000
0100
0000
0000
1000
0000
0000
0000
0000
0000
,
0220
0000
0000
0330
;

//---------------dance-single - Copied from Copied f----------------
#NOTES:
     dance-single:
     Copied from Copied f:
     Challenge:
     8:
     0.524,0.508,0.238,0.181,0.181:
0000
0000
0000
0000
,
0000
0000
0000
0000
,
0000
0000
0000
0000
,
0000
0000
0000
0000
,
1000
0100
0001
0100
1000
0100
0001
0100
,
1000
0010
0001
0010
1000
0010
0001
0010
,
1000
0100
0001
0100
1000
0100
0010
0001
,
0200
0000
0000
0000
0010
0000
0010
0300
,
0010
0000
1000
0000
0100
0000
0000
0010
0000
0010
0000
0000
0001
0000
0010
0000
,
0100
0000
1000
0000
1000
0000
0000
0100
0000
0100
0000
0000
1000
0000
0001
0000
,
1000
0000
0010
0000
0100
0000
0000
0001
0000
0001
0000
0000
0010
0000
0100
0000
,
0010
0000
0001
0000
0100
0000
0000
1000
0000
1000
0000
0000
1000
0000
0100
0000
,
0001
0000
0100
0000
0001
0000
0000
0001
0000
0001
0000
0000
0100
0000
1000
0000
,
0100
0000
0010
0000
0100
0000
0000
0010
0000
0010
0000
0000
1000
0000
0100
0000
,
0010
0000
0001
0000
0010
0000
0000
0100
0000
0100
0000
0000
1000
0000
0001
0000
,
0010
0000
0001
0000
1000
0000
0000
0001
0000
0001
0000
0000
0100
0000
0010
0000
,
1000
0000
0100
0000
0010
0000
0000
0100
0000
0100
0000
0000
0001
0000
1000
0000
,
0010
0000
0100
0000
0100
0000
0000
1000
0000
1000
0000
0000
0100
0000
0001
0000
,
0100
0000
1000
0000
0010
0000
0000
0001
0000
0001
0000
0000
1000
0000
0010
0000
,
1000
0000
0001
0000
0010
0000
0000
0100
0000
0100
0000
0000
0100
0000
0010
0000
,
0001
0000
0010
0000
0001
0000
0000
0001
0000
0001
0000
0000
0010
0000
0100
0000
,
0010
0000
1000
0000
0010
0000
0000
1000
0000
1000
0000
0000
0100
0000
0010
0000
,
1000
0000
0001
0000
1000
0000
0000
0010
0000
0010
0000
0000
0100
0000
0001
0000
,
1000
0000
0001
0000
0100
0000
0000
0001
0000
0001
0000
0000
0010
0000
1000
0000
,
0001
1100
0010
0101
,
1000
0000
1010
0000
1000
0000
1100
0010
,
1000
1100
0010
0101
,
0010
0000
1001
0000
0100
0000
0011
0100
,
0010
1001
0100
1010
,
0100
0000
0011
0000
0100
0000
0011
0001
,
0010
0101
1000
1100
,
0010
0000
0000
0000
1001
0000
0000
0000
0100
0000
0000
0000
0011
0000
0001
0100
,
0001
0000
0100
1000
0100
0000
0010
0001
,
0000
0100
0001
0010
0000
0100
1000
0100
,
1000
0000
0010
0000
0100
0001
0010
2000
,
0000
0000
3100
0000
1000
0000
0100
0000
0200
0000
0000
0001
0300
0000
0020
0000
,
0000
0031
0200
0000
1000
1300
0100
2000
,
0000
3020
0000
0230
0000
0302
0000
2003
,
0000
3020
0000
2030
0000
3002
0000
0023
,
0000
0000
0000
0000
0001
0000
0031
0100
,
0100
0010
1000
0001
1000
0010
0100
0000
,
1000
0000
0100
0000
0001
0010
0100
0000
,
1000
0100
0010
0001
0010
0100
0001
0000
,
0010
0001
0100
0000
1001
0000
0110
0000
,
0001
0100
0010
0001
1000
0001
0010
0100
,
0001
0000
1000
0000
0100
1000
0010
0100
,
0002
0000
1003
0010
0200
0000
1300
0000
,
0020
0000
1030
0100
0000
0010
0000
0101
,
0000
1010
0100
0000
1000
0100
0001
0010
,
1001
0000
0000
0000
0100
0000
0000
0000
1000
0000
0000
0001
0000
0000
0010
0000
,
0001
0000
1000
0100
1000
0000
0110
0000
,
0001
1000
0100
1000
0010
0001
0000
0100
,
0001
0000
0010
0100
0001
0000
1000
0000
,
0100
0000
1000
0000
0100
0010
0001
0010
,
0100
0000
1000
0001
1000
0000
0100
0000
,
0010
1000
0100
0010
0000
0001
0010
0001
,
0100
0000
0001
0000
1000
0100
0010
0001
,
1001
0000
0000
0000
0100
0000
0000
0000
1000
0000
0001
0000
0000
1000
0000
0000
,
0100
0000
1000
0010
0000
0000
0100
0000
,
0001
0000
1000
0000
0010
0100
0001
1000
,
0100
0000
1000
0010
0100
0000
0001
1000
,
2002
0000
3003
0000
0010
0100
0000
0001
,
0020
0000
0031
0010
0000
0100
1000
0100
,
0010
0000
0100
1000
0000
0001
0100
0001
,
0010
0000
0000
0000
0001
0000
0000
1000
0000
0000
0100
0000
0000
0000
0010
0000
,
0001
0000
0000
0000
0100
0000
0000
0001
0000
0000
0010
0000
0000
0000
0001
0000
,
1000
0000
0000
0000
0100
0000
0000
0010
0000
0000
0001
0000
0000
0000
0100
0000
,
1000
0000
0000
0000
0100
0000
0000
1000
0000
0000
0100
0000
0000
0000
0010
0000
,
0001
0000
0000
0000
0010
0000
0000
0100
0000
0000
0001
0000
0000
0000
0100
0000
,
0010
0000
0000
0000
1000
0000
0000
0100
0000
0000
1000
0000
0000
0000
0100
0000
,
0001
0000
0000
0000
1000
0000
0000
0100
0000
0000
0001
0000
0000
0000
0010
0000
,
0001
0000
0000
0000
1001
0000
0000
1010
0000
0000
1001
0000
0000
0000
0011
0000
,
2002
0000
0000
3003
;
