#TITLE:Arabian Rave Night;
#SUBTITLE:;
#ARTIST:dj MAX STEROID;
#TITLETRANSLIT:;
#SUBTITLETRANSLIT:;
#ARTISTTRANSLIT:;
#GENRE:;
#CREDIT:;
#MENUCOLOR:;
#NEWMETERSYSTEM:NO;
#BANNER:Arabian Rave Night-bn.png;
#BACKGROUND:Arabian Rave Night-bg.png;
#LYRICSPATH:;
#CDTITLE:MixMania II CD Title.png;
#MUSIC:Arabian Rave Night.mp3;
#OFFSET:-1.340;
#SAMPLESTART:12.000;
#SAMPLELENGTH:11.000;
#SELECTABLE:YES;
#LISTSORT:;
#BPMS:0.000=180.000;
#STOPS:190.000=0.680
,222.000=0.660
,224.000=0.680
,330.000=0.680
,332.000=0.660
;
#BGCHANGES:;
#ATTACKS:;

//---------------dance-single - ----------------
#NOTES:
     dance-single:
     :
     Easy:
     4:
     0.324,0.384,0.081,0.139,0.000:
0000
0000
0000
0000
,
0000
0000
0000
0000
,
0000
0000
0000
0000
,
0000
0000
0000
0000
,
0100
0000
0100
0000
,
1000
0000
0100
0010
,
0001
0000
0100
0001
,
0010
0001
1000
0010
,
0100
0000
0100
0000
,
0010
0100
0100
0010
,
0001
0000
1000
0000
,
0001
1000
2002
3003
,
0001
0000
1000
0000
,
0100
0010
0001
0000
,
0100
0001
0010
0000
,
0100
1000
0020
0030
,
0100
0010
0100
0000
,
0010
1000
0100
0010
,
0001
0100
0001
0000
,
0010
0001
0100
0000
,
1000
0001
1000
0000
,
0100
0010
0100
0000
,
0001
1000
0001
0000
,
0020
0000
0000
0030
,
1001
0000
1001
0000
,
0100
0010
0100
0000
,
1001
0000
1010
0000
,
1000
0100
0010
0001
,
1001
0000
0011
0000
,
0001
0100
0010
1000
,
0002
0003
2000
3000
,
0100
0010
0200
0300
,
0010
0100
0010
0100
,
0010
0001
0010
0001
,
1000
0001
1000
0001
,
1000
0010
1000
0010
,
1000
0100
1000
0100
,
1000
0010
1000
0010
,
0002
0003
2000
3000
,
1001
0000
0000
0000
,
0100
0001
0010
0000
,
0010
1000
0100
0000
,
0100
0010
0100
0000
,
0001
1000
0001
0000
,
1000
0001
0100
0000
,
0001
1000
0010
0000
,
1000
0001
0100
0000
,
0100
0100
0100
0010
,
0001
0000
1000
0001
,
1000
0000
0100
0000
,
0010
1000
0001
0000
,
0100
0001
0010
0000
,
0100
0000
1000
0010
,
1000
0000
0001
1000
,
0001
0000
0100
0001
,
0010
0000
0100
0000
,
0100
0100
0100
0000
,
0100
0000
0100
0100
,
0100
1001
0100
1000
,
0100
0010
0001
0000
,
1000
0001
1000
0000
,
0010
0000
0100
0001
,
0010
0001
1000
0000
,
0100
0000
1000
0010
,
0100
0001
1000
0001
,
2000
3000
0000
0100
,
0100
0010
0100
0001
,
0010
0001
0100
0000
,
0010
0000
1000
0000
,
0001
0000
1000
1000
,
0001
1000
0002
0003
,
0020
0030
0001
0100
,
0002
0013
0100
0000
,
0010
0000
1000
0100
,
0010
0001
1000
0001
,
1000
0001
1000
0001
,
1000
0001
1000
0001
,
1000
0001
1000
0001
,
1000
0001
1000
0000
,
1000
0100
0010
0000
,
0010
0001
0100
0020
,
0130
0020
0130
1000
,
0100
0001
1001
0010
,
0010
1000
0100
0001
,
0100
1000
0002
0000
,
0003
0010
0020
0030
;

//---------------dance-single - Copied from----------------
#NOTES:
     dance-single:
     Copied from:
     Beginner:
     2:
     0.221,0.279,0.016,0.049,0.000:
0000
0000
0000
0000
,
0000
0000
0000
0000
,
0000
0000
0000
0000
,
0000
0000
0000
0000
,
0010
0000
0000
0000
,
0010
0000
0000
0000
,
0010
0000
0001
0000
,
0002
0000
0003
0000
,
1000
0000
0001
0000
,
0010
0010
0010
0000
,
0001
0000
1000
0000
,
1000
0000
2000
3000
,
1000
0000
0100
0000
,
0010
0000
0001
0000
,
0001
0000
1000
0000
,
0001
0000
0010
0010
,
0010
0000
0001
0000
,
0100
0000
0010
0000
,
1000
0000
0100
0000
,
2000
0000
3000
0000
,
1000
0000
1000
0000
,
0100
0000
0010
0000
,
0001
0000
1000
0000
,
0002
0000
0000
0003
,
0001
0000
0001
0000
,
0001
0000
0001
0001
,
0001
0000
0001
0000
,
0001
0000
1001
0000
,
1000
0000
1000
0000
,
1000
0000
1000
1000
,
1000
0000
1000
0000
,
1000
0000
1000
0000
,
0100
0100
0100
0100
,
0100
0100
0100
0000
,
0010
0010
0010
0010
,
0010
0010
0010
0000
,
0001
0001
0001
0001
,
0001
0001
0001
0000
,
1000
0000
0001
0000
,
1001
0000
0000
0000
,
0100
0000
0000
0000
,
0100
0000
0010
0000
,
0100
0000
0000
0000
,
1000
0000
0001
0000
,
1000
0000
0000
0000
,
0100
0000
0010
0000
,
0001
0000
0000
0000
,
0100
0100
0100
0000
,
0010
0000
0100
0000
,
0010
0000
1000
0000
,
0001
0000
1000
0000
,
0100
0000
0010
0000
,
0001
0000
1000
0000
,
0001
0000
0010
0000
,
0010
0000
0010
0000
,
0010
0000
0010
0000
,
0010
0000
0010
0000
,
0010
0000
0010
0010
,
0010
0010
0010
0000
,
0100
0000
0010
0000
,
0001
0000
1000
0000
,
0001
0000
1000
0000
,
0100
0000
1000
0000
,
0010
0000
0100
0000
,
0001
0000
0010
0000
,
0001
0000
1000
0000
,
0001
0000
1000
0000
,
0100
0000
0010
0000
,
0100
0000
0010
0000
,
0001
0000
0100
0100
,
0100
0100
0100
0000
,
0001
0000
0100
0000
,
0010
0000
1000
0000
,
0001
0000
1000
0000
,
0001
0000
0001
0001
,
0001
0001
0001
0001
,
0001
0000
1000
1000
,
1000
1000
1000
1000
,
1000
0000
0100
0100
,
0100
0100
0100
0100
,
0100
0000
0010
0020
,
0030
0020
0030
0010
,
0010
0010
0010
0000
,
0010
0000
0010
0000
,
0001
0000
1000
0000
,
0000
0000
1000
0000
;

//---------------dance-single - Copied from----------------
#NOTES:
     dance-single:
     Copied from:
     Medium:
     7:
     0.489,0.489,0.114,0.049,0.000:
0000
0000
0000
0000
,
0000
0000
0000
0000
,
0000
0000
0000
0000
,
0000
0000
0000
0000
,
1000
0000
0010
1000
0100
0000
0010
0001
,
0100
0000
0001
0000
1000
0000
0001
1000
,
0010
0000
0010
0100
0010
0000
0010
0000
,
0001
0000
0100
0000
0001
0010
0100
1000
,
0100
0000
1000
0000
0100
0010
0001
1000
,
0000
0001
0000
1000
0001
0000
0010
0000
,
0001
0000
0100
0001
0010
0000
0010
0100
,
1000
0000
1000
0010
0100
0000
0010
0000
,
0100
0000
0010
0000
0001
0100
0010
1000
,
0100
1000
0100
0010
,
0001
1000
0001
0010
,
0001
0000
0100
0000
0010
1000
0100
0010
,
0001
0000
0100
0000
0001
0010
0001
0100
,
0000
0010
0000
1000
0100
0000
0010
0000
,
0001
0100
0001
0000
1000
0010
1000
0000
,
0100
1000
0100
0000
0010
0001
0010
0000
,
0001
0000
0100
0000
0001
0010
0100
0000
,
1000
0100
0010
0000
0001
1000
0001
0000
,
1000
0001
1000
0000
0010
0100
0010
0000
,
1001
0000
0000
0001
0000
0000
1000
0000
,
1001
0000
0100
0000
0010
0000
0001
1000
,
0100
0000
0010
0000
0001
0000
1000
0001
,
0100
0010
1000
0001
,
0100
0001
0010
0001
,
1000
0100
1000
0000
0001
0100
0001
0000
,
0010
0001
1000
0100
,
0001
0010
0001
0000
1000
0100
1000
0000
,
0001
0100
0010
1000
,
0001
0001
1000
1000
,
0001
0000
1000
0000
0001
0000
0001
1000
,
1000
0100
0010
0001
,
1000
0000
0100
0010
0000
1000
0000
1000
,
0001
0100
0010
1000
,
0001
0100
0010
0001
,
0100
0001
0010
0000
0100
1000
0010
0000
,
1001
0000
0100
0100
,
0010
0000
0001
0000
0100
0000
0010
1000
,
0100
0000
0010
0000
0001
0000
0100
0001
,
0010
0000
0001
0000
0100
0000
0010
1000
,
0001
0000
0100
0000
0010
0001
1000
0010
,
0001
0000
1000
0000
0100
0000
0001
1000
,
0100
0000
0001
0000
1000
0000
0001
0010
,
0100
0000
1000
0000
0001
0000
0001
0100
,
1000
0001
0010
0100
,
0010
0100
0000
0100
0010
0000
0010
0001
,
0000
0001
0100
0010
1000
0000
0100
0000
,
1000
0010
0000
0010
0100
0000
0100
0001
,
0000
0010
0001
0100
0010
0000
1000
0000
,
0100
1000
0000
1000
0100
0000
0100
0010
,
0000
0010
0001
0100
0001
0000
0010
0000
,
0001
0100
0010
1000
,
0100
0001
1000
0000
1001
0000
1010
0000
,
1001
1010
1001
0000
,
0011
0000
1001
0011
,
1001
0000
1001
0000
0010
0000
0001
0100
,
0001
0000
0010
0000
0001
0100
0010
1000
,
0001
0000
1000
0000
0001
1000
0010
0000
,
0100
0001
0010
0000
0100
1000
0100
0010
,
0001
0100
0001
0000
1000
0000
0001
1000
,
0001
0000
0010
0001
0010
0000
0100
0000
,
0001
1000
0010
0100
,
0010
1000
0002
2003
,
3001
1000
0100
0000
0010
0000
0001
0000
,
0100
0010
1000
0100
,
0010
0001
1000
0100
,
1000
0100
0010
0001
,
0100
0001
0010
0001
0100
0000
0001
0000
,
1000
0000
0010
0100
0001
0000
0010
0000
,
0001
0100
0100
0010
,
1000
0100
1000
1000
,
0010
1000
0100
0010
0001
0000
0100
0000
,
0001
0010
0001
0100
,
0001
0010
0100
0000
1000
0000
0100
0000
,
1000
0010
0100
0001
,
1000
0100
0010
0000
0001
0000
0100
0000
,
0001
1000
0001
0010
,
0100
1000
0100
0020
,
0031
0020
0130
1000
,
0100
0000
0010
0001
0100
0000
0010
0100
,
0010
0000
0100
1000
0100
0000
0100
0010
,
0001
0000
0100
0001
0010
0000
0100
0000
,
0010
0100
2002
3003
;

//---------------dance-single - Copied from----------------
#NOTES:
     dance-single:
     Copied from:
     Hard:
     9:
     0.634,0.594,0.024,0.090,0.020:
0000
0000
0000
0000
,
0000
0000
0000
0000
,
0000
0000
0000
0000
,
0000
0000
0000
0000
,
1000
0000
0001
1000
0100
0010
0001
0000
,
0100
0000
0001
0000
0010
0000
0001
0100
,
0010
0000
0000
0000
1000
0000
0001
1000
0010
0000
0100
0000
0010
0000
0100
0000
,
0010
0000
0001
0000
0100
0001
1000
0010
,
0100
0000
1000
0000
0100
0010
0001
0100
,
0000
0001
0000
1000
0001
0000
0100
0001
,
0010
0100
1000
0100
0020
0000
0031
0100
,
0020
0000
1030
0100
2000
0000
3100
0000
,
0010
0001
0100
0010
1000
0100
1000
0100
,
0010
0000
0010
0001
0000
0001
0100
0001
,
0100
0000
0010
1000
0010
0000
1000
0100
,
1000
0000
1000
0100
0010
0001
0100
0001
,
0010
0000
0100
0000
0001
1000
0010
1000
,
0000
1000
0100
0010
0001
0000
1000
0001
,
0100
0001
0010
0001
0100
0000
0100
0010
,
1000
0000
1000
0100
1000
0100
0010
0100
,
0010
0000
0100
0010
0001
0000
0001
0010
,
0100
0000
0010
0100
1000
0000
1000
0100
,
0010
0001
0010
0001
0010
0100
0010
0100
,
1000
0000
0000
0100
0000
0000
0010
0000
0000
0001
0000
0000
0100
0000
0001
0000
,
1000
0000
0100
0010
0001
0000
0100
0001
,
1000
0000
0010
1000
0100
0000
0100
0010
,
1000
0000
0100
0010
0001
0000
0100
0001
,
0010
0000
0001
1000
0100
0010
0001
0100
,
0001
0000
0010
0001
0100
0000
0010
1000
,
0100
0000
0100
0010
0001
0000
0100
0001
,
0010
0000
0010
0001
0100
1000
0010
1000
,
0100
0010
0100
0010
,
0001
0100
0001
0100
0010
0100
0010
0100
,
0010
1000
0010
1000
0100
1000
0100
1000
,
0100
0010
0100
0010
0100
0001
0100
0001
,
0100
0000
0100
0010
0000
0010
1000
0100
,
1000
0100
1000
0100
0010
0100
0010
0100
,
0001
0100
0001
0100
0001
0010
0001
0010
,
0001
0010
0100
1000
0100
0010
0001
0010
,
0200
0000
0010
0310
,
0110
0000
0001
1000
0001
0010
0001
0000
,
0100
0000
0001
0010
1000
0000
0100
0000
,
1000
0000
0100
0010
0001
0100
0001
0010
,
0100
0000
1000
0000
0100
1000
0010
0000
,
0100
0000
0001
0000
1000
0010
0001
0100
,
0001
0010
0001
0100
,
0001
0000
0100
0001
0100
1000
0100
0001
,
0100
0000
0000
0000
0010
0000
0001
0000
0000
0000
0001
0000
0100
0000
0000
0000
0000
0000
1000
0000
0000
0100
0000
0000
,
0010
0000
0001
0000
0100
0001
0010
0001
,
0000
0100
0001
0010
0100
0000
1000
0000
,
0100
1000
0000
1000
0010
1000
0100
0010
,
0000
0010
0001
0100
0001
0000
0010
0000
,
0001
0100
0000
0100
0010
1000
0100
0010
,
0000
0010
0001
0100
0001
0000
1000
0001
,
1000
0000
0001
1000
0001
0000
0010
0001
,
0100
0010
1000
0100
2000
0000
3100
1000
,
0200
0000
0310
0001
0100
0000
0010
1000
,
0100
0000
0010
0001
1000
0001
1000
0001
,
0010
0001
0011
0000
0001
0100
0010
1000
,
0100
1000
0100
0010
0001
0100
0001
0010
,
0001
0000
0100
0000
0010
1000
0100
1000
,
0010
1000
0100
0010
0001
0100
0001
1000
,
0001
1000
0010
0000
0010
0001
0100
0001
,
0010
0001
0100
1000
0001
1000
0100
1000
,
0010
0100
0010
0000
0010
0001
1000
0001
,
1000
0100
0010
0001
1000
0001
0100
1000
,
0010
1000
0100
0000
0010
1000
0001
0100
,
0010
0001
0010
0100
1000
0100
0010
1000
,
0010
1000
0100
0000
0001
1000
0001
1000
,
0010
0100
0001
1000
0010
1000
0100
1000
,
0010
0010
0100
0100
0001
1000
0001
1000
,
0100
0010
0001
1000
0001
0010
0100
0001
,
0100
1000
0010
0000
0010
0100
0001
0100
,
0001
0010
0001
0100
0001
0010
0100
1000
,
0100
0010
0001
1000
0001
0000
0100
0000
,
0010
0000
1000
0000
0100
0010
0001
0010
,
0001
0010
0100
0000
0010
0000
1000
0000
,
0100
0000
0010
0000
0001
0100
0010
1000
,
0100
1000
0100
0000
0010
0000
1000
0000
,
0100
0000
0010
0000
0001
1000
0001
1000
,
0100
1000
0100
0000
1000
0100
0020
0000
,
0031
0100
0020
0000
1030
0000
0100
0000
,
0010
0001
1000
0001
1000
0000
1000
0100
,
0010
0000
1000
0001
0010
0100
1000
0100
,
0010
0001
0010
0100
2000
0000
3100
0000
,
0010
0001
0100
0010
2002
0000
3003
0000
;

//---------------dance-single - Copied from Copied from----------------
#NOTES:
     dance-single:
     Copied from Copied from:
     Challenge:
     10:
     0.723,0.665,0.139,0.041,0.053: // measure 1
0000
0000
0000
0000
,  // measure 2
0000
0000
0000
0000
,  // measure 3
0000
0000
0000
0000
,  // measure 4
1000
0100
1000
0000
0001
0100
0001
0000
,  // measure 5
1000
0001
0010
0100
1000
0100
0010
0000
,  // measure 6
0010
0001
0100
0001
1000
0000
0001
1000
,  // measure 7
0010
0000
0000
0000
0010
0000
0100
0010
1000
0000
0100
0000
0010
0000
0001
0000
,  // measure 8
1000
0001
0100
0001
0010
0001
0010
0001
,  // measure 9
0101
0000
0001
0000
0100
0010
1000
0100
,  // measure 10
1000
0010
0100
0010
0001
0000
0100
1000
,  // measure 11
0010
0100
0001
0010
0001
1000
0100
1000
,  // measure 12
0001
1000
0100
1000
0001
1000
1010
0000
,  // measure 13
0100
0010
0001
1000
0001
1000
0100
0010
,  // measure 14
0001
1000
0001
0010
0010
0100
1000
0100
,  // measure 15
0010
0001
1000
0001
0100
1000
0001
1000
,  // measure 16
0100
1000
0010
0001
0100
0100
0001
0001
,  // measure 17
0010
0000
0001
0000
1000
0001
0010
0001
,  // measure 18
0100
0010
1000
0010
1000
0100
1000
0000
,  // measure 19
0010
0100
0001
0010
0001
1000
0010
1000
,  // measure 20
0100
0010
0001
1000
0100
0010
0001
0100
,  // measure 21
0001
0000
0010
0001
0100
0001
1000
0000
,  // measure 22
0010
1000
0100
1000
0010
0100
0001
0000
,  // measure 23
0010
0001
0100
0000
0010
1000
0100
0000
,  // measure 24
1100
0000
0000
1001
0000
0000
0101
0000
0000
1001
0000
0000
0010
0000
0100
0000
,  // measure 25
0110
1000
0100
0010
0001
0100
0001
0000
,  // measure 26
0010
0001
0100
0010
1000
0100
1000
0000
,  // measure 27
1000
0100
0010
0001
0010
0100
1000
0000
,  // measure 28
0001
0010
0100
1000
0100
0010
0001
0000
,  // measure 29
1000
0001
0100
0001
0010
0001
0100
0010
,  // measure 30
1000
0100
1000
0010
0100
0001
1000
0001
,  // measure 31
0100
0001
0010
0100
1000
0100
0010
0001
,  // measure 32
0100
0001
0100
0010
,  // measure 33
1000
0001
1000
0100
0001
1000
0001
0100
,  // measure 34
0001
0010
0001
1000
0001
0010
1000
0100
,  // measure 35
1000
0001
0010
0100
1000
0100
0010
0001
,  // measure 36
1000
0001
0100
0001
0000
0001
0010
0001
,  // measure 37
0100
0010
0100
1000
0100
1000
0010
0100
,  // measure 38
0001
0010
0001
0100
0001
0010
0100
1000
,  // measure 39
0100
0010
0001
0100
0001
0010
0001
1000
,  // measure 40
0010
0000
0000
0000
0100
0010
0100
0010
,  // measure 41
0100
0000
0010
0001
0100
0000
0001
1000
,  // measure 42
0010
0000
0100
1000
0100
0010
0001
0100
,  // measure 43
0001
0000
0010
0001
0100
0000
0010
1000
,  // measure 44
0100
0000
0010
0001
0100
0001
0010
0001
,  // measure 45
0100
0000
0010
1000
0100
0000
1000
0100
,  // measure 46
0010
0000
0010
0001
0100
0001
0010
0100
,  // measure 47
1000
0000
1000
0100
0010
0000
0010
0100
,  // measure 48
1000
0000
0100
0000
0010
0000
0001
0000
0010
0000
0100
0000
1000
0000
0000
0100
0000
0000
0010
0000
0000
0001
0000
0000
,  // measure 49
0100
0001
0010
0100
1000
0100
1000
0100
,  // measure 50
0000
0100
0010
0001
0100
0001
0010
0001
,  // measure 51
0100
0001
0010
0100
1000
0100
0010
0001
,  // measure 52
0000
0001
0100
0010
1000
0100
1000
0100
,  // measure 53
0010
0001
0100
0001
0010
0001
0100
0010
,  // measure 54
0000
0010
0001
0100
0001
0010
0001
1000
,  // measure 55
0001
1000
0100
0010
0001
1000
0001
0010
,  // measure 56
0000
0000
0010
0000
0001
0000
1000
0000
0010
0000
0000
0010
1000
0000
0001
0000
,  // measure 57
0100
0000
0000
0100
0010
0000
1000
0000
0001
0000
0000
0000
1001
0000
0010
0000
,  // measure 58
0010
0000
1001
0010
0010
0100
0010
0100
,  // measure 59
0020
0000
1030
0000
1001
0100
0010
0001
,  // measure 60
0100
0001
0010
0100
1000
0100
1000
0100
,  // measure 61
0010
0000
0100
0000
0010
0001
1000
0001
,  // measure 62
0100
0001
0010
0001
1000
0001
0100
1000
,  // measure 63
0010
0100
0001
0000
0100
0010
0001
0100
,  // measure 64
0010
1000
0100
1000
0010
0100
0001
0010
,  // measure 65
0001
0100
1000
0100
0001
0000
0001
0010
,  // measure 66
0000
0010
0001
0000
0011
0000
1001
0000
,  // measure 67
1100
0000
1001
0000
1000
0100
0010
0001
,  // measure 68
0010
0001
0100
0001
0010
0100
0010
0100
,  // measure 69
1000
0100
1000
0010
0100
0001
0100
0000
,  // measure 70
0001
1000
0010
0000
1000
1000
0001
0001
,  // measure 71
0010
0100
0010
0000
0001
1000
0001
0000
0010
0000
0001
0000
0100
0000
0001
0000
,  // measure 72
1000
0010
0100
0001
1000
0100
0010
0100
,  // measure 73
1000
0001
0100
0000
0010
0001
1000
0100
,  // measure 74
0010
0001
0100
0001
1000
0010
0100
0001
,  // measure 75
0010
0100
1000
0100
0010
0100
1000
0100
,  // measure 76
0010
0100
1000
0100
0010
0100
1000
0100
,  // measure 77
0010
0001
0010
0001
0010
0100
0010
0001
,  // measure 78
0010
0100
0010
0001
0010
0100
0010
0001
,  // measure 79
0010
0100
1000
0100
0001
0100
1000
0100
,  // measure 80
0001
0100
1000
0100
0001
0100
1000
0100
,  // measure 81
0001
0010
0100
1000
0100
0010
0002
0000
,  // measure 82
1003
0100
2000
0000
3100
0010
0100
1000
,  // measure 83
0001
0000
0010
0000
0100
0000
1000
0000
0100
0000
0000
0010
0100
0000
0001
0000
,  // measure 84
0010
0000
0000
0100
0010
0000
0100
0000
1000
0000
0000
0000
1001
0000
0010
0000
,  // measure 85
0010
0000
1001
0100
0100
0001
0001
1000
,  // measure 86
1000
0001
1000
0001
2200
0000
0000
3300
;
