#TITLE:After Midnight;
#SUBTITLE:;
#ARTIST:razzberri;
#TITLETRANSLIT:;
#SUBTITLETRANSLIT:;
#ARTISTTRANSLIT:;
#GENRE:;
#CREDIT:;
#MENUCOLOR:;
#NEWMETERSYSTEM:NO;
#BANNER:After Midnight-bn.png;
#BACKGROUND:After Midnight-bg.png;
#LYRICSPATH:;
#CDTITLE:MixMania II CD Title.png;
#MUSIC:After Midnight.mp3;
#OFFSET:0.000;
#SAMPLESTART:76.000;
#SAMPLELENGTH:12.000;
#SELECTABLE:YES;
#LISTSORT:;
#BPMS:0.000=180.000;
#STOPS:96.000=1.340
;
#BGCHANGES:;
#ATTACKS:;

//---------------dance-single - ----------------
#NOTES:
     dance-single:
     :
     Easy:
     4:
     0.319,0.396,0.090,0.172,0.000:
0000
0000
0000
0000
,
0000
0000
0000
0000
,
0000
0000
0000
0000
,
0000
0000
0000
0000
,
1000
0000
0100
0000
,
0001
0000
0100
1000
,
0100
0000
1000
0000
,
2002
0000
0000
3003
,
0010
0001
0000
1000
,
0100
0000
1000
0001
,
0100
0001
0010
0001
,
0200
0000
2300
0000
,
3010
0100
0001
1000
,
0100
0000
0010
0001
,
0100
0000
1000
0100
,
0010
0000
0000
1000
,
0001
0000
0010
0100
,
1000
0000
0100
1000
,
0010
0100
0001
0010
,
0002
0000
0203
0000
,
0310
1000
0100
1000
,
0010
0000
0100
1000
,
0200
0000
2300
0001
,
3002
0000
0000
0010
,
0013
0100
1000
0000
,
1000
0100
0001
0000
,
0010
0001
0100
0000
,
0010
1000
0020
0030
,
0100
1000
0010
0000
,
0100
0001
0010
0000
,
1000
0001
1000
0000
,
0010
0001
0020
0030
,
0001
1000
0100
0000
,
0100
1000
0010
0000
,
0100
0001
0010
0000
,
0001
0100
2000
3000
,
0100
0010
0010
0000
,
0001
1000
0100
0000
,
1000
0001
0001
0000
,
0010
1000
0100
0001
,
0100
0000
1000
0000
,
0100
0000
0001
0010
,
0001
0000
0000
0001
,
0010
0100
1000
0100
,
1000
0000
0000
1000
,
0100
0010
0001
0010
,
0002
0000
0000
0010
,
0013
0000
0100
0001
,
1001
0000
1010
0000
,
1100
0000
1010
0001
,
0101
0000
0000
0010
,
0110
1000
0100
1000
,
0011
0000
0000
0100
,
1001
0000
0010
1000
,
0100
0000
0100
0010
,
0001
0000
0000
0000
,
1001
0010
0001
0100
,
0020
0000
0030
1000
,
0100
1000
0100
0010
,
0002
0003
2000
3000
,
0000
0100
1000
0010
,
0200
0000
0300
0010
,
0100
0001
1000
0000
,
0100
0000
0000
0001
,
0100
0000
0010
1000
,
0100
0000
1000
0100
,
0001
0010
0001
0000
,
1000
0000
0100
0000
,
0010
1000
0001
0000
,
0010
0000
0100
0001
,
0020
0000
2030
0000
,
3200
0000
2300
0010
,
3010
0100
0001
1000
,
0000
0001
0100
0010
,
0000
0001
1000
0100
,
0000
1000
0010
0001
,
0000
0100
0010
0010
,
0000
0001
0100
1000
,
0000
1000
0100
0010
,
0000
1000
0100
1000
,
0000
0100
0001
0001
,
0000
0010
0001
0100
,
0000
0010
1000
0100
,
0000
0100
1000
0001
,
0000
0010
1000
1000
,
0000
0001
0100
0010
,
0000
1000
0001
0010
,
0000
0001
1000
0010
,
1100
0000
0000
0000
;

//---------------dance-single - Copied from----------------
#NOTES:
     dance-single:
     Copied from:
     Beginner:
     2:
     0.203,0.216,0.000,0.065,0.000:
0000
0000
0000
0000
,
0000
0000
0000
0000
,
0000
0000
0000
0000
,
0000
0000
0000
0000
,
1000
0000
0100
0000
,
1000
0000
0010
0000
,
0100
0000
0001
0000
,
0020
0000
0030
0000
,
0000
0100
0000
1000
,
1000
0000
0000
0000
,
0100
0000
0010
0000
,
0001
0000
0010
0000
,
0000
0100
0100
0000
,
0010
0000
0000
0001
,
0001
0000
1000
0000
,
0001
0000
0000
1000
,
1000
0000
0010
0000
,
1000
0000
0100
0000
,
0010
0000
0001
0000
,
0200
0000
0300
0000
,
0000
0001
0001
0000
,
1000
0000
0010
0000
,
0001
0000
0100
0000
,
0010
0000
0000
0000
,
0100
0000
0001
0000
,
1000
0000
0100
0000
,
0010
0000
0100
0000
,
1000
0000
0002
0003
,
0001
0000
0100
0000
,
0010
0000
1000
0000
,
0001
0000
0100
0000
,
1000
0000
0200
0300
,
0100
0000
1000
0000
,
0100
0000
0010
0000
,
0001
0000
0010
0000
,
0100
0000
0020
0030
,
0010
0000
0100
0000
,
1000
0000
0001
0000
,
0100
0000
1000
0000
,
0100
0000
0010
0010
,
0010
0000
1000
0000
,
0001
0000
0100
0000
,
2000
0000
3000
0000
,
0100
0000
1000
0000
,
0010
0000
0000
0100
,
0100
0000
0001
0000
,
0100
0000
0000
0000
,
0000
0000
0010
0010
,
0010
0000
1000
0000
,
0001
0000
0100
0000
,
1000
0000
0000
1000
,
1000
0000
0100
0000
,
0001
0000
0000
0001
,
0001
0000
0010
0000
,
0200
0000
0300
0000
,
2000
0000
3000
0000
,
0000
0100
0000
1000
,
1000
0000
0000
0010
,
0010
0000
0001
0000
,
0100
0000
0001
0000
,
0000
0010
0010
0000
,
0100
0000
0000
0001
,
0001
0000
1000
0000
,
0100
0000
0000
0100
,
0100
0000
1000
0000
,
0010
0000
0000
1000
,
1000
0000
0001
0000
,
0010
0000
0001
0000
,
0000
0010
0010
0000
,
0010
0000
0000
0100
,
0100
0000
0100
0000
,
0001
0000
0100
0000
,
1000
0000
0001
0000
,
0100
0000
0010
0000
,
1000
0000
0001
0000
,
0100
0000
0010
0000
,
0100
0000
1000
0000
,
0100
0000
0001
0000
,
0100
0000
0010
0000
,
1000
0000
0100
0000
,
1000
0000
0100
0000
,
0010
0000
0001
0001
,
0001
0000
0010
0000
,
0100
0000
1000
1000
,
1000
0000
0001
0000
,
1000
0000
0010
0010
,
0010
0000
0001
0000
,
1000
0000
0100
0100
,
0100
0000
0000
0000
;

//---------------dance-single - Copied from----------------
#NOTES:
     dance-single:
     Copied from:
     Medium:
     5:
     0.373,0.396,0.008,0.106,0.000:
0000
0000
0000
0000
,
0000
0000
0000
0000
,
0000
0000
0000
0000
,
0000
0000
0000
0000
,
1000
0000
0000
0100
0000
0000
0010
0000
,
0000
0001
0000
0000
0010
0000
0100
0000
,
0001
0000
0000
1000
0000
0000
0100
0000
,
0000
0010
0000
0000
0100
0000
0010
0000
,
0000
1000
0100
0001
,
0010
0000
0001
0100
,
0001
0010
1000
0100
,
1000
0000
0000
0100
0000
0000
0000
0000
,
0010
0000
0001
0100
0001
0000
0010
0000
,
1000
0000
1000
0100
,
0010
0000
0001
0010
0000
0000
0100
0000
,
1000
0000
1000
0001
,
0100
0010
1000
0100
,
0010
0001
0010
0100
,
0001
0000
1000
0001
0000
0000
0100
0000
,
0010
0000
0000
1000
0000
0000
0100
0000
,
1000
0000
0100
0010
0001
0000
0100
0000
,
0010
0000
0000
0000
0001
0000
0100
0010
,
1000
0000
0000
0100
0000
0000
1000
0000
,
0200
0000
0000
0010
,
0310
0000
1000
0000
0100
0000
0001
0100
,
0000
0000
1000
0000
0100
0000
0010
1000
,
0000
0000
0100
0000
0001
0000
0100
0010
,
0000
0010
0100
0000
2000
0000
3200
0000
,
0310
0000
0100
0000
0001
0000
1000
0100
,
0000
0000
0010
0000
0100
0000
0001
0010
,
0000
0000
0100
0000
0001
0000
1000
0100
,
0000
0100
1000
0000
0020
0000
0230
0000
,
0301
0000
0100
0000
0010
0000
0001
0010
,
0000
0000
0100
0000
1000
0000
0010
1000
,
0000
0000
0100
0000
1000
0000
0100
0001
,
0000
0010
0020
2030
,
3100
0000
1000
0000
0100
0000
0010
0001
,
0000
0000
0100
0000
0001
0000
0010
1000
,
0000
0000
0100
0000
0010
0000
0001
0010
,
0000
0100
0002
0023
,
0031
0100
0010
0001
,
1000
0000
0100
0000
0010
0000
1000
0100
,
0000
1000
0001
0100
,
0010
0000
0001
0000
0010
0000
1000
0010
,
0000
0000
0100
1000
,
0100
0000
0010
0000
0001
0000
1000
0001
,
0000
0000
0100
0000
,
0010
0000
0001
0100
,
0010
1000
0100
0010
,
0001
0000
0010
0000
0001
0000
0100
1000
,
0000
0000
1000
0100
,
0001
0000
0010
0000
0001
0000
0010
0001
,
0000
0000
0100
0001
,
0020
0100
2030
0001
,
3200
1000
1000
0010
,
2300
0010
0001
0010
,
3010
0100
0001
0010
,
0100
0000
1000
0100
,
0010
0001
0010
0100
,
0001
0000
0000
0100
0000
0000
0000
0000
,
1000
0000
0010
0100
0010
0000
0100
0000
,
0100
0000
1000
0100
,
0001
0000
0010
0001
0000
0000
0100
0000
,
1000
0000
0000
1000
,
0100
0010
0001
0010
,
0001
1000
0100
0010
,
1000
0000
0100
0010
0000
0000
0010
0000
,
1000
0000
0000
0001
0000
0000
0100
0000
,
1000
0000
0100
1000
0100
0000
0010
0000
,
0001
0000
0000
0000
0100
0000
0001
0010
,
0100
0000
0000
1000
0000
0000
0001
0000
,
0100
0000
0000
0010
,
0010
1000
0100
0001
,
0100
1000
0100
0001
,
0010
1000
0010
0001
,
0010
1000
0010
0001
,
0010
0100
0010
0001
,
0010
0100
0010
0001
,
1000
0100
0010
0100
,
1000
0100
0010
0100
,
0001
0000
0000
1000
0000
0000
0001
0000
,
0000
0100
0000
0000
0010
0000
1000
0000
,
0100
0000
0000
1000
0000
0000
0100
0000
,
0000
0001
0000
0000
0100
0000
0010
0000
,
1000
0000
0000
0100
0000
0000
0001
0000
,
0000
0100
0000
0000
1000
0000
0001
0000
,
0010
0000
0000
0001
0000
0000
0100
0000
,
0000
0010
0000
0000
1000
0000
0010
0000
,
0110
0000
0000
0000
;

//---------------dance-single - Copied from----------------
#NOTES:
     dance-single:
     Copied from:
     Hard:
     7:
     0.458,0.504,0.082,0.016,0.000:
0000
0000
0000
0000
,
0000
0000
0000
0000
,
0000
0000
0000
0000
,
0000
0000
0000
0000
,
1000
0000
0000
0001
0000
0000
0100
0001
,
0000
0001
0010
0000
0100
0000
1000
0000
,
0100
0000
0000
1000
0000
0000
0010
1000
,
0000
1000
0001
0000
0010
0000
0100
0000
,
1001
0000
1000
0000
0100
0000
1000
0010
,
0100
0000
0100
0000
1000
0000
0010
0001
,
0100
0001
0010
1000
,
0100
0000
1000
0100
0000
0000
0010
0000
,
1000
0000
0100
0001
0010
0000
0100
0000
,
0001
0000
0100
0000
0010
0000
1000
0100
,
1000
0000
0010
0100
0000
0000
1000
0000
,
0100
0000
0000
0000
0010
0000
0001
0100
,
0001
0000
1000
0010
0100
0000
1000
0000
,
0100
0000
0001
0000
0010
0000
0001
0010
,
1000
0000
0100
1000
0010
0000
0100
0000
,
0001
0000
1000
0100
0000
0000
1000
0000
,
0010
0000
0100
1000
0100
0000
0010
0000
,
0100
0000
0001
0000
1000
0000
0100
0010
,
0001
0000
0100
0001
0000
0010
1000
0100
,
1000
0010
0100
0010
,
1001
0000
0100
0000
1000
0000
0100
1000
,
0000
1000
0010
0000
0100
0000
0001
0010
,
0000
0010
0100
0000
1000
0000
0001
1000
,
0000
1000
0100
0010
0001
0000
0010
0000
,
0100
0000
0001
0000
0010
0000
0100
1000
,
0000
1000
0100
0000
0010
0000
0100
0001
,
0000
0001
0010
0000
0100
0000
0001
0010
,
0000
1000
0100
0010
0001
0000
0100
0000
,
0001
0000
0010
0000
0001
0000
0010
0100
,
0000
0100
1000
0000
0010
0000
1000
0100
,
0000
0100
0001
0000
0010
0000
0001
0010
,
0000
0100
0001
0010
0001
0000
0100
0000
,
0001
0000
0010
0000
0100
0000
0010
0100
,
0000
0100
0010
0000
0001
0000
0100
0001
,
0000
0001
0010
0000
0100
0000
1000
0010
,
0000
0010
0001
0100
0001
0000
0010
0000
,
0100
1000
0100
0010
,
0001
0000
1000
0000
0100
0000
0010
1000
,
0100
1000
0010
0100
,
0001
0000
0010
0000
0100
0000
1000
0010
,
0001
0100
0001
0010
,
0100
0000
0001
0000
0100
0000
0010
0100
,
1000
0100
1000
0010
,
0100
0001
1000
0100
,
0010
0001
0100
0001
,
0010
0000
0100
0000
0001
0000
0010
0001
,
0100
0001
0010
0100
,
0001
0000
0010
0000
0100
0000
0001
0010
,
1000
0100
1000
0100
,
0011
1000
0110
1000
,
1020
0100
1000
1030
,
0201
0001
0010
0310
,
1001
0000
0100
1000
0010
0000
0100
0000
,
0001
0000
1000
0000
0100
0000
0010
0001
,
0010
0100
0001
0010
,
1000
0000
0100
1000
0000
0000
0100
0000
,
1000
0000
0100
0010
0001
0000
0100
0000
,
0010
1000
0001
0100
,
0010
0000
1000
0100
0000
0000
0010
0000
,
0001
0100
0001
0010
,
0100
0000
1000
0001
0000
0000
0100
0000
,
0010
0001
0100
0001
,
1000
0000
0100
1000
0000
0000
0100
0000
,
0010
0000
0001
1000
0100
0000
0010
0000
,
0100
0000
1000
0100
0010
0000
0001
0000
,
0100
0000
0001
0000
0010
0000
1000
0010
,
0001
0000
0100
0001
0000
0010
0001
1000
,
0100
1000
0010
0100
,
0001
1000
0000
0100
1000
0000
0010
0000
,
0000
0100
0000
0001
0010
0000
0001
0000
,
0000
0100
0001
0010
1000
0000
0100
0000
,
0000
1000
0000
0100
1000
0000
0010
0000
,
0000
0100
0000
0001
1000
0000
0100
0000
,
0000
0010
0000
0001
1000
0001
1000
0000
,
0000
0010
0000
1000
0100
0000
0001
0000
,
0000
0010
0000
0100
0010
0000
1000
0000
,
1001
0000
0000
0001
0000
0000
0100
0001
,
0000
0001
0010
0000
0100
0000
1000
0000
,
0010
0000
0000
1000
0000
0000
1000
0001
,
0000
0001
1000
0000
0001
0000
1000
0000
,
0010
0000
0000
0100
0000
0000
1000
0010
,
0000
0010
0100
0000
0010
0000
1000
0000
,
0001
0000
0000
1000
0000
0000
0100
1000
,
0000
1000
0010
0000
1000
0000
0110
0000
,
1001
0000
0000
0000
;

//---------------dance-single - Copied from ----------------
#NOTES:
     dance-single:
     Copied from:
     Challenge:
     8:
     0.576,0.576,0.221,0.025,0.000: // measure 1
0000
0000
0000
0000
,  // measure 2
0000
0000
0000
0000
,  // measure 3
0000
0000
0000
0000
,  // measure 4
0000
0000
0000
0000
0000
0000
0100
0010
,  // measure 5
0100
0000
1000
0100
0000
0010
0001
0010
,  // measure 6
0000
0100
0001
0010
1000
0100
1000
0000
,  // measure 7
0010
0000
1000
0100
0000
0100
0010
0001
,  // measure 8
0000
0010
0010
0001
0010
0100
0010
0000
,  // measure 9
1000
0000
0100
0000
1000
0000
0100
1000
,  // measure 10
0010
0000
0100
0000
0001
0000
0010
0010
,  // measure 11
0001
0000
0100
0000
0001
0000
0010
0100
,  // measure 12
1000
0000
0100
0010
0000
0001
1000
0001
,  // measure 13
0100
0000
1000
0100
0010
0000
1000
0000
,  // measure 14
0001
0000
0100
0000
0010
0000
0001
0010
,  // measure 15
0100
0000
0001
0100
0000
0010
1000
0100
,  // measure 16
1000
0000
0010
0000
1000
0000
0100
0010
,  // measure 17
0001
0000
0010
0001
0000
0001
0010
0001
,  // measure 18
0010
0000
0100
0000
0001
0000
0001
1000
,  // measure 19
0100
0000
1000
0010
0000
0010
1000
0000
,  // measure 20
0100
0000
1000
0001
1000
0000
0100
1000
,  // measure 21
0010
0000
0100
0001
0010
0000
0100
0000
,  // measure 22
0001
0000
1000
0100
1000
0000
0010
0001
,  // measure 23
1000
0000
0100
1000
0010
0000
1100
0000
,  // measure 24
0001
0010
0100
0001
0010
0100
1000
0100
,  // measure 25
0001
0000
1001
0000
1100
0000
0100
0010
,  // measure 26
0000
0010
0001
0000
0100
0000
0001
0010
,  // measure 27
0000
0010
1000
0000
0100
0000
1000
0010
,  // measure 28
0000
1000
0100
0010
0001
0010
0100
0000
,  // measure 29
0001
0000
0110
0000
0011
0000
0001
0100
,  // measure 30
0000
0100
1000
0000
0100
0000
0010
0100
,  // measure 31
0000
0100
0001
0000
0010
0000
0001
1000
,  // measure 32
0000
0100
1000
0100
0010
0100
1000
0100
,  // measure 33
0001
0000
1010
0000
1001
0000
0001
0010
,  // measure 34
0000
0100
1000
0000
0010
0000
1000
0100
,  // measure 35
0000
0010
0001
0000
0100
0000
0010
1000
,  // measure 36
0000
0100
0010
0001
1000
0100
0010
0001
,  // measure 37
1000
0000
1010
0000
0101
0000
0001
1000
,  // measure 38
0000
1000
0010
0000
0100
0000
0001
0010
,  // measure 39
0000
0100
0010
0000
1000
0000
0001
0100
,  // measure 40
0000
1000
0001
0100
0010
1000
0001
0010
,  // measure 41
1100
0100
0011
0100
,  // measure 42
1001
0000
0010
0000
0102
0000
0003
1100
,  // measure 43
0000
0100
0010
1000
,  // measure 44
0100
0000
0010
0000
0001
0000
1000
0001
,  // measure 45
1000
0010
0100
0001
,  // measure 46
0010
0000
0100
0000
1000
0000
0100
0010
,  // measure 47
0001
0000
1000
0000
0001
0000
1000
0001
,  // measure 48
0010
0000
0100
1000
0001
0000
1000
0001
,  // measure 49
0011
0100
1001
0100
,  // measure 50
1010
0000
0001
0000
2010
0000
3000
0101
,  // measure 51
0000
1000
0100
1000
,  // measure 52
0010
0000
0100
0000
0001
0000
0010
1000
,  // measure 53
0100
0000
1000
0000
0100
0000
0010
0001
,  // measure 54
0010
0000
0100
1000
0100
0000
1000
0010
,  // measure 55
0001
0000
0100
0001
0010
0000
0100
1000
,  // measure 56
0010
1000
0100
0010
0001
0100
0001
0010
,  // measure 57
0100
0000
1000
0100
0001
0000
0010
0000
,  // measure 58
0011
0000
0100
0000
0001
0000
0010
1000
,  // measure 59
0100
0000
1000
0000
0100
0000
1000
0001
,  // measure 60
0010
0000
0100
1000
0100
0000
0010
0000
,  // measure 61
0001
0000
1000
0001
0010
0100
0001
1000
,  // measure 62
0100
0000
0001
0000
1000
0000
0100
1000
,  // measure 63
0010
0000
0010
1000
0100
0000
1000
0000
,  // measure 64
0110
0000
1000
0000
0001
0000
0010
0001
,  // measure 65
0100
0000
0100
0001
0010
0000
1000
0000
,  // measure 66
1100
0000
0100
0000
1000
0000
0010
0100
,  // measure 67
1000
0000
0100
0010
0001
0000
0100
0000
,  // measure 68
1001
0000
0001
0010
0100
0000
0001
0000
,  // measure 69
1000
0000
0100
1000
0010
0000
0100
0000
,  // measure 70
1001
0000
0100
0000
0010
0000
0001
0100
,  // measure 71
0001
0000
0010
0001
1000
0000
0100
0000
,  // measure 72
2000
0000
0010
0000
0100
3000
0010
0000
,  // measure 73
1100
0010
1000
0010
0001
1000
0100
0010
,  // measure 74
0000
0010
0001
1000
0100
0000
1000
0000
,  // measure 75
0000
0010
1000
0100
0001
0010
0001
0100
,  // measure 76
0000
0001
1000
0100
1000
0001
0100
0001
,  // measure 77
0000
0100
0010
1000
0100
0010
0001
0100
,  // measure 78
0000
0100
0010
1000
0010
0000
0001
0000
,  // measure 79
0000
0010
1000
0100
0001
0100
1000
0010
,  // measure 80
0000
1000
0100
0001
0100
1000
0010
0100
,  // measure 81
1100
0000
0100
0010
0100
0000
0001
0010
,  // measure 82
0000
0010
0100
0010
0001
0010
0100
1000
,  // measure 83
0001
0000
0100
1000
0100
0000
0010
0001
,  // measure 84
0000
0100
0010
0001
0010
0100
0010
1000
,  // measure 85
0100
0000
0001
0100
0001
0000
0010
0001
,  // measure 86
0000
0001
0010
0100
1000
0100
0010
0000
,  // measure 87
1000
0000
0100
0010
0001
0000
0001
1000
,  // measure 88
0000
0100
0010
0001
1000
0001
0100
0000
,  // measure 89
1001
0000
0000
0000
;
