#TITLE:APOCALYPSE;
#SUBTITLE:~dirge of swans~;
#ARTIST:Zektbach;
#TITLETRANSLIT:;
#SUBTITLETRANSLIT:;
#ARTISTTRANSLIT:;
#GENRE:;
#CREDIT:;
#MENUCOLOR:;
#NEWMETERSYSTEM:NO;
#BANNER:APOCALYPSE ~dirge of swans~-bn.png;
#BACKGROUND:APOCALYPSE ~dirge of swans~-bg.png;
#LYRICSPATH:;
#CDTITLE:MixMania II CD Title.png;
#MUSIC:APOCALYPSE ~dirge of swans~.mp3;
#OFFSET:-0.480;
#SAMPLESTART:34.340;
#SAMPLELENGTH:12.000;
#SELECTABLE:YES;
#LISTSORT:;
#BPMS:0.000=170.000;
#STOPS:;
#BGCHANGES:;
#ATTACKS:;

//---------------dance-single - ----------------
#NOTES:
     dance-single:
     :
     Easy:
     4:
     0.322,0.396,0.110,0.181,0.000:
0000
0000
0000
0000
,
0000
0000
0000
0000
,
1000
0000
1000
0000
,
0100
0000
0100
0000
,
0020
0000
0000
0000
,
0000
0000
0000
0000
,
0000
0000
0000
0000
,
0000
0000
0030
0000
,
1001
0001
1000
0001
,
0100
0000
0100
0000
,
0010
1000
0100
0010
,
0001
0000
0001
0000
,
1000
0001
0010
0100
,
0010
0000
0010
0000
,
0100
1000
0100
0010
,
0100
0000
0100
0000
,
1000
0001
2000
0100
,
3100
0100
0010
0000
,
0001
0100
0002
0010
,
0013
0100
0001
0000
,
0001
1000
0200
0010
,
0310
0001
0100
0010
,
0200
0000
0010
0000
,
0010
0010
0010
0310
,
0110
1000
0001
1000
,
0001
1000
0001
1000
,
0001
0010
0001
0010
,
0001
0010
0001
0010
,
0100
0010
0100
0010
,
0100
0010
0100
0010
,
0100
1000
0100
1000
,
0100
1000
0100
1000
,
0001
0100
0001
0100
,
0001
0100
0001
0100
,
0001
1000
0001
1000
,
0001
1000
0001
1000
,
0001
0010
0001
0010
,
0001
0010
0001
0010
,
0100
0010
0100
1000
,
0100
0010
0001
0010
,
0002
0003
0200
0300
,
0020
0030
2000
3000
,
0002
0003
2000
3000
,
0020
0030
0200
0300
,
0010
0010
0010
0000
,
0100
0000
0100
0000
,
1001
0000
0100
0000
,
0100
0000
0100
0000
,
1001
0000
0010
0000
,
1001
1001
0100
0000
,
1001
1001
0010
0000
,
1001
1001
0100
0100
,
0001
0100
0010
1000
,
0001
0100
0010
1000
,
0100
1000
0001
0010
,
0100
1000
0001
0010
,
0100
0001
1000
0010
,
0100
0001
1000
0010
,
1000
0001
0100
0010
,
1000
0001
0100
0010
,
1001
0000
0010
0000
,
1000
0000
0100
0000
,
1000
0000
0100
0010
,
0001
0000
0100
0000
,
0010
0000
1000
0000
,
0001
0000
1000
0001
,
1000
0000
0100
0000
,
0020
0000
0001
0030
,
1001
0001
1000
0001
,
0010
0001
0100
0001
,
2000
3000
0001
1000
,
0200
0300
0010
0001
,
0100
0001
0010
0001
,
2000
3000
0001
0100
,
0002
0003
0020
0030
,
0002
0003
2000
3000
,
0100
1000
0100
1000
,
0100
0010
0001
0000
,
0001
0010
0001
0010
,
0100
1000
0100
0010
,
0001
1000
0001
1000
,
2002
0000
0000
3003
,
0110
0000
0001
0000
,
0100
0000
1000
0000
,
1000
0000
0000
0000
;

//---------------dance-single - Copied from----------------
#NOTES:
     dance-single:
     Copied from:
     Beginner:
     1:
     0.128,0.264,0.055,0.031,0.000:
0000
0000
0000
0000
,
0000
0000
0000
0000
,
0100
0000
0100
0000
,
0100
0000
0100
0000
,
0200
0000
0000
0000
,
0000
0000
0000
0000
,
0000
0000
0300
0000
,
0000
0000
0000
0000
,
0010
0000
0000
0010
,
0010
0000
0000
0000
,
1000
0000
0000
1000
,
1000
0000
0000
0000
,
0001
0000
0000
0001
,
0001
0000
0000
0000
,
0100
0000
0000
0100
,
0100
0000
0000
0000
,
0010
0000
0010
0000
,
0010
0000
0000
0000
,
1000
0000
1000
0000
,
1000
0000
0000
0000
,
0100
0000
0100
0000
,
0100
0000
0000
0000
,
0020
0000
0000
0000
,
0000
0000
0030
0000
,
0010
0000
0000
0000
,
0010
0000
0001
0001
,
0001
0000
0000
0000
,
0001
0000
0100
0100
,
0100
0000
0000
0000
,
1000
0000
1000
0000
,
0100
0000
0010
0000
,
0001
0000
0000
0000
,
0010
0000
0000
0000
,
0100
0000
1000
0000
,
0100
0000
0100
0000
,
0010
0000
0100
0000
,
0010
0000
0000
0000
,
0001
0000
0010
0000
,
0001
0000
0001
0000
,
0200
0000
0300
0000
,
0100
0000
0100
0000
,
0100
0000
0100
0000
,
0010
0000
0010
0000
,
0010
0000
0010
0000
,
0000
0000
0000
0000
,
0000
0000
0000
0000
,
1001
0000
0000
0000
,
0000
0000
0000
0000
,
1001
0000
0000
0000
,
1001
1001
0000
0000
,
1001
0000
0000
0000
,
1001
0000
0000
0000
,
0100
0000
0000
0000
,
0010
0000
0000
0000
,
0100
0000
0000
0000
,
0010
0000
0000
0000
,
1000
0000
0000
0000
,
0001
0000
0000
0000
,
1000
0000
0000
0000
,
0001
0000
0000
0000
,
1001
0000
0000
0000
,
0000
0000
0000
0000
,
0100
0000
0000
0000
,
0000
0000
0000
0000
,
0010
0000
0000
0000
,
0000
0000
0000
0000
,
0100
0000
0000
0000
,
0000
0000
0000
0000
,
0001
0000
0000
0000
,
0001
0000
0100
0000
,
0010
0000
0000
0000
,
0100
0000
0100
0000
,
0100
0000
0000
0000
,
0010
0000
1000
0000
,
0010
0000
0010
0000
,
0010
0000
0010
0000
,
0010
0000
0000
0000
,
0100
0000
0000
0000
,
0010
0000
0000
0000
,
1000
0000
0000
0000
,
0100
0000
0000
0000
,
0020
0000
0000
0000
,
0030
0000
0010
0000
,
0010
0000
0010
0000
,
0010
0000
0000
0000
;

//---------------dance-single - Copied from----------------
#NOTES:
     dance-single:
     Copied from:
     Medium:
     6:
     0.363,0.396,0.078,0.188,0.000:
0000
0000
0000
0000
,
0000
0000
0000
0000
,
0000
0000
0000
0000
,
0100
0000
0000
0000
0100
0000
0000
1000
,
2000
0000
0000
0000
,
0000
0000
0000
0000
,
0200
0000
0000
0000
,
0300
0000
3000
0000
,
1001
0100
1000
0100
,
0010
0000
0001
0010
0000
0001
0000
0010
,
0001
0100
0001
0010
,
0100
0000
1000
0100
0000
1000
0000
0100
,
1000
0100
0010
0001
,
1000
0000
0001
1000
0000
0001
0000
1000
,
0001
0001
0010
0100
,
1000
0000
0010
1000
0000
0010
0000
1000
,
0010
0100
0001
0100
,
0001
0000
0000
0100
0001
0000
0000
0000
,
0001
0100
0010
1000
,
0100
0000
0000
1000
0010
0000
0000
0000
,
0100
0010
0001
0100
,
0001
0000
0000
0010
0100
0000
1000
0000
,
0200
0000
0020
0030
,
0020
0000
0000
0330
,
1001
0001
0001
1000
,
1000
0010
1000
0100
,
0010
0001
0100
0001
,
0010
0000
0001
0000
0010
1000
0100
0000
,
1000
0100
1000
0010
,
0100
0001
0010
0001
,
0100
0000
0010
0000
1000
0000
0100
1000
,
0100
0100
0010
0001
,
0100
0010
1000
0100
,
0010
0000
0001
0000
0100
0000
0001
1000
,
0010
0010
1000
0010
,
0100
0000
0001
0000
1000
0000
0100
1000
,
0010
0100
0001
0010
,
0001
0100
0010
1000
,
0100
0001
0100
0000
0010
1000
0010
0000
,
2002
0000
3003
0000
,
0001
0001
0000
0000
1000
1000
0000
0000
,
0010
0010
0000
0000
0100
0100
0000
0000
,
0001
0001
0000
0000
1000
1000
0000
0000
,
0100
0100
0000
0000
0010
0010
0000
0000
,
0001
0001
2000
0000
,
0000
0000
3000
0000
,
0100
0000
0000
0000
,
0000
0000
0000
0000
,
1001
0000
0000
0000
1001
0000
0000
0001
,
1000
1001
1001
0000
,
1100
0000
0010
0000
0001
0000
0000
0100
,
0001
0010
0001
0100
,
0010
0000
1000
0100
0010
0000
0001
0000
,
0100
0000
0001
0010
0100
0000
1000
0000
,
0001
0000
0010
1000
0100
0000
0010
0000
,
0100
0000
0010
0001
0100
0000
0010
0000
,
1000
0000
0001
1000
0001
0000
0100
0000
,
0001
0000
0010
0100
1000
0000
0100
0000
,
0010
0000
0001
1000
0010
0000
0100
0000
,
0001
0000
0010
0001
0100
0000
0010
0000
,
2000
0000
3200
0000
,
0320
0000
0032
0000
,
0203
0000
0320
0000
,
2030
0000
3200
0000
,
0320
0000
0032
0000
,
0203
0000
0302
0000
,
0023
0000
0032
0000
,
0203
0000
0320
0000
,
1030
0100
0010
0001
,
1000
0001
1000
0010
,
0001
0000
0100
0000
0001
0000
0010
0001
,
0100
0010
1000
0100
,
1000
0100
0010
0100
,
0010
0000
0000
0100
0000
0000
0100
0000
,
0010
1000
0100
0010
,
0010
1000
0100
0010
,
0001
0000
1000
0100
0010
0000
0001
0000
,
1000
0000
1000
0100
0010
0000
0001
0000
,
1000
0000
1000
0100
0010
0000
0001
0000
,
1000
0000
1000
0100
0010
0000
0001
0000
,
1000
0000
0001
0010
0100
0000
1000
0000
,
0001
0000
0001
0000
1000
1000
0001
0000
,
1001
0000
0100
0000
,
0100
0000
0010
0000
,
1100
0000
0000
0000
;

//---------------dance-single - Copied from----------------
#NOTES:
     dance-single:
     Copied from:
     Hard:
     8:
     0.577,0.698,0.338,0.204,0.047:
0000
0000
0000
0000
,
0000
0000
0000
0000
,
0001
1000
0001
1000
0010
0000
0000
0000
,
1000
0001
1000
0100
0010
0000
0000
0001
,
2002
0000
0000
0000
,
0000
0000
0000
0003
,
0020
0000
0000
0000
,
0000
0000
0000
3030
,
1000
0100
0010
0001
0020
0000
0032
0000
,
0103
0000
0010
1000
0000
0100
0000
1000
,
0100
0010
0001
1000
0100
0000
0010
0000
,
1000
0000
0001
0100
0000
0001
0000
0100
,
0010
1000
0100
0010
0001
0000
1000
0000
,
0001
0000
1000
0001
0000
1000
0000
0100
,
0010
0001
1000
0001
0010
0000
0100
0000
,
0001
0000
1000
0001
0000
0100
0000
0001
,
0010
0001
0200
0000
0310
0000
1000
0100
,
1000
0000
0100
1000
1010
0000
1000
0000
,
0100
0010
0001
0000
0100
0000
0001
0010
,
0001
0100
0010
1000
1100
0000
1000
0000
,
0100
1000
0010
0100
0002
0000
0023
0000
,
0031
0000
0010
1000
0010
0001
1000
0100
,
0001
1000
0010
1000
0002
0000
0000
0000
,
0023
0000
0000
0000
0001
0000
0000
0000
0130
0000
0000
0000
1000
0000
0001
1000
,
0010
0100
0010
0100
1000
0100
1000
0000
,
0100
0010
0001
0010
0001
0100
0001
0000
,
0010
0001
0010
0100
0010
0001
0010
0000
,
0100
1000
0100
0010
0100
1000
0100
0000
,
0001
1000
0001
0010
0001
1000
0001
0000
,
0100
0010
0001
1000
0001
0010
0100
0000
,
0100
1000
0010
1000
0100
1000
0010
0000
,
0100
1000
0100
0001
0100
1000
0100
0000
,
0001
0010
1000
0010
0001
0010
1000
0010
,
0001
0100
1000
0100
0001
0100
1000
0000
,
0100
0001
0010
0001
0100
0001
0010
0001
,
0100
1000
0010
1000
0100
1000
0010
0000
,
0100
0010
0001
1000
0100
0010
0001
1000
,
0100
1000
0001
0010
0100
1000
0001
0010
,
0210
0000
0310
0001
0012
0000
1003
0100
,
0020
0032
2003
3001
,
0110
0110
0000
0000
1001
1001
0000
0000
,
0011
0011
0000
0000
1100
1100
0000
0000
,
0101
0101
0000
0000
1001
1001
0000
0000
,
1010
1010
0000
0000
0110
0110
0000
0000
,
1000
0000
1000
0001
0010
0100
2000
0000
0000
0000
0000
0000
,
0000
0000
0000
3000
,
1001
0010
0010
0010
,
0010
0010
0010
0010
,
1001
0000
0000
0010
0000
0000
0010
0000
0000
0000
1000
0001
,
1000
1001
0001
0000
,
1001
0000
0000
1001
0000
0000
0010
0000
0000
0000
0010
0100
,
0010
0000
0000
0100
0000
0000
0001
1000
0001
1000
0001
1000
,
0001
0000
0100
0010
1000
0000
0100
0010
,
0001
0000
1000
0001
0010
0000
0001
0100
,
1000
0000
0100
1000
0010
0000
0010
0100
,
0001
0000
0010
0001
0100
0000
0001
1000
,
0010
0000
0100
0010
0100
0000
1000
0100
,
0001
0000
0010
0001
0100
0000
0010
1000
,
0001
0000
0100
0001
1000
0000
1000
0001
,
0010
0001
0010
0001
0100
0010
0100
1000
,
0100
0100
0110
0010
,
0011
0001
1001
1000
,
1010
0010
0110
0100
,
0101
0001
1001
0000
,
0210
0000
0010
0000
,
0010
0000
0001
0001
,
0010
0000
0001
0000
,
1000
0000
0020
0330
,
1000
0100
0010
0100
1000
0100
0010
0000
,
0001
0100
1000
0001
1000
0100
0001
0000
,
1000
0100
0010
0001
0010
0100
1000
0000
,
0001
0010
0001
0100
0001
0010
0001
0000
,
0100
0001
1000
0001
0100
0001
1000
0000
,
0100
1000
0100
0010
0001
0010
0001
0000
,
0210
0000
0301
0010
0012
0000
0103
1000
,
2100
0000
3100
0010
1002
0000
0013
0100
,
0010
0100
1000
0100
0010
0001
1000
0010
,
0100
0001
1000
0001
0020
0000
0230
0000
,
0310
0001
1000
0010
0100
0001
0100
0010
,
1000
0100
0010
0001
1000
0001
0010
0100
,
0010
1000
0001
0100
0010
0001
1000
0100
,
0010
0100
0010
0100
0001
1000
0001
1000
,
1001
0000
1010
0000
,
0101
0000
0011
0000
,
2002
0000
0000
3003
;

//---------------dance-single - Copied from Copied from----------------
#NOTES:
     dance-single:
     Copied from Copied from:
     Challenge:
     9:
     0.635,0.632,0.487,0.126,0.078: // measure 1
0000
0000
0000
0000
,  // measure 2
0000
0000
0000
0000
,  // measure 3
0001
1000
0001
0100
0010
0000
0000
0000
,  // measure 4
1000
0000
0001
0000
1000
0000
0100
0000
0010
0000
0000
0000
0000
0000
0001
0010
,  // measure 5
0200
0000
0000
0000
,  // measure 6
0000
0000
0000
0000
,  // measure 7
0020
0000
0000
0000
,  // measure 8
0000
0000
0000
0330
,  // measure 9
1001
0000
1000
0001
0100
0010
0001
0010
,  // measure 10
0001
0100
0001
0100
0000
0010
1000
0100
,  // measure 11
1000
0100
0010
0001
0100
0001
0010
0001
,  // measure 12
0100
0010
1000
0100
0000
1000
0100
0010
,  // measure 13
0011
0001
0100
0001
0100
0010
1000
0001
,  // measure 14
1000
0100
1000
0010
0000
0010
1000
0100
,  // measure 15
0010
0001
1000
0100
0010
0001
1000
0001
,  // measure 16
0010
0001
0100
0010
0000
0010
1000
0100
,  // measure 17
1000
0000
0100
0000
0010
0001
0000
0000
0010
0000
1000
0000
0001
0000
0100
0000
,  // measure 18
0101
0000
0100
1000
1001
0000
0100
0000
,  // measure 19
1000
0000
0001
0000
0010
0100
0000
0000
1000
0000
0100
0000
0010
0000
0001
0000
,  // measure 20
1001
0000
0010
0100
1100
0000
0010
0000
,  // measure 21
0001
0000
0100
0000
0010
1000
0000
0000
0100
0000
0010
0000
1000
0000
0001
0000
,  // measure 22
1000
0100
0010
0002
0000
0103
0010
1000
,  // measure 23
0001
0001
1000
0001
,  // measure 24
1000
0000
0000
1000
0100
0000
0000
0100
0001
0000
0001
0000
0010
0001
0010
0001
,  // measure 25
0010
0001
1000
0100
1000
0010
0100
0001
,  // measure 26
0100
0010
1000
0001
0100
0010
0001
1000
,  // measure 27
0001
0100
0010
1000
0001
1000
0100
0010
,  // measure 28
0100
0001
1000
0010
0200
0000
0302
0000
,  // measure 29
1003
0010
0100
0001
0100
1000
0100
0010
,  // measure 30
0100
0001
1000
0001
0010
0100
1000
0010
,  // measure 31
1000
0001
0010
0001
1000
0001
0100
0010
,  // measure 32
1010
1001
0101
1001
,  // measure 33
1000
0100
0010
0001
1000
0001
0010
0100
,  // measure 34
1000
0010
1000
0100
0010
1000
0010
0100
,  // measure 35
1000
0001
0010
0100
0010
0100
0001
0010
,  // measure 36
0100
1000
0100
0010
0100
0010
0001
0000
,  // measure 37
0010
0001
1000
0100
0010
0100
1000
0100
,  // measure 38
1000
0001
0010
0100
0010
1000
0010
0100
,  // measure 39
0001
1000
0010
0100
0001
0100
0010
0000
,  // measure 40
0110
1001
0011
1100
,  // measure 41
1100
1010
0000
0000
0101
0011
0000
0000
,  // measure 42
0101
1001
0000
0000
1001
1010
0000
0000
,  // measure 43
0110
1001
0000
0000
0011
1100
0000
0000
,  // measure 44
1010
0101
0000
0000
1001
1001
0000
0000
,  // measure 45
1000
0000
0001
1000
0100
0010
0002
0000
0000
0000
0000
0000
,  // measure 46
0000
0000
0000
0003
,  // measure 47
1001
0010
0010
0010
,  // measure 48
0010
0010
0010
0010
,  // measure 49
1001
0000
0000
0010
0000
0000
0001
0000
0000
0010
0001
1000
,  // measure 50
0001
0010
0200
0300
,  // measure 51
1010
0000
0000
0100
0000
0000
0100
0000
0000
0100
1000
0100
,  // measure 52
0010
0000
0000
0010
0000
0000
0010
0001
1000
0100
0010
0001
,  // measure 53
0100
0000
0010
1000
0100
0010
0001
0010
,  // measure 54
0100
0000
0001
1000
0100
1000
0010
0100
,  // measure 55
0001
0000
0010
0001
0100
1000
0100
0010
,  // measure 56
0100
0000
0010
0001
1000
0100
0010
0001
,  // measure 57
1100
0000
0100
0010
0100
0001
0100
0010
,  // measure 58
0100
0000
1000
0010
0100
0001
1000
0010
,  // measure 59
0100
0000
1000
0010
0100
0001
1000
0010
,  // measure 60
1000
0000
0001
0010
0100
1000
0100
0010
,  // measure 61
1001
0100
1010
0100
,  // measure 62
0011
0100
1001
0010
,  // measure 63
0011
1000
0110
0001
,  // measure 64
1001
0010
2200
3300
,  // measure 65
1010
0100
0011
0010
,  // measure 66
0101
1000
0110
1100
,  // measure 67
0101
0010
1001
0100
,  // measure 68
2002
0003
0020
3030
,  // measure 69
1100
1000
0100
0010
0001
0100
0010
1000
,  // measure 70
0100
0000
0100
0010
0001
0000
0001
0100
,  // measure 71
0010
1000
0010
0100
0001
0010
0001
0010
,  // measure 72
0100
1000
0100
0010
0200
0000
0302
0000
,  // measure 73
0013
0001
1000
0001
0100
0010
0100
0001
,  // measure 74
0010
0100
1000
0100
0010
0001
1001
0000
,  // measure 75
1010
1000
0100
0000
0011
0001
0100
0000
,  // measure 76
1001
0000
0100
0000
0010
0000
0000
0000
0110
0000
0000
1000
0001
0000
0010
0000
,  // measure 77
1001
0001
0010
0100
1000
0100
0010
0100
,  // measure 78
0001
0010
0001
0100
0010
0000
0100
0000
,  // measure 79
0001
0100
0010
1000
0001
0100
0001
0010
,  // measure 80
0001
1000
0010
0100
0001
0010
1000
0000
,  // measure 81
0100
1000
0010
0100
0010
0001
0001
0010
,  // measure 82
0100
1000
0100
0010
1000
0010
0100
0001
,  // measure 83
0110
0000
1001
0000
,  // measure 84
1010
0000
0101
0000
,  // measure 85
0022
0000
0000
0033
;
