#TITLE:3y3s;
#SUBTITLE:;
#ARTIST:Seiryu;
#TITLETRANSLIT:;
#SUBTITLETRANSLIT:;
#ARTISTTRANSLIT:;
#GENRE:;
#CREDIT:;
#MENUCOLOR:;
#NEWMETERSYSTEM:NO;
#BANNER:3y3s-bn.png;
#BACKGROUND:3y3s-bg.png;
#LYRICSPATH:;
#CDTITLE:MixMania II CD Title.png;
#MUSIC:3y3s.mp3;
#OFFSET:-0.020;
#SAMPLESTART:98.000;
#SAMPLELENGTH:12.000;
#SELECTABLE:YES;
#LISTSORT:;
#BPMS:0.000=191.000;
#STOPS:;
#BGCHANGES:;
#ATTACKS:;

//---------------dance-single - ----------------
#NOTES:
     dance-single:
     :
     Easy:
     5:
     0.330,0.457,0.024,0.143,0.000:
0000
0000
0000
0000
,
0000
0000
0000
0000
,
0000
0000
0000
0000
,
1000
0000
0000
0100
,
0100
0000
0010
0000
,
0001
0000
0000
0010
,
0010
0000
1000
0000
,
0100
0000
0000
1000
,
1000
0000
0100
0000
,
0001
0000
1000
0000
,
0001
0000
0000
1000
,
2002
0000
3003
0000
,
0010
0010
0100
0010
,
0100
0100
0010
0100
,
1000
1000
0001
1000
,
0001
0001
1000
0001
,
0010
0001
0100
1000
,
0010
0001
0100
1000
,
0010
0001
0100
1000
,
0002
0000
0000
0003
,
1000
0100
0010
0001
,
1000
0100
0010
0001
,
1000
0100
0010
0001
,
1000
0100
0010
0001
,
1000
0100
1000
0100
,
0001
0100
0001
0100
,
0001
0010
1000
0010
,
0200
0000
0000
0300
,
0100
0000
0100
0001
,
1000
0000
1000
0100
,
0001
0000
0001
0010
,
0100
0000
0100
1000
,
0010
0100
0001
0010
,
0001
0100
0010
1000
,
0200
2300
3200
0320
,
0031
0000
0100
0100
,
0001
1000
0100
1000
,
0010
0000
0100
0100
,
1000
0100
0010
0001
,
0000
0010
0001
0010
,
0001
0100
0010
1000
,
0000
0000
1000
0001
,
0100
1000
0010
0100
,
0002
0003
2000
3000
,
0001
1000
0100
0010
,
0001
0000
1000
0000
,
0001
0010
0100
1000
,
0001
0000
1000
0000
,
0100
1000
0100
0010
,
0001
0010
0100
1000
,
0001
1000
0100
0010
,
0200
0000
0000
0000
,
0020
0000
0000
0330
,
0110
0000
0000
0000
,
0000
0000
0000
0000
,
0000
0000
0000
0000
,
1000
0100
0001
0100
,
1000
0000
0001
0000
,
1000
0010
0001
0010
,
1000
0000
0001
0000
,
0010
0001
0010
0100
,
0010
0000
1000
0000
,
0100
0000
1000
0000
,
0100
0000
0000
0001
,
1000
0010
0100
0010
,
1000
0000
0001
0000
,
0100
0010
0100
1000
,
0100
0000
0001
0000
,
0010
0001
1000
0001
,
0010
0000
0100
0000
,
1000
0000
0001
0000
,
0010
0000
0000
0100
,
0100
0000
0010
0000
,
0100
0000
0001
0000
,
1000
1000
0001
0001
,
1000
0001
0010
0001
,
2000
0000
0000
0000
,
0000
0000
0000
3000
,
0001
1000
0001
1000
,
0001
0010
0001
0010
,
0100
0010
0100
0010
,
0100
1000
0100
0010
,
0001
1000
0001
1000
,
0010
1000
0100
1000
,
0002
0000
2003
0000
,
3200
0000
0000
0310
,
0010
0001
0010
0001
,
0010
0001
0010
0100
,
1000
0100
1000
0100
,
1000
0100
0010
0001
,
1000
0100
0010
0001
,
1000
0001
0010
0100
,
1000
0000
0001
0000
,
1000
0000
0000
0100
,
2002
0000
0000
0000
,
0000
0000
0000
3003
;

//---------------dance-single - Copied from----------------
#NOTES:
     dance-single:
     Copied from:
     Beginner:
     1:
     0.123,0.262,0.056,0.072,0.000:
0000
0000
0000
0000
,
0000
0000
0000
0000
,
0000
0000
0000
0000
,
1000
0000
0000
0000
,
1000
0000
0000
0000
,
0001
0000
0000
0000
,
0001
0000
0000
0000
,
0100
0000
0000
0000
,
0100
0000
0000
0000
,
0001
0000
0000
0000
,
1000
0000
0000
0000
,
0020
0000
0000
0030
,
0010
0000
0000
0000
,
0000
0000
0000
0000
,
0000
0000
0000
0000
,
0000
0000
0000
0000
,
1000
0000
1000
0000
,
1000
0000
1000
0000
,
1000
0000
1000
0000
,
1000
0000
0000
0000
,
0001
0000
0001
0000
,
0001
0000
0001
0000
,
0001
0000
0001
0000
,
0001
0000
0001
0000
,
0010
0000
0010
0000
,
0100
0000
0100
0000
,
1000
0000
0001
0000
,
2000
0000
0000
3000
,
1000
0000
0000
0000
,
0010
0000
0000
0000
,
0100
0000
0000
0000
,
0001
0000
0000
0000
,
0100
0000
0000
0000
,
0010
0000
0000
0000
,
1000
0000
0000
0000
,
2002
0000
3003
0000
,
1001
0000
0000
0000
,
0100
0000
0000
0000
,
0010
0000
0000
0000
,
0100
0000
0000
0000
,
0100
0000
0000
0000
,
1000
0000
0000
0000
,
1000
0000
0000
0000
,
0002
0000
0000
0003
,
0001
0000
0000
0000
,
0001
0000
0000
0000
,
0010
0000
0000
0000
,
0100
0000
0000
0000
,
1000
0000
0000
0000
,
1000
0000
0000
0000
,
0010
0000
0000
0000
,
0002
0000
0000
0000
,
0000
0000
0000
0000
,
0003
0000
0000
0000
,
0000
0000
0000
0000
,
0000
0000
0000
0000
,
0100
0000
0000
0000
,
0100
0000
0000
0000
,
1000
0000
0000
0000
,
0010
0000
0000
0000
,
0001
0000
0000
0000
,
0100
0000
0000
0000
,
0010
0000
0000
0000
,
1000
0000
0000
0000
,
1001
0000
0000
0000
,
1001
0000
0000
0000
,
1001
0000
0000
0000
,
1001
0000
0000
0000
,
0100
0000
0000
0000
,
0100
0000
0000
0000
,
0010
0000
0000
0000
,
0010
0000
0000
0000
,
1000
0000
0000
0000
,
0001
0000
0000
0000
,
2002
0000
0000
0000
,
0000
0000
0000
0000
,
3003
0000
0000
0000
,
0000
0000
0000
0000
,
0010
0000
0000
0000
,
0001
0000
0000
0000
,
0010
0000
0000
0000
,
0100
0000
0000
0000
,
1000
0000
0000
0000
,
0010
0000
0000
0000
,
0100
0000
0000
0000
,
0002
0000
0003
0000
,
0001
0000
0000
0000
,
0100
0000
0000
0000
,
0010
0000
0000
0000
,
1000
0000
0000
0000
,
0100
0000
0000
0000
,
1000
0000
0000
0000
,
0100
0000
0000
0000
,
0010
0000
0000
0000
,
0010
0000
0000
0000
;

//---------------dance-single - Copied from----------------
#NOTES:
     dance-single:
     Copied from:
     Medium:
     6:
     0.416,0.533,0.151,0.310,0.000:
0000
0000
0000
0000
,
0000
0000
0000
0000
,
0000
0000
0000
0000
,
1000
0000
0000
1000
0000
0000
0001
0000
,
0010
0100
0010
0001
,
0100
0000
0000
0010
0000
0000
1000
0000
,
0100
0000
0010
0000
0100
0000
0100
2000
,
0000
3000
0000
0010
0000
0000
0010
0000
,
1000
0000
0100
0000
1000
0000
0100
0010
,
0000
0000
0000
0010
0100
0000
0000
0100
,
0010
0000
0000
0000
0000
1000
0001
1000
,
0000
0000
0000
0000
,
1000
0100
0010
0001
,
1000
0100
0010
0001
,
1000
0100
0010
0001
,
1000
0100
0010
0001
,
1001
0010
0011
0100
,
0101
1000
1010
0001
,
1100
0010
1001
0100
,
0022
0000
0000
0033
,
1001
0100
0100
1000
,
1010
0010
0010
0001
,
0101
0010
0010
0001
,
1001
0100
0100
1000
,
1100
1000
0010
0001
,
0101
0001
0010
1000
,
1001
0100
1001
0100
,
2002
0000
0000
3003
,
0002
0000
0000
1000
,
2003
0000
0000
0100
,
3200
0000
0000
0010
,
0320
0000
0000
0001
,
0032
0100
0203
0010
,
0320
1000
2030
0100
,
3200
2300
3200
0320
,
0031
0000
0100
1001
,
0010
0000
1000
0000
0100
0000
1000
0200
,
0000
0300
0000
0000
0001
0000
0100
0000
,
0010
0000
1000
0000
0001
0000
0100
0002
,
0000
0003
0000
0000
0010
0000
0100
0000
,
1000
0000
0100
0000
0010
0000
1000
0200
,
0000
0300
0000
0000
0001
0000
1000
0000
,
0100
0000
0001
0000
0010
0000
0100
2000
,
0000
3000
0000
0000
0001
0000
1000
0000
,
0100
0010
0100
0010
,
0002
2003
3002
2003
,
3010
0100
1000
0100
,
0002
0023
0230
2300
,
3100
1000
0100
0020
,
0031
0100
0001
0020
,
1030
0100
1000
0100
,
2002
0000
0000
0000
,
0000
0000
0000
3003
,
0010
0000
0000
0000
,
0000
0000
0000
0000
,
0000
1000
0000
1000
0001
1000
0001
0000
,
0010
0000
0000
0100
0000
0000
1000
0000
,
0100
0010
0001
1000
,
0001
0000
0000
0100
0000
0000
0010
0000
,
1000
0000
0100
0000
0010
0000
0001
0020
,
0000
0030
0000
0100
0000
0000
1000
0000
,
0100
0000
0010
0000
1000
0000
0100
1000
,
0000
0000
0000
1000
0100
0000
0000
0010
,
0001
0000
0000
0000
0000
0100
0001
0010
,
0100
1000
0100
1000
,
0100
0010
0001
0010
,
0100
0001
0100
0010
,
1000
0100
1000
0001
,
0001
0010
0100
1000
,
0001
0000
0010
0000
0100
0000
1000
0001
,
0000
0000
0000
0001
1000
0000
0000
1000
,
0001
0000
0000
0000
0000
0001
1000
0010
,
0000
0000
0000
0010
0100
0000
0000
0100
,
0010
0000
0000
0001
0000
0001
0000
0000
,
0100
0001
1000
0010
,
0100
0000
0010
0000
0100
0010
0100
0020
,
0000
0000
0000
0000
,
0000
0000
0000
0030
,
1000
0000
0000
0100
0000
0000
0010
0000
,
0001
0100
0001
0010
,
0100
0000
0000
0010
0000
0000
0100
0000
,
0001
0000
1000
0000
0100
0000
1000
0020
,
0000
0030
0000
0100
0000
0000
0100
0000
,
0001
0000
0010
0000
0100
0000
1000
0100
,
0000
0000
0000
0100
0010
0000
0000
0010
,
0001
0000
0000
0000
0000
0001
1000
0010
,
0100
0000
0000
0001
0000
0000
1000
0000
,
0100
0010
0001
0010
,
0100
0000
0000
0001
0000
0000
1000
0000
,
0010
0000
0100
0000
0001
0000
0001
2000
,
0000
3000
0000
1000
0000
0000
0100
0000
,
1000
0000
0100
0000
0010
0000
0001
0100
,
0000
0000
0000
0010
1000
0000
0000
1000
,
0100
0000
0000
0000
0000
0100
0001
0000
,
2002
0000
0000
0000
,
0000
0000
0000
3003
;

//---------------dance-single - Copied from----------------
#NOTES:
     dance-single:
     Copied from:
     Hard:
     7:
     0.503,0.686,0.167,0.103,0.048: // measure 1
0000
0000
0000
0000
,  // measure 2
0000
0000
0000
0000
,  // measure 3
0000
0000
0000
0000
,  // measure 4
1000
0001
1000
0001
0000
0001
0100
0000
,  // measure 5
0010
1000
0100
1000
,  // measure 6
0010
1000
0010
1000
0000
1000
0100
0000
,  // measure 7
0010
0000
0001
0000
0100
0000
0001
0010
,  // measure 8
0000
0100
0010
0100
0000
0000
1000
0000
,  // measure 9
0100
0000
0010
0000
0001
0000
0100
0001
,  // measure 10
0000
0000
0000
0001
0010
0000
0000
0010
,  // measure 11
0100
0000
0000
0000
0000
0100
1000
0020
,  // measure 12
0000
0000
0000
0030
,  // measure 13
1001
0100
1000
0100
,  // measure 14
0010
0001
0010
0100
,  // measure 15
0001
1000
0100
1000
,  // measure 16
0010
1000
0100
0010
,  // measure 17
1001
1001
0011
1001
,  // measure 18
1001
1001
1010
1001
,  // measure 19
1001
1001
0011
1001
,  // measure 20
2002
0000
0000
3003
,  // measure 21
0001
0000
1000
0000
0010
0000
0100
0001
,  // measure 22
0010
0000
0100
0000
1000
0000
0010
1000
,  // measure 23
0100
0000
1000
0000
0100
0000
0010
0001
,  // measure 24
0010
0000
0100
0000
0001
0000
0010
1000
,  // measure 25
0100
0000
1000
0000
0010
0000
0100
0001
,  // measure 26
0010
0000
0001
0000
0100
0000
0010
0001
,  // measure 27
0100
0000
0010
1000
0100
0000
1000
0001
,  // measure 28
2000
3002
2003
3020
,  // measure 29
0130
0000
0000
1000
0000
0000
0010
0000
0000
0100
0000
0000
0001
0000
0010
0000
,  // measure 30
0100
0000
0000
1000
0000
0000
0001
0000
0000
1000
0000
0000
0001
0000
1000
0000
,  // measure 31
0010
0000
0000
0100
0000
0000
0001
0000
0000
0010
0000
0000
0001
0000
1000
0000
,  // measure 32
0100
0000
0000
1000
0000
0000
0001
0000
0000
0100
0000
0000
0010
0000
0100
0000
,  // measure 33
0010
0000
0100
1000
0100
0000
0010
0001
,  // measure 34
0010
0000
0001
1000
0001
0000
0010
0100
,  // measure 35
0010
1000
0100
0010
0001
0010
0100
0010
,  // measure 36
0100
0000
0100
0000
0100
0010
0100
0000
,  // measure 37
1001
0000
0100
0000
1000
0000
0010
0001
,  // measure 38
0100
0010
1000
0001
,  // measure 39
0100
0000
0001
0000
0010
0000
0100
1000
,  // measure 40
0100
1000
0010
0100
,  // measure 41
0001
0000
0010
0000
0100
0000
0010
0100
,  // measure 42
0001
0001
1000
0010
,  // measure 43
0100
0000
1000
0000
0100
0000
1000
0100
,  // measure 44
1000
0100
0010
1001
,  // measure 45
0100
0001
0010
0100
,  // measure 46
1000
0000
0100
0000
0001
1000
0001
0000
,  // measure 47
0100
1000
0010
0100
,  // measure 48
0001
0000
0100
0000
0010
1000
0100
0000
,  // measure 49
0100
0000
0000
1000
0000
0000
0001
0000
0000
0100
0000
0000
0101
0000
0000
0000
,  // measure 50
0100
0000
0000
0001
0000
0000
1000
0000
0000
0100
0000
0000
1100
0000
0000
0000
,  // measure 51
0010
1000
0001
0100
,  // measure 52
2002
0000
0000
0000
,  // measure 53
0000
0000
0000
3003
,  // measure 54
0100
0000
0000
0000
,  // measure 55
0000
0000
0000
0000
,  // measure 56
0000
1000
0000
0001
1000
0100
0010
0000
,  // measure 57
0010
0000
0100
1000
0000
0100
0010
0000
,  // measure 58
0001
1000
0001
1000
,  // measure 59
0010
0000
0100
1000
0000
0001
0010
0000
,  // measure 60
0100
0000
0010
0000
0001
0000
0001
1000
,  // measure 61
0000
1000
0001
1000
0000
1000
0100
0000
,  // measure 62
0010
0000
0001
0000
0100
0000
0001
0010
,  // measure 63
0000
0000
0000
0100
1000
0000
0000
1000
,  // measure 64
0100
0000
0100
0000
0100
0001
0010
0100
,  // measure 65
1000
0000
0001
1000
0000
1000
0100
0000
,  // measure 66
0010
0100
1000
0100
,  // measure 67
0010
0000
0001
0010
0000
0100
1000
0000
,  // measure 68
0001
0000
1000
0000
0010
0000
1000
0100
,  // measure 69
0000
0010
0001
1000
0000
1000
0100
0000
,  // measure 70
0010
0000
0100
0000
1000
0000
0001
1000
,  // measure 71
0000
0000
0000
1000
0001
0000
0000
0001
,  // measure 72
0010
0000
0010
0000
0010
0001
0100
0001
,  // measure 73
0010
0000
0000
0100
0010
0000
0000
0010
,  // measure 74
0100
0000
0001
1000
0001
1000
0001
1000
,  // measure 75
0100
0000
0000
0100
0010
0000
0000
0010
,  // measure 76
0100
0000
1000
0000
0001
1000
0001
0200
,  // measure 77
0000
0000
0000
0000
,  // measure 78
0020
0000
0000
0330
,  // measure 79
1001
0000
0001
0010
0000
0010
0100
0000
,  // measure 80
0100
1000
0100
0010
,  // measure 81
0001
0000
1000
0001
0000
0001
1000
0000
,  // measure 82
0100
0000
1000
0000
0010
0000
0100
0001
,  // measure 83
0000
0010
0100
0010
0000
0100
1000
0000
,  // measure 84
0100
0000
0010
0000
0001
0000
1000
0100
,  // measure 85
0000
0000
0100
0010
0001
0000
0001
0010
,  // measure 86
0100
0000
1000
0000
0001
1000
0001
0010
,  // measure 87
0100
0000
1000
0100
0000
0010
0100
0000
,  // measure 88
0010
0100
1000
0001
,  // measure 89
0100
0000
0010
0100
0000
0100
0010
0000
,  // measure 90
1000
0000
0001
0000
1000
0000
0100
0010
,  // measure 91
0000
0001
0010
0001
0000
1000
0100
0000
,  // measure 92
1000
0000
0001
0000
1000
0000
0001
0010
,  // measure 93
0100
0000
0010
0100
1000
0000
1000
0001
,  // measure 94
0010
0000
0010
0000
0010
0001
1000
0000
,  // measure 95
0202
0000
0000
0000
,  // measure 96
0000
0000
0000
0303
;

//---------------dance-single - Copied from Copied f----------------
#NOTES:
     dance-single:
     Copied from Copied f:
     Challenge:
     8:
     0.628,0.686,0.414,0.294,0.048: // measure 1
0000
0000
0000
0000
,  // measure 2
0000
0000
0000
0000
,  // measure 3
0000
0000
0000
0000
,  // measure 4
0001
0010
0100
1000
0000
1000
0100
0010
,  // measure 5
0001
1000
0001
1000
,  // measure 6
0001
0010
0100
1000
0000
1000
0100
0010
,  // measure 7
0001
0000
1000
0000
0001
0000
1000
0010
,  // measure 8
0000
0010
0100
0001
0000
0001
0010
0100
,  // measure 9
1000
0000
0100
0000
1000
0000
1000
0001
,  // measure 10
0000
0000
0001
0100
0001
0000
1000
0100
,  // measure 11
1000
0000
0100
0000
0010
0100
0010
0002
,  // measure 12
0000
0000
0000
0003
,  // measure 13
1001
0100
1000
0100
,  // measure 14
0010
0001
1000
0001
,  // measure 15
0100
0010
1000
0100
,  // measure 16
0010
0100
1000
0001
,  // measure 17
1001
1010
1001
0011
,  // measure 18
1001
1100
1001
0011
,  // measure 19
0101
1010
1100
1001
,  // measure 20
0220
0000
0000
0330
,  // measure 21
1001
0000
1000
0001
1000
0000
0010
0000
,  // measure 22
1100
0000
0100
0010
0001
0000
0010
0000
,  // measure 23
0110
0000
0010
0001
0100
0000
0010
0000
,  // measure 24
1001
0000
0010
1000
0100
0000
0100
0000
,  // measure 25
1010
0000
1000
0001
1000
0000
0100
0000
,  // measure 26
0011
0000
0010
1000
0100
0000
0010
0000
,  // measure 27
0101
0000
0010
1000
1100
0000
0010
0000
,  // measure 28
2002
0000
3003
0000
1000
0001
2000
0000
,  // measure 29
3010
0000
0000
0001
0000
0000
0010
0000
0000
0100
0000
0000
1000
0000
0001
0000
,  // measure 30
1000
0000
0000
0010
0000
0000
0100
0000
0000
0001
0000
0000
0010
0000
0100
0000
,  // measure 31
0010
0000
0000
1000
0000
0000
0001
0000
0000
1000
0000
0000
0100
0000
0010
0000
,  // measure 32
0001
0000
0000
0100
0000
0000
0001
0000
0000
1000
0000
0000
0010
0000
0100
0000
,  // measure 33
0001
0000
0010
1000
0100
0000
1000
0001
,  // measure 34
0100
0000
0010
0001
1000
0000
0100
1000
,  // measure 35
0010
0100
0001
0010
0001
0100
0010
1000
,  // measure 36
0200
0000
2300
0000
3001
0100
0020
0000
,  // measure 37
0130
0000
1000
0000
0001
0010
0100
2000
,  // measure 38
0000
3000
0010
0000
0100
0001
1000
0000
,  // measure 39
0100
0000
0001
0000
1000
0010
0100
0002
,  // measure 40
0000
0013
0000
0001
1000
0100
0010
0000
,  // measure 41
0100
0000
0001
0000
0001
1000
0010
2000
,  // measure 42
0000
3000
0100
0000
0010
0100
0001
0000
,  // measure 43
0010
0000
0001
0000
1000
0001
0100
0020
,  // measure 44
0000
0130
0000
0100
0010
1000
0001
0000
,  // measure 45
1000
0001
0010
0100
0000
1000
0001
0100
,  // measure 46
0001
0000
0010
0000
0100
0001
2000
0000
,  // measure 47
3100
0010
0100
1000
0000
1000
0100
0010
,  // measure 48
0001
0000
0100
0000
0010
0001
0200
0000
,  // measure 49
0310
0000
0000
1000
0000
0000
0001
0000
0000
0100
0000
0000
0010
0000
1000
0000
,  // measure 50
0100
0000
0000
1000
0000
0000
0001
0000
0000
0100
0000
0000
0001
0000
0100
0000
,  // measure 51
0010
1000
0001
0100
0010
1000
0001
0010
,  // measure 52
0200
0000
0000
0000
,  // measure 53
2000
0000
0000
0000
,  // measure 54
3300
0000
0000
0000
,  // measure 55
0000
0000
0000
0000
,  // measure 56
0000
0010
0000
0010
0001
0100
0001
0000
,  // measure 57
0010
0100
0001
1000
0000
0010
1000
0100
,  // measure 58
1000
1001
1010
0101
,  // measure 59
0100
0001
1000
0100
0000
0100
0010
0001
,  // measure 60
1000
0000
0110
0000
0011
0000
1000
0200
,  // measure 61
0000
0310
1000
0001
0000
0001
0100
0010
,  // measure 62
1000
0000
1010
0000
0101
0000
0010
0002
,  // measure 63
0000
0003
0010
0100
0020
0000
0130
1000
,  // measure 64
0200
0000
0300
0000
1000
0001
1000
0010
,  // measure 65
0100
0010
1000
0100
0000
0100
0010
0001
,  // measure 66
0010
0101
1010
0101
,  // measure 67
0001
0100
0010
1000
0000
1000
0100
0010
,  // measure 68
0001
0000
1100
0000
1010
0000
0010
0200
,  // measure 69
0000
0301
1000
0010
0000
0100
0010
1000
,  // measure 70
0100
0000
0011
0000
0101
0000
0001
0020
,  // measure 71
0000
0030
0100
0010
0200
0000
1300
0100
,  // measure 72
2000
0000
3000
0000
0100
0010
0001
0100
,  // measure 73
0010
0000
1000
0001
2000
0000
3010
0100
,  // measure 74
0020
0000
0130
1000
0001
1000
0100
0010
,  // measure 75
0001
0010
0100
1000
0010
0100
0001
0010
,  // measure 76
0100
1000
0010
1000
0001
0100
0001
0020
,  // measure 77
0000
0000
0000
0000
,  // measure 78
0200
0000
0000
0330
,  // measure 79
1000
0010
0100
0010
0000
0010
1000
0001
,  // measure 80
1000
0011
1100
0011
,  // measure 81
1000
0001
0100
0010
0000
0100
0010
0100
,  // measure 82
0001
0000
1010
0000
0011
0000
0001
1000
,  // measure 83
0000
1000
0100
0010
0000
0100
0010
0001
,  // measure 84
0010
0000
0101
0000
1100
0000
1000
0200
,  // measure 85
0000
0300
0100
0010
0001
0000
0001
0010
,  // measure 86
0100
0000
0100
0000
1000
0010
0100
0001
,  // measure 87
0010
0100
1000
0001
0000
1000
0001
1000
,  // measure 88
0100
1010
0011
0110
,  // measure 89
0001
0010
0100
1000
0000
1000
0100
0010
,  // measure 90
0001
0000
1010
0000
1001
0000
0001
2000
,  // measure 91
0000
3010
0100
0001
0000
0001
0100
0001
,  // measure 92
1000
0000
0110
0000
1100
0000
1000
0200
,  // measure 93
0000
0300
0010
0100
0020
0000
0031
0010
,  // measure 94
0002
0000
2003
0000
3010
1000
0001
1000
,  // measure 95
0220
0000
0000
0000
,  // measure 96
0000
0000
0000
0330
;
