#TITLE:20, November;
#SUBTITLE:-father it is that mistake!;
#ARTIST:Hiroshi.m4a;
#TITLETRANSLIT:;
#SUBTITLETRANSLIT:;
#ARTISTTRANSLIT:;
#GENRE:;
#CREDIT:;
#MENUCOLOR:;
#NEWMETERSYSTEM:NO;
#BANNER:20, November -father it is that mistake!-bn.png;
#BACKGROUND:20, November -father it is that mistake!-bg.png;
#LYRICSPATH:;
#CDTITLE:MixMania II CD Title.png;
#MUSIC:20, november - father, it is that mistake!.mp3;
#OFFSET:-1.180;
#SAMPLESTART:11.140;
#SAMPLELENGTH:12.600;
#SELECTABLE:YES;
#LISTSORT:;
#BPMS:0.000=96.000,128.000=192.020;
#STOPS:;
#BGCHANGES:;
#ATTACKS:;

//---------------dance-single - ----------------
#NOTES:
     dance-single:
     :
     Easy:
     4:
     0.218,0.342,0.087,0.095,0.000: // measure 1
0000
0000
0000
0000
,  // measure 2
0000
0000
0000
0000
,  // measure 3
1000
0000
0100
0000
,  // measure 4
1000
0000
0100
0010
,  // measure 5
1001
0100
0002
0000
,  // measure 6
0013
0100
2000
0000
,  // measure 7
3100
0010
0200
0000
,  // measure 8
0310
0001
1000
1001
,  // measure 9
1000
0001
0100
0010
,  // measure 10
0001
0100
0010
1000
,  // measure 11
0100
1000
0010
0100
,  // measure 12
0001
0010
0100
1001
,  // measure 13
0100
0000
0010
0000
,  // measure 14
0001
1000
0100
1000
,  // measure 15
1000
0000
0010
0001
,  // measure 16
0001
0010
0100
0010
,  // measure 17
1000
0000
1000
0000
,  // measure 18
0001
0100
0010
0100
,  // measure 19
0020
1000
1030
0100
,  // measure 20
1000
0100
0001
1001
,  // measure 21
0010
0000
0100
0000
,  // measure 22
1000
0000
0100
0000
,  // measure 23
1001
0000
0010
0000
,  // measure 24
0100
0000
0001
0010
,  // measure 25
1001
0100
1000
0000
,  // measure 26
0010
0000
1000
0100
,  // measure 27
1001
0010
0001
0000
,  // measure 28
1000
0000
0001
0000
,  // measure 29
1001
0010
0100
0010
,  // measure 30
1001
0000
0000
0000
,  // measure 31
1001
1000
0001
1000
,  // measure 32
0020
0032
2003
3200
,  // measure 33
1300
0010
0100
0001
,  // measure 34
1000
0000
0100
0000
,  // measure 35
0010
0001
0010
1000
,  // measure 36
0100
0000
0001
0000
,  // measure 37
1000
0001
1000
0010
,  // measure 38
0010
0000
0100
0000
,  // measure 39
0001
0100
1000
0100
,  // measure 40
0002
0000
0000
0000
,  // measure 41
1003
0000
0100
0000
,  // measure 42
0010
0000
0001
0010
,  // measure 43
0100
0000
1000
0000
,  // measure 44
0010
0000
0100
0010
,  // measure 45
1000
0000
0100
0000
,  // measure 46
0010
0000
0001
0010
,  // measure 47
0001
0000
0100
0001
,  // measure 48
0010
0000
2000
0000
,  // measure 49
3100
0000
0000
1000
,  // measure 50
0000
0000
0000
0100
,  // measure 51
0010
0000
0001
0001
,  // measure 52
0000
0000
1000
0001
,  // measure 53
1000
0000
0010
0000
,  // measure 54
0100
0000
0001
1000
,  // measure 55
0001
0000
0010
0000
,  // measure 56
0100
0000
1000
0000
,  // measure 57
0200
0300
0000
0000
;

//---------------dance-single - Copied from----------------
#NOTES:
     dance-single:
     Copied from:
     Beginner:
     1:
     0.129,0.243,0.061,0.121,0.000:
0000
0000
0000
0000
,
0000
0000
0000
0000
,
0000
0000
0000
0000
,
0000
0000
0000
0000
,
2002
0000
3003
0000
,
0220
0000
0330
0000
,
2002
0000
3003
0000
,
0220
0000
0330
0000
,
1000
0000
0001
0000
,
1000
0000
0010
0000
,
0100
0000
1000
0000
,
0001
0000
0020
0030
,
0010
0000
0100
0000
,
1000
0000
0001
0000
,
1000
1000
1000
0000
,
0010
0000
0100
0000
,
0001
0000
0010
0000
,
0010
0010
0010
0000
,
0001
0000
0100
0000
,
0010
0000
0000
1000
,
1000
0000
0100
0000
,
0010
0000
0001
0000
,
0001
0000
0100
0000
,
0010
0000
1000
0000
,
1001
0000
0200
0000
,
0000
0000
0300
0000
,
1001
0000
0020
0000
,
0000
0000
0030
0000
,
1000
0000
0001
0001
,
0001
0000
0010
0000
,
0100
0000
1000
0000
,
0010
0010
0010
0010
,
0010
0000
0000
0000
,
1000
0000
0000
0000
,
0100
0000
0000
0000
,
0010
0000
0000
0000
,
0001
0000
0000
0000
,
1000
0000
0000
0000
,
0010
0000
0000
0000
,
2002
0000
3003
0000
,
1000
0000
0000
0000
,
0001
0000
0000
0000
,
0010
0000
0000
0000
,
0100
0000
0000
0000
,
0010
0000
0000
0000
,
1000
0000
0000
0000
,
0100
0000
0000
0000
,
0020
0000
0030
0000
,
0001
0000
0000
1000
,
0000
0000
0000
0100
,
0100
0000
0000
0010
,
0000
0000
0000
1000
,
1000
0000
0000
0001
,
0000
0000
0000
0010
,
0010
0000
0001
0000
,
0100
0000
1000
0000
,
0001
0000
0000
0000
;

//---------------dance-single - Copied from----------------
#NOTES:
     dance-single:
     Copied from:
     Medium:
     6:
     0.322,0.343,0.130,0.087,0.000:
0000
0000
0000
0000
,
0000
0000
0000
0000
,
1001
0000
0000
0110
0000
1000
0000
0000
,
1001
0000
0000
0110
0000
0110
1001
0000
,
0100
0001
0010
0001
,
0100
0001
1000
1100
,
1000
0010
0100
0001
,
1000
0001
0100
0110
,
1001
0000
0100
1000
0010
0000
0100
0000
,
0001
0000
0010
0001
0100
0000
1010
0000
,
0100
0000
1000
0001
1000
0000
0100
0000
,
0010
0000
1000
0100
0001
0000
1001
0000
,
0010
0000
0100
0010
0000
0000
0100
0001
,
1000
0000
0100
1000
0000
0000
0100
0010
,
0001
0000
0010
0000
0100
0000
1000
0001
,
1000
0100
1000
0010
1000
0000
0100
0000
,
1000
0000
0001
0100
0000
0010
0001
0100
,
0010
0000
1000
0100
0000
1000
0001
1000
,
0001
0000
0100
0000
0010
0000
0001
0010
,
0100
0000
1000
0100
0000
0010
1001
0000
,
0100
0000
0000
1000
0000
0010
0000
0000
,
0001
0000
0000
1000
0000
0001
1001
0000
,
0010
0000
0000
0010
0000
0001
0000
0000
,
0100
0000
0000
0001
0000
0010
0110
0000
,
0100
1000
0100
0000
,
0010
0000
0001
0000
0010
0001
0001
0000
,
0100
0010
1000
0000
,
0001
0000
0010
0000
0100
1000
1000
0000
,
0100
1000
0001
0100
,
0020
0000
0000
0100
0000
1000
1030
0000
,
0100
1000
0001
0100
,
1000
1000
0100
0100
0010
0010
0001
0001
,
1000
0001
0100
0010
,
0001
0010
1000
0100
,
1000
0010
0100
0001
,
2000
0010
3002
0010
,
1003
0100
0001
0010
,
0001
0100
0010
1000
,
0100
0010
0001
1000
,
0200
1000
2300
0001
,
3100
0000
0100
0000
1000
0000
0100
0002
,
0000
0003
0010
0000
0001
0000
0100
0000
,
0001
0000
0010
0000
1000
0000
0100
2000
,
0000
3000
0100
0000
1000
0000
0100
0000
,
0010
0000
0001
0000
1000
0000
0001
0020
,
0000
0030
0001
0000
1000
0000
0001
0000
,
0100
0000
1000
0000
0100
0000
0010
0200
,
0000
0300
0010
0000
0010
0000
1001
0000
,
1000
0001
0100
0001
,
0010
0000
0001
0000
1000
0000
0100
0010
,
0001
0100
0010
0100
,
0001
1000
0001
0100
,
0001
0000
0000
0001
0000
0000
0001
0000
,
0010
1000
0100
1000
,
0010
1000
0100
1000
,
0010
0000
1000
0000
0010
0001
0010
0001
,
0002
0000
0003
0000
;

//---------------dance-single - Copied from----------------
#NOTES:
     dance-single:
     Copied from:
     Hard:
     8:
     0.405,0.465,0.321,0.061,0.139:
0000
0000
0000
0000
,
0000
0000
0000
0000
,
1001
0000
0000
1010
0000
1100
0000
0000
,
1010
0000
0000
1001
0000
0101
0011
0000
,
1001
0000
0000
0100
0000
0000
1000
0100
0000
0000
0010
0000
0000
0000
0000
0000
,
0100
0000
0000
0001
0000
0000
0010
0001
0000
0000
0100
0000
0100
0000
0000
0000
,
0001
0000
0000
0010
0000
0000
1000
0100
0000
0000
1000
0000
0000
0000
0000
0000
,
0010
0000
0000
0010
0000
0000
1000
0010
0000
0000
0010
0000
1001
0000
0000
0000
,
0100
0000
0000
0000
0001
0000
0010
0000
0000
0001
0000
0000
0100
0000
0000
0000
,
1000
0000
0100
1000
0000
0010
1001
0000
,
0100
0000
0001
0010
0000
0001
0001
0000
,
0010
0000
0000
0001
0000
0000
0100
0000
0000
0000
1000
0000
1100
0000
0000
0000
,
0010
0000
1000
0001
0000
0100
0100
0001
,
0001
0000
0100
1000
0000
0010
0010
1000
,
0100
0000
0000
1000
0000
0000
0001
0000
0000
0000
0000
0000
0010
0000
0010
0000
,
0001
0000
0100
0000
0001
0000
0010
0000
1000
0000
0000
0100
0000
0000
0010
0000
,
1001
0000
0100
1000
0000
0100
0100
1000
,
0100
0000
0010
0001
0000
0000
0100
0001
,
1000
0000
0000
0010
0000
0000
0010
0000
0000
0000
0100
0000
1000
0000
0100
0000
,
0010
0000
0000
0001
0000
0000
0010
0000
0000
0000
0100
0000
1001
0000
0000
0000
,
0100
0100
0000
0000
0000
0000
1000
1000
0000
0000
0100
0000
0000
0000
0000
0000
,
0010
0010
0000
0000
0000
0000
0001
0001
0000
0000
0010
0000
1001
0000
0000
0000
,
0010
0010
0000
0000
0000
0000
0001
0001
0000
0000
0010
0000
0000
0000
0000
0000
,
1000
1000
0000
0000
0000
0000
0100
0100
0000
0000
0001
0000
1100
0000
0000
0000
,
1000
0100
0000
0010
0000
0000
0010
0001
0000
0000
1001
0000
0000
0000
0000
0000
,
0001
0000
0000
0100
0000
0000
0010
0000
0000
0000
1000
0000
0101
0000
0000
0000
,
1000
0001
0000
0100
0000
0000
0001
1000
0000
0000
0110
0000
0000
0000
0100
0000
,
0001
0000
0000
0100
0000
0000
1000
0000
0000
0000
0010
0000
1001
0000
0000
0000
,
0100
0100
1000
0010
1000
0001
0100
0001
,
1001
0000
0000
0110
0000
1000
1001
0000
,
1000
0100
0010
1000
0100
0100
0010
1000
,
0001
0000
0100
0001
0100
0000
0010
0000
0001
0000
1000
0010
1000
0000
0100
0000
,
1000
0000
0100
0000
0010
0000
0001
0010
,
0000
0100
0001
0000
0010
0000
1000
0000
,
0100
0000
1000
0000
0010
1000
0010
1000
,
0000
0100
1000
0000
0010
0000
0100
0000
,
0001
0000
1000
0000
0010
0000
0001
0100
,
0000
0010
1000
0000
0100
0000
1000
0000
,
0100
0000
0010
0000
0001
0000
1000
0001
,
0000
0001
0100
0001
0100
0000
0010
0000
,
1001
0000
0100
2000
0000
3010
1000
0200
,
0000
0300
1000
0000
0100
0000
0001
0000
,
0011
0000
0100
0002
0000
0103
0010
0200
,
0000
0300
1000
0000
0001
0000
0010
0000
,
1001
0000
0100
0020
0000
1030
0001
2000
,
0000
3000
0100
0000
0010
0000
0001
0000
,
1000
0000
0001
1000
0000
1000
0010
1000
,
0000
0001
0001
0001
1000
0000
0010
0000
,
1001
0010
1000
0110
,
0001
0000
0010
0000
0001
0000
1000
0100
,
1100
0010
1001
0110
,
1000
0001
0101
1010
,
1100
0000
0000
0011
0000
0000
1100
0000
,
0100
1000
0011
1100
,
0100
1000
0010
0100
,
0001
1000
0001
1000
0010
0100
0010
0100
,
2000
0000
0000
3000
0000
0000
0000
0000
;

//---------------dance-single - Copied from Copied f----------------
#NOTES:
     dance-single:
     Copied from Copied f:
     Challenge:
     9:
     0.476,0.660,0.390,0.017,0.295:
0000
0000
0000
0000
,
0000
0000
0000
0000
,
1010
0000
0000
0100
0000
0000
1100
0000
0000
0000
0010
0000
0000
0000
0000
0000
,
0101
0000
0000
0010
0000
0000
0011
0000
0000
0000
0100
0000
1001
0000
0000
0000
,
0100
1000
0000
0100
0000
0010
0001
0010
0000
0000
0100
0000
0000
0000
0000
0000
,
0001
0010
0000
1000
0000
0100
1000
0100
0000
0000
0010
0000
0100
0000
0000
0000
,
0010
1000
0000
0100
0000
0010
0001
0010
0000
0000
0100
0000
0000
0000
0000
0000
,
0010
1000
0000
0100
0000
1000
0100
1000
0000
0000
0010
0000
1001
0000
0000
0000
,
0100
0001
0000
0010
0000
0001
1000
0100
0000
0000
0001
0000
1001
0000
0000
0000
,
1000
0100
0000
0001
0000
1000
0010
0100
0000
0000
0100
0000
1010
0000
0000
0000
,
0100
0010
0000
0100
0000
0001
0010
0100
0000
0000
0001
0000
1010
0000
0000
0000
,
0100
1000
0000
0100
0000
1000
0010
0001
0000
0000
0100
0000
1010
0000
0000
0000
,
0100
0000
0000
1000
0000
0000
0100
0000
0000
0000
0010
0000
0001
0000
0010
0001
,
0010
0100
0001
1000
0100
0010
0010
0100
,
1001
0000
0000
0011
0000
0000
1100
0000
0000
0000
0010
0000
0100
0000
0010
0000
,
1000
0000
1000
0000
0001
0000
0001
0000
0010
0000
0000
0100
0000
0010
0100
0010
,
1000
0000
0000
0100
0000
0000
1000
0000
0000
0000
0010
0000
0001
0000
0100
0001
,
0010
1000
0100
0100
0010
0100
1000
1000
,
1001
0000
0000
1100
0000
0000
0011
0000
0000
0000
0100
0000
0010
0000
0001
0000
,
0010
0000
0000
1000
0000
0000
0100
0000
0000
0000
0010
0000
1002
0000
0003
0000
,
0010
0000
0000
0100
0000
0000
0010
0000
0000
0000
1000
0000
0000
0000
0000
0000
,
0100
0000
0000
0001
0000
0000
0010
0000
0000
0000
0001
0000
1010
0000
0000
0000
,
0100
0000
0000
1000
0000
0000
0100
0000
0000
0000
0001
0000
0000
0000
0000
0000
,
0100
0000
0000
1000
0000
0000
0010
0000
0000
0000
0100
0000
1001
0000
0000
0000
,
0010
1000
0000
0100
0000
1000
0100
0010
0000
0000
0100
0000
0000
0000
0000
0000
,
0001
1000
0000
0100
0000
0000
0010
0000
0000
0000
0001
0000
0011
0000
0000
0000
,
0001
0010
0000
0001
0000
0100
0010
0100
0000
0000
0010
0000
0000
0000
0000
0000
,
0100
0001
0000
1000
0000
0000
0100
0000
0000
0000
0010
0000
1100
0000
0000
0000
,
1000
0100
0001
0100
0010
0101
1010
0100
,
0011
0000
0000
1100
0000
0010
0100
0000
,
1000
0010
0100
0001
0010
0101
0011
0100
,
0010
1000
0100
1000
0001
1000
0100
1000
0010
1000
0100
1000
0001
1000
0100
1000
,
0010
0000
1000
0000
0100
0000
1000
0100
,
0000
0001
0100
0000
0010
0001
1000
0010
,
0100
0000
1000
0000
0100
0000
0001
1000
,
0000
1000
0001
0100
0010
0001
0010
0000
,
0100
0000
0001
0000
1000
0000
0001
1000
,
0000
1000
0100
0010
0001
0010
0100
0000
,
0001
0000
0100
0000
0010
0000
0001
0010
,
0000
0010
0100
0010
0100
0010
1000
0000
,
0100
1000
0000
0110
0000
1000
0001
0100
,
0000
0000
0010
0000
0001
1000
0100
1000
,
0010
0001
0000
1001
0000
0100
0010
1000
,
0000
0000
0100
0000
1000
0001
0100
0001
,
0010
0100
0000
0011
0000
0100
0010
0001
,
0000
0000
0100
0000
0001
0010
0100
1000
,
0010
0100
0000
1100
0000
0001
0100
1000
,
0000
0100
0010
1000
0011
0000
1001
0000
,
0110
0001
1000
1100
,
0100
0000
0010
0000
0001
0000
0100
0001
,
0011
0100
1001
0110
,
0001
0100
0011
1100
,
1010
0000
0000
0101
0000
0000
0110
0000
,
1000
0000
0100
0010
1100
0000
1100
0000
,
0010
0001
0100
0010
1000
0100
1000
0010
,
1000
0100
1000
0010
0100
0001
0010
0001
,
0020
0000
0000
0030
0000
0000
0000
0000
;
