#TITLE:moon_child;
#SUBTITLE:;
#ARTIST:Shonen Radio;
#TITLETRANSLIT:;
#SUBTITLETRANSLIT:;
#ARTISTTRANSLIT:;
#GENRE:;
#CREDIT:;
#MENUCOLOR:;
#NEWMETERSYSTEM:NO;
#BANNER:moon_child-bn.png;
#BACKGROUND:moon_child-bg.png;
#LYRICSPATH:;
#CDTITLE:MixMania CD Title.png;
#MUSIC:moon_child.mp3;
#OFFSET:0.820;
#SAMPLESTART:53.780;
#SAMPLELENGTH:11.980;
#SELECTABLE:YES;
#LISTSORT:;
#BPMS:0.000=146.000,16.000=150.000,24.000=155.000,40.000=160.000,295.000=155.000;
#STOPS:;
#BGCHANGES:;
#ATTACKS:;

//---------------dance-single - ----------------
#NOTES:
     dance-single:
     :
     Easy:
     4:
     0.341,0.496,0.078,0.264,0.000:
0000
0000
0000
0000
,
0000
0000
0000
0000
,
1000
0000
0000
0000
,
0001
0000
0000
0000
,
1000
0000
0010
0000
,
0001
0000
0010
0001
,
1000
0100
2000
0000
,
3100
0001
0002
0000
,
0013
0001
0100
0001
,
0020
0000
0200
0330
,
1001
1000
0100
1000
,
0010
0001
0100
0001
,
1001
0010
0001
0100
,
1000
0010
2000
3200
,
1300
0100
0010
0001
,
1000
0100
0002
0023
,
0031
0010
0100
1000
,
0001
0200
0000
0301
,
0010
0001
0100
1000
,
0010
1000
0100
0000
,
1000
0010
0001
0100
,
0001
0010
0100
0100
,
1000
0100
0001
0010
,
0001
0100
1000
0000
,
0010
1000
0100
0001
,
0100
1000
0020
0000
,
0000
0000
0000
1030
,
1000
0100
0001
0100
,
0001
0010
0001
1000
,
0100
0001
0100
1000
,
0010
0001
0100
0001
,
0001
0010
0000
1000
,
1000
0100
0000
1000
,
1000
0010
0000
0001
,
1000
0001
1000
0010
,
0010
0100
1001
0010
,
0001
1000
0010
1000
,
0100
0001
0010
1000
,
0100
0010
0001
0020
,
0001
1030
0100
0001
,
0010
1000
0100
0001
,
0010
0001
0100
1000
,
1000
0001
0001
0010
,
0001
0100
1001
1000
,
0100
1000
0100
0001
,
0100
0001
0100
0010
,
0001
1000
0010
1000
,
0100
0001
1000
0100
,
0100
0001
1000
0010
,
0010
1000
0100
2000
,
3200
0320
0032
0023
,
0230
0302
2003
3100
,
0100
0100
0100
0100
,
0100
0010
0010
0002
,
0000
2003
0000
3020
,
0000
0230
0000
0302
,
0000
0023
0000
0230
,
0000
2300
0000
3001
,
1000
0100
1000
0200
,
0310
0001
1000
0200
,
1300
0001
0010
0001
,
1000
0010
0001
0100
,
1000
0100
0010
0001
,
0010
0100
1000
1001
,
0001
1001
1000
0110
,
1001
0220
0330
1000
,
0001
0010
0001
1000
,
0010
0100
0001
1000
,
0100
0010
0001
0020
,
0000
1030
0100
1000
,
0001
0100
0010
0001
,
0010
0100
1000
0010
,
0001
1000
0100
1000
,
0010
1000
0100
1000
,
0000
0000
0000
0100
,
0000
0000
0001
0010
,
0000
0000
0001
0100
,
1000
0100
0000
2002
,
0000
0000
0000
0000
,
0000
0000
0000
3003
;

//---------------dance-single - Copied from----------------
#NOTES:
     dance-single:
     Copied from:
     Beginner:
     1:
     0.164,0.216,0.031,0.062,0.000:
0000
0000
0000
0000
,
0000
0000
0000
0000
,
0010
0000
0000
0000
,
0001
0000
0000
0000
,
0100
0000
0000
0000
,
1000
0000
0000
0000
,
0010
0000
0000
0000
,
0100
0000
0000
0000
,
0010
0000
0000
0000
,
0001
0000
0000
0000
,
1001
0000
0000
0000
,
0000
0000
0000
0000
,
1001
0000
0000
0000
,
0000
0000
0100
0100
,
0100
0000
1000
0000
,
0010
0000
0001
0001
,
0001
0000
0010
0000
,
0100
0000
0000
0000
,
1000
0000
0010
0000
,
0001
0000
0000
0000
,
0001
0000
0100
0000
,
1000
0000
0000
0000
,
0200
0000
0300
0000
,
0020
0000
0030
0000
,
2000
0000
3000
0000
,
0010
0000
1001
0000
,
0000
0000
0000
1000
,
0000
0001
0000
0001
,
0000
0000
0000
0001
,
0000
1000
0000
0100
,
0000
0000
0000
0010
,
0000
1000
0000
0001
,
0000
0010
0000
0100
,
0000
0001
0000
1000
,
1000
1000
0000
0001
,
0001
0001
0000
0100
,
0000
1000
0000
0010
,
0000
0010
0000
1000
,
0000
0001
0000
0002
,
0000
0003
0000
1000
,
0000
0000
0001
0001
,
0000
0000
1000
1000
,
0000
0100
0000
0010
,
0010
0010
0000
0001
,
0000
1000
0000
0001
,
0000
0000
0000
1000
,
0000
0001
0000
0010
,
0000
0000
0000
0001
,
0000
0100
0000
1000
,
0000
0100
0000
1000
,
0000
1000
0000
1000
,
1000
1000
1000
1000
,
0000
0001
0000
0002
,
0000
0003
0000
0010
,
0000
0010
0000
0001
,
0000
0001
0000
0100
,
0000
1000
0000
0010
,
0000
1000
0000
1001
,
0000
0100
0000
0010
,
0000
0001
0000
0100
,
0000
1000
0000
0010
,
0000
1000
0000
0001
,
0001
0001
0000
0010
,
0010
0010
0000
0100
,
0100
0100
0100
0100
,
0100
0100
0000
0010
,
0000
0010
0000
0001
,
0000
1000
0000
0100
,
0000
1000
0000
0010
,
0000
0100
0000
2000
,
0000
3000
0000
0002
,
0000
0003
0000
0010
,
0000
0100
0000
0001
,
0000
0100
0100
0100
,
0000
0000
0000
0010
,
0000
0000
0001
0001
,
0000
0000
1000
1000
,
0000
0001
0000
2000
,
0000
0000
0000
0000
,
0000
0000
3000
0000
;

//---------------dance-single - Copied from----------------
#NOTES:
     dance-single:
     Copied from:
     Medium:
     6:
     0.404,0.432,0.078,0.163,0.004:
0000
0000
0000
0000
,
0000
0000
0000
0000
,
1000
0000
0100
1000
0100
0000
0000
0000
,
0010
0000
0001
0100
0010
0000
0000
0000
,
0001
0000
1000
0100
0001
0000
0000
0000
,
0010
0000
0100
0001
0100
0001
0010
0000
,
0100
0000
0001
1000
0100
0000
0000
0000
,
1000
0000
0010
0001
0100
0000
0000
0000
,
0100
0000
0010
1000
0100
0000
0001
0000
,
0020
0000
0002
0033
,
0100
1000
0100
0010
,
0001
0100
0010
0001
,
1000
0100
0010
1000
,
0001
0100
0101
0011
,
0100
1000
0010
0100
,
0001
1000
1010
1100
,
1000
0010
0100
0001
,
0100
0000
0001
0000
0010
0000
0000
0000
0000
0100
0000
0000
0100
0000
0000
0000
,
1000
0100
0001
0100
,
1000
0000
0100
0000
0001
0010
0001
0000
,
1000
0010
0001
0010
,
1000
0000
0010
0000
0001
0010
1000
0100
,
1000
0100
0001
0010
,
0001
1000
1000
0010
,
0100
0001
1000
0010
,
1000
0100
0020
0200
,
0000
0000
0330
1000
,
0100
0000
0001
0010
0001
0100
0001
0000
,
1000
0010
0100
1000
,
0010
1000
0100
1000
0010
0000
0001
0000
,
0100
0010
0100
1000
,
0100
1000
0010
0100
0001
0000
0010
0000
,
0100
0001
0010
0000
0100
0000
0001
0010
,
1000
0100
1000
0000
0010
0000
0001
0000
,
0100
0001
0010
0000
0010
0001
0100
0000
,
1000
0000
0200
0000
2300
0000
3100
1000
,
0100
0000
0010
0000
0001
0000
0100
0001
,
0010
0000
0001
0000
0100
0010
1000
0000
,
0100
0001
0010
0000
0001
0100
1000
0000
,
1000
0010
0001
1000
,
0100
0001
0010
0000
0100
0000
0001
0000
,
1000
0010
0100
0000
1000
0000
0001
0100
,
1000
0100
0001
0000
0100
0000
1000
0010
,
0100
0001
0000
0011
0000
0000
0100
0001
,
1000
0100
0000
1000
0010
0000
0010
0000
,
0000
0000
0100
0000
0001
0000
0001
1000
,
0010
0100
0000
0100
1000
0000
0100
0000
,
1000
0000
0010
0001
1000
0000
0100
0000
,
0100
1000
0000
1000
0010
0000
0010
0000
,
0010
0100
0000
0100
0001
0000
0001
0000
,
0010
0100
1000
0011
,
0110
1100
1001
0200
,
0000
0000
0000
2300
,
0000
0100
0100
3200
,
0000
1300
0001
0020
,
0000
0031
0100
2000
,
0000
3100
0010
0001
,
0010
1000
0001
0000
0100
0000
0001
0000
,
0001
0100
0010
0000
1000
0000
0100
0000
,
1000
0001
0100
0000
0010
0000
1000
0000
,
0001
1000
0001
0000
0100
0000
0001
1000
,
0010
0000
0100
1000
0001
0000
0100
0000
,
0100
0100
1000
1000
,
0010
0010
0010
0001
,
1000
0001
0010
0001
,
1000
0000
0001
0100
1000
0000
1000
0000
,
0100
0000
0001
0010
0100
1000
0001
0000
,
0100
0000
0001
0010
0001
0000
0100
0000
,
0010
0000
0001
0000
0100
1000
0010
0000
,
0010
0100
0001
0000
0010
0000
0002
0000
,
0023
0230
2300
3010
,
0100
0000
0001
1000
0100
1000
0010
0000
,
0100
0001
0010
0001
,
1000
0000
1000
0100
0010
0001
0200
0000
,
0000
0000
0000
0320
,
0000
0000
0000
0000
1000
1000
2030
0000
,
0000
0000
0001
3002
,
0000
0000
0003
0220
,
0000
0000
0000
0000
,
0000
0000
0330
0000
;

//---------------dance-single - Copied from----------------
#NOTES:
     dance-single:
     Copied from:
     Hard:
     8:
     0.557,0.561,0.334,0.264,0.023: // measure 1
0000
0000
0000
0000
,  // measure 2
0000
0000
0000
0000
,  // measure 3
0010
0000
0001
0010
0001
0100
0001
0000
,  // measure 4
1000
0000
0010
1000
0100
1000
0010
0000
,  // measure 5
0001
0000
1000
0100
0001
0100
0010
0000
,  // measure 6
1000
0000
0001
0100
0010
1000
0100
1000
,  // measure 7
0100
0000
1000
0010
0001
0100
0001
0000
,  // measure 8
0010
0000
0001
0100
1000
0100
0010
0000
,  // measure 9
1000
0100
0001
0010
0000
0001
0000
0100
,  // measure 10
0001
0100
1000
0010
0100
0000
1000
0000
,  // measure 11
0100
1000
0100
1000
0010
0001
0010
0001
,  // measure 12
0100
0010
0100
0010
0001
0100
0001
0100
,  // measure 13
1000
0100
1000
0100
0010
0100
0010
0100
,  // measure 14
0001
0010
0001
0010
1000
0001
1000
0001
,  // measure 15
1100
1010
1001
0101
,  // measure 16
0011
0000
1001
0000
0100
0010
0001
0000
,  // measure 17
1001
0011
1001
1100
,  // measure 18
1000
0000
0001
0000
0100
0000
0010
0000
0000
0001
1000
0000
0100
0000
0000
0000
,  // measure 19
2000
0000
0010
0010
3010
0000
1001
0000
,  // measure 20
0002
0000
0100
0100
0103
0000
1001
0000
,  // measure 21
0020
0000
0100
0001
0031
0000
1001
0000
,  // measure 22
0200
0000
0010
1000
1300
0000
1001
0000
,  // measure 23
1000
0100
0100
1000
0100
0000
0011
0000
,  // measure 24
0001
0010
0010
0001
0010
0000
1100
0000
,  // measure 25
1000
0010
0001
0001
0010
1000
1000
0010
,  // measure 26
0002
2000
3003
2002
,  // measure 27
0000
0000
0000
0000
3003
0000
1000
0100
,  // measure 28
1000
0100
0010
0001
0010
0001
0100
0001
,  // measure 29
0100
0001
0100
0000
0110
0000
0100
0001
,  // measure 30
0100
0001
0010
1000
0010
1000
0100
0010
,  // measure 31
0100
0010
0100
0000
1001
0000
0001
0100
,  // measure 32
0010
0001
2000
0000
3000
0000
1000
0010
,  // measure 33
0001
0010
0200
0000
0300
0000
0100
1000
,  // measure 34
0010
1000
0002
0000
0003
0000
1100
0000
,  // measure 35
0101
0000
0011
0000
1001
0000
0001
0020
,  // measure 36
0000
0000
0001
0001
0031
0000
0001
1000
,  // measure 37
0100
1000
0001
0010
0001
0100
0010
0001
,  // measure 38
1000
0100
0001
0010
1000
0000
0001
0100
,  // measure 39
0010
1000
0100
0010
0001
0100
2000
0000
,  // measure 40
0000
0001
0200
0000
3300
0000
0100
0000
,  // measure 41
0001
1000
0100
0000
1001
0000
0110
0000
,  // measure 42
1000
0001
0100
0000
1001
0000
1000
0100
,  // measure 43
0001
0100
1000
0100
0001
0100
1000
1000
,  // measure 44
1000
1000
0010
0001
0101
0000
2000
0000
,  // measure 45
3001
0200
0000
0000
0302
1000
1003
0000
,  // measure 46
0100
1000
0001
0002
,  // measure 47
1000
2003
0000
0000
3200
0010
0310
0000
,  // measure 48
0001
0000
1000
0000
0100
0000
0001
0010
,  // measure 49
0100
1000
0000
1000
0100
0010
0001
0010
,  // measure 50
0100
0000
0000
1000
0000
0000
0000
0000
0000
1000
0000
0000
0100
0000
0000
0010
0000
0000
0001
0000
0000
0000
0010
0000
,  // measure 51
0100
0000
1000
0100
0000
0010
0001
0000
1000
0100
0000
0000
,  // measure 52
1100
0110
0011
1001
,  // measure 53
0100
0010
0100
0010
,  // measure 54
0100
0000
0001
1000
0100
1000
0010
0000
,  // measure 55
0010
0001
1000
0000
0010
0000
0001
0000
,  // measure 56
1000
0001
0100
0001
0010
1000
0100
0000
,  // measure 57
1000
0010
0001
0000
0100
0000
2000
0000
,  // measure 58
3200
0302
0023
0031
,  // measure 59
0100
0001
1000
0000
0100
0000
1010
0000
,  // measure 60
0100
0001
1000
0100
1000
0000
0011
0000
,  // measure 61
0100
0001
1000
0010
0100
1000
0002
0000
,  // measure 62
2003
0000
3100
0000
1000
0010
1000
0000
,  // measure 63
0100
0000
1000
0001
0100
1000
0010
0000
,  // measure 64
1000
0000
0100
0001
0010
0001
0101
0000
,  // measure 65
0011
1010
1100
0011
,  // measure 66
1010
0000
1001
0100
1001
0000
0001
1000
,  // measure 67
0010
0001
1000
0000
0100
0000
0001
0010
,  // measure 68
0001
1000
0100
0001
1000
0000
0100
0000
,  // measure 69
1000
0010
0100
0000
0001
1000
0200
0000
,  // measure 70
1000
0001
1300
0010
,  // measure 71
0001
0100
1000
0100
0001
0000
0010
0001
,  // measure 72
0100
0010
1000
0100
1000
0010
0100
0000
,  // measure 73
0001
0000
1000
0000
0100
0000
0001
0010
,  // measure 74
1000
0001
1000
0010
0001
1000
2002
0000
,  // measure 75
0000
0000
3000
0200
,  // measure 76
0000
0000
0003
0000
0010
0010
0020
0000
,  // measure 77
0000
0000
0300
0000
1000
0000
2000
0030
,  // measure 78
0100
0000
0000
0100
0000
0000
0000
0000
3000
0000
0000
0000
0022
0000
0000
0000
,  // measure 79
0000
0000
0000
0000
,  // measure 80
0000
0000
0000
0000
,  // measure 81
0000
0033
0000
0000
;
