#TITLE:moon_child;
#SUBTITLE:[E-S Style Mix];
#ARTIST:Shonen Radio remixed by Mr.T;
#TITLETRANSLIT:;
#SUBTITLETRANSLIT:;
#ARTISTTRANSLIT:;
#GENRE:;
#CREDIT:;
#MENUCOLOR:;
#NEWMETERSYSTEM:NO;
#BANNER:moon_child [E-S Style Mix]-bn.png;
#BACKGROUND:moon_child [E-S Style Mix]-bg.png;
#LYRICSPATH:;
#CDTITLE:MixMania CD Title.png;
#MUSIC:moon_child [E-S Style Mix].mp3;
#OFFSET:-0.020;
#SAMPLESTART:60.000;
#SAMPLELENGTH:11.960;
#SELECTABLE:YES;
#LISTSORT:;
#BPMS:0.000=160.000;
#STOPS:95.000=0.380
;
#BGCHANGES:;
#ATTACKS:;

//---------------dance-single - ----------------
#NOTES:
     dance-single:
     :
     Challenge:
     9:
     0.672,0.657,0.099,0.066,0.173: // measure 1
0000
0000
0000
0000
,  // measure 2
0000
0000
0000
0000
,  // measure 3
0000
0000
0000
0000
,  // measure 4
0001
0000
0010
0000
0100
0000
0001
1000
0010
0000
0100
0000
0001
0000
0010
0000
,  // measure 5
1000
0000
0100
0001
0010
0001
0100
0000
,  // measure 6
0001
1000
0100
1000
0010
0100
0001
0000
,  // measure 7
1000
0000
0100
0000
0001
0000
0010
0000
0000
0000
0001
0000
0000
0000
1000
0100
,  // measure 8
1000
0100
0001
0010
0001
0100
0010
1000
,  // measure 9
1001
0000
0000
1000
0100
0000
0010
0000
0001
0000
0000
0010
0001
0000
0100
0000
,  // measure 10
0001
0000
0000
0010
1000
0000
0100
0000
1000
0000
0000
0010
0100
0000
1000
0000
,  // measure 11
0001
0000
0000
0100
0001
0000
0001
0000
0010
0000
0000
1000
0100
0000
0010
0000
,  // measure 12
0001
0000
0000
0001
0100
0000
0010
0000
1000
0000
0000
0100
1000
0000
0001
0000
,  // measure 13
1100
0000
0000
0010
1000
0000
0001
0000
1000
0000
0100
0000
0110
0000
0000
0000
,  // measure 14
1001
0000
0000
0100
0001
0000
1000
0000
0001
0000
0010
0000
0011
0000
0000
0000
,  // measure 15
1001
0000
0010
0001
0101
0000
0010
1000
,  // measure 16
1100
0000
0110
0000
1001
0010
0100
0000
,  // measure 17
1000
0100
1000
0010
0001
0100
0001
0010
,  // measure 18
0001
1000
0100
1000
0010
0001
1000
0000
,  // measure 19
0001
0100
1000
0100
1000
0010
0001
0010
,  // measure 20
0100
0001
1000
0100
0010
0001
1000
0000
,  // measure 21
0100
1000
0100
0001
0010
0100
0001
1000
,  // measure 22
0100
1000
0010
0001
0010
0001
1000
0000
,  // measure 23
0100
0010
1000
0001
0010
0001
1000
0010
,  // measure 24
0100
1000
0001
0100
0010
0001
0100
1000
,  // measure 25
0100
1000
0100
1000
0100
1000
0001
0010
,  // measure 26
0001
0010
0001
0010
0001
0010
1000
0010
,  // measure 27
1000
0010
1000
0010
1000
0010
0100
0001
,  // measure 28
0100
0001
0100
0001
0100
0001
0100
0010
,  // measure 29
1000
0100
0002
0010
0013
0000
0001
0010
,  // measure 30
0100
0001
2000
0100
3100
0000
1000
0100
,  // measure 31
0001
1000
0020
1000
1030
0000
0001
0000
,  // measure 32
1000
0000
0001
0010
1000
0000
0100
0001
,  // measure 33
0100
0001
0100
0001
0100
0001
0100
0010
,  // measure 34
0100
0010
0100
0010
0100
0010
1000
0100
,  // measure 35
1000
0100
1000
0100
1000
0100
0010
0001
,  // measure 36
0010
0001
0010
0001
0010
0001
1000
0010
,  // measure 37
0001
0100
0020
1000
0130
0000
0010
0001
,  // measure 38
0100
0001
2000
0010
3100
0000
1000
0100
,  // measure 39
0001
0100
0002
1000
0103
0000
1000
0000
,  // measure 40
0001
0000
0000
0010
0001
0000
1000
0000
0100
0000
1000
0000
0010
0000
0001
0010
,  // measure 41
0001
0000
0100
1000
0100
0000
1000
0000
0100
0000
0010
0000
0001
0000
0100
0010
,  // measure 42
0100
0000
1000
0100
1000
0000
0001
0000
0010
0000
0100
0000
1000
0000
0100
1000
,  // measure 43
0100
0000
0010
0001
0010
0000
0100
0000
1000
0000
0100
0000
0002
0000
0000
0000
,  // measure 44
1000
1003
0100
1000
,  // measure 45
1000
0010
1000
0000
1000
0000
0100
0000
0001
0000
0010
0000
0001
0000
0000
0000
,  // measure 46
0001
0100
0001
0000
1000
0000
0100
0000
1000
0000
0010
0000
1000
0000
0000
0000
,  // measure 47
0001
0000
1000
0000
0001
0000
0010
0010
,  // measure 48
0010
0010
0000
0001
0010
1000
0100
0001
,  // measure 49
0010
0001
0100
0001
0010
0001
0100
1000
,  // measure 50
0010
1000
0100
1000
0010
1000
0100
0001
,  // measure 51
0010
0001
0100
0001
0010
0001
0100
1000
,  // measure 52
0010
1000
0100
1000
0010
1000
0100
0100
,  // measure 53
0100
1000
0000
0001
0010
1000
0010
0010
,  // measure 54
0010
0000
0001
0000
0000
0000
1000
0000
0100
0000
0001
0000
1000
0000
0000
0100
,  // measure 55
0001
0000
0000
0001
0010
0000
0000
0100
1000
0000
0000
1000
0010
0000
0001
0000
,  // measure 56
0010
0001
1000
0100
1000
0100
1001
0000
,  // measure 57
0001
0100
0010
0000
0100
0000
0000
0000
0010
0000
0000
0000
0100
0000
0000
0000
,  // measure 58
1000
0001
0100
0000
0100
0000
0010
0000
0100
0000
0001
0000
1000
0000
0000
0000
,  // measure 59
0010
1000
0100
0000
0001
0000
0100
0000
0010
0000
1000
0000
0100
0000
0000
0000
,  // measure 60
0001
0010
1000
0100
,  // measure 61
1000
0001
0010
0000
0001
0000
0010
0000
0001
0000
1000
0000
0100
0000
0000
0000
,  // measure 62
0010
1000
0100
0000
0010
0000
0100
0000
0001
0000
0000
0000
1001
0000
0000
0000
,  // measure 63
0001
0100
0001
0000
0100
0000
1000
0000
0010
0000
1000
0000
0100
0000
0010
0000
,  // measure 64
0001
0000
0010
0000
0100
0000
0001
0000
1000
0000
0100
0000
1000
0000
0100
1000
,  // measure 65
0100
0000
0001
0010
0001
0000
0010
0000
1000
0000
0010
0000
0001
0000
0010
1000
,  // measure 66
0100
0000
0010
0100
0001
0000
1000
0000
0010
0000
0001
0000
1000
0000
0000
1000
,  // measure 67
0010
0000
0000
0010
0001
0000
0000
0001
0100
0000
0000
0100
0010
0000
0000
1000
,  // measure 68
0100
0000
0000
0010
0001
0000
0000
0010
0100
0000
1000
0000
0010
0000
0100
0000
,  // measure 69
0001
1000
0100
0010
1000
0001
0100
0001
,  // measure 70
0010
1000
0100
1000
0001
0010
0001
0100
,  // measure 71
0001
1000
0100
0010
1000
0001
0100
0010
,  // measure 72
0001
0010
0001
0100
0010
1000
0100
1000
,  // measure 73
0100
0010
0001
1000
0100
1000
0001
0010
,  // measure 74
0001
0100
0010
1000
0100
0001
0100
0010
,  // measure 75
1000
0100
0001
0010
0100
1000
0010
0100
,  // measure 76
0001
1000
0001
1000
0100
0010
0002
0000
,  // measure 77
0000
0003
0000
0000
0000
0000
0000
0000
;
