#TITLE:garden;
#SUBTITLE:;
#ARTIST:Aono Rie;
#TITLETRANSLIT:;
#SUBTITLETRANSLIT:;
#ARTISTTRANSLIT:;
#GENRE:;
#CREDIT:;
#MENUCOLOR:;
#NEWMETERSYSTEM:NO;
#BANNER:garden-bn.png;
#BACKGROUND:garden-bg.png;
#LYRICSPATH:;
#CDTITLE:;
#MUSIC:garden.mp3;
#OFFSET:0.660;
#SAMPLESTART:20.060;
#SAMPLELENGTH:12.000;
#SELECTABLE:YES;
#LISTSORT:;
#BPMS:0.000=220.001;
#STOPS:;
#BGCHANGES:;
#ATTACKS:;

//---------------dance-single - Copied from----------------
#NOTES:
     dance-single:
     Copied from:
     Beginner:
     1:
     0.163,0.244,0.027,0.000,0.003:
0000
0000
0000
0000
,
1000
0000
0000
0000
,
0000
0000
0000
0000
0000
0000
0000
0001
0000
0000
0000
0000
,
0000
0000
0000
0000
,
0100
0000
0000
0000
,
0000
0000
1000
0000
,
0000
0000
0000
0000
,
0001
0000
0000
1000
,
0000
0000
0001
0000
,
0000
0010
0000
0000
,
0100
0000
0000
1000
,
0000
0000
0100
0000
,
0000
0001
0000
0000
,
0010
0000
0000
1000
,
0000
0000
0100
0000
,
0000
0001
0000
0000
,
0010
0000
0000
0001
,
0000
0000
0100
0000
,
0000
1000
0000
0000
,
0010
0000
0000
0100
,
0000
1000
0000
0000
,
0001
0000
0001
0000
,
0000
0100
0000
1000
,
0000
0000
0010
0000
,
0100
0000
0000
1000
,
0000
0001
0000
0000
,
0010
0000
0100
0000
,
0000
1000
0000
0100
,
0000
0000
1000
0000
,
0000
0010
0000
0000
,
0001
0000
0010
0000
,
0000
1000
0000
0100
,
0000
0000
0010
0000
,
0100
0000
0000
0001
,
0000
1000
0000
0000
,
0010
0000
0100
0000
,
0000
1000
0000
0001
,
0000
0000
0001
0000
,
0010
0000
0000
1000
,
0000
0010
0000
0000
,
0100
0000
0010
0000
,
0000
0001
0000
1000
,
0000
0000
0100
0000
,
0100
0000
0000
0010
,
0000
0000
0001
0000
,
0000
1000
0000
1001
,
0000
0000
1001
0000
,
0000
1001
0000
0000
,
1001
0000
0000
0001
,
0000
0000
1000
0000
,
0000
0100
0000
0000
,
0010
0000
0000
1000
,
0000
0000
0100
0000
,
0000
0001
0000
0000
,
0010
0000
0000
0001
,
0000
0000
1000
0000
,
0000
0100
0000
0000
,
1000
0000
0000
0010
,
0000
0000
0001
0000
,
0000
0100
0000
0000
,
0010
0000
0000
1000
,
0000
0000
0001
0000
,
0000
0010
0000
0000
,
0001
0000
0000
0100
,
0000
0000
0001
0000
,
0000
0010
0000
0000
,
0010
0000
0000
1000
,
0000
0000
0100
0000
,
0000
1000
0000
0000
,
0001
0000
0000
0010
,
0000
0000
1000
0000
,
0000
0100
0000
0000
,
0001
0000
0000
1000
,
0000
0000
0001
0000
,
0000
0010
0000
0000
,
1000
0000
0000
0100
,
0000
0000
0001
0000
,
0000
0010
0000
0000
,
1000
0000
0000
0100
,
0000
0000
1000
0000
,
0000
0001
0000
0000
,
0010
0000
0000
0001
,
0000
0000
1000
0000
,
0000
0100
0000
0000
,
0010
0000
0000
1000
,
0000
0000
0100
0000
,
0000
1000
0000
0000
,
0001
0000
0010
0000
,
0000
0100
0000
1000
,
0000
0000
0001
0000
,
0010
0000
0000
0001
,
0000
0000
1000
0000
,
0000
0100
0000
1000
,
0000
0000
0010
0000
,
0001
0000
0000
0100
,
0000
0010
0000
0000
,
0100
0000
0000
0010
,
0000
0000
1000
0000
,
0000
0001
0000
0000
,
0010
0000
0000
0001
,
0000
0000
0100
0000
,
0000
1000
0000
0000
,
0001
0000
0000
0001
,
0000
0000
0100
0000
,
0000
1000
0000
0000
,
0100
0000
0000
0001
,
0000
0000
0100
0000
,
0000
0010
0000
0000
,
0001
0000
0000
1000
,
0000
0000
0100
0000
,
0000
0010
0000
0000
,
0001
0000
0000
0010
,
0000
0000
0001
0000
,
0000
0100
0000
0000
,
1000
0000
0000
0010
,
0000
0000
1000
0000
,
0000
0001
0000
0000
,
0010
0000
0000
0100
,
0000
0000
1000
0000
,
0000
0100
0000
0000
,
0010
0000
0000
0001
;

//---------------dance-single - Copied from Copied f----------------
#NOTES:
     dance-single:
     Copied from Copied f:
     Easy:
     4:
     0.309,0.326,0.013,0.000,0.003:
0000
0000
0000
0000
,
1000
0000
0000
0000
,
0000
0000
0000
0000
0000
0000
0000
0001
0000
0000
0000
0000
,
0000
0000
0000
0000
,
0010
0000
0000
0000
,
0000
0000
1000
0000
,
0000
0000
0000
0000
,
1000
0000
0100
0001
,
0000
0010
0001
0000
,
0010
1000
0000
0100
,
0001
0000
1000
0010
,
0000
0001
1000
0000
,
1000
0100
0000
0000
,
0010
0000
0001
0010
,
0000
0100
1000
0000
,
1000
0100
0000
0010
,
0001
0000
0001
1000
,
0000
0100
1000
0000
,
0010
0001
0000
0000
,
1000
0000
0001
0100
,
0010
0001
0000
1000
,
0100
0010
1000
0000
,
0001
1000
0001
0100
,
0000
0010
1000
0001
,
1000
0000
0100
1000
,
0010
0001
0000
0100
,
0001
1000
0001
0000
,
0100
0001
1000
0010
,
0000
0100
1000
0001
,
0100
0010
0000
0001
,
1000
0100
0001
0000
,
0010
0001
1000
0100
,
0000
1000
0010
0100
,
0001
0000
0001
0010
,
0100
1000
0000
1000
,
0010
1000
0001
0000
,
0100
0001
0010
1000
,
0000
0100
1000
0010
,
0001
0000
0100
0001
,
0010
1001
0000
0000
,
0100
0000
1001
0000
,
0000
0001
0100
1000
,
0000
1000
0010
0001
,
0100
0000
0001
0001
,
0000
1000
1000
0000
,
0001
1000
0001
1000
,
0000
0001
0001
0000
,
1000
1000
0000
0100
,
0100
0000
1000
0010
,
0001
0000
0100
0000
,
0000
1000
0000
0100
,
0100
0000
0001
0010
,
0000
0010
1000
0000
,
0100
1000
0000
1000
,
0001
0000
0010
0001
,
0000
0001
0100
0000
,
0100
1000
0000
1000
,
0001
0000
0010
1000
,
0000
1000
0100
1000
,
0010
0001
0000
0100
,
0100
0000
0010
0010
,
0000
0001
1000
0000
,
0100
1000
0000
0010
,
0001
0000
0001
0010
,
0000
0001
1000
0100
,
0010
0001
0000
0001
,
1000
0000
0010
0100
,
0001
0010
0001
0000
,
1000
0100
1000
0010
,
0001
0000
0100
0001
,
0000
0010
1000
0000
,
0001
1000
0000
1000
,
0001
0000
0000
0010
,
0000
0001
1000
0000
,
0000
0100
0000
0001
,
1000
0000
1000
0100
,
0000
0100
0010
0000
,
0001
1000
0000
1000
,
0100
0000
0100
1000
,
0000
0010
0001
0000
,
0000
0001
0000
0001
,
0100
0000
1000
0100
,
0000
0010
1000
0001
,
0010
0001
0000
0001
,
1000
0000
1000
0100
,
0010
0001
0010
0000
,
0000
0001
0000
0001
,
0100
1000
0100
0000
,
0010
0001
0100
1000
,
0000
1000
0100
0010
,
0001
0000
0010
0001
,
1000
0100
0010
0000
,
1000
0001
0000
0100
,
0000
0001
0010
0000
,
1000
0000
0100
1000
,
0000
0010
0000
0001
,
0100
0000
0000
0001
,
0000
1000
0100
0000
,
0001
0010
0000
0100
,
1000
0000
1000
0010
,
0000
0010
0001
0000
,
0001
0100
0000
0100
,
1000
0000
0010
1000
,
0000
1000
0001
0000
,
0001
0010
0000
0010
,
0100
0000
0100
1000
,
0000
1000
0010
0000
,
0100
0001
0000
0001
,
1000
0000
0001
1000
,
0000
0100
0010
0000
,
0010
0001
0000
0001
,
1000
0000
0100
1000
,
0000
1000
0010
0000
,
0010
0001
0000
0001
,
0100
0000
0100
1000
,
0000
1000
0001
0000
,
0001
0010
0000
0010
,
0100
0000
0100
0001
,
0000
0001
1000
0000
,
1000
0100
0000
0100
,
0010
0000
0001
0100
;

//---------------dance-single - Copied from Copied f----------------
#NOTES:
     dance-single:
     Copied from Copied f:
     Medium:
     6:
     0.408,0.367,0.013,0.000,0.003:
0000
0000
0000
0000
,
1000
0000
0000
0000
,
0000
0000
0000
0000
0000
0000
0000
0001
0000
0000
0000
0000
,
0000
0000
0000
0000
,
0010
0000
0000
0000
,
0000
0000
0001
0000
,
0000
0000
0000
0000
,
1000
0100
0001
0100
,
1000
0010
0001
0100
,
1000
0010
0001
1000
,
0100
1000
0010
0001
,
0100
0001
0010
0001
,
1000
0100
1001
0000
,
0100
0001
1000
0010
,
0100
1000
0001
0010
,
0001
0100
0001
1000
,
0100
1000
0010
0001
,
0100
0001
0010
0001
,
0100
1000
0001
1000
,
0001
0100
0001
1000
,
1000
0100
1000
0010
,
0001
0001
0100
0001
,
0010
0100
0100
1000
,
0010
0001
0100
0100
,
1000
0100
0001
0010
,
0001
1000
0100
0001
,
0010
1000
0001
0100
,
0001
0010
1000
0001
,
0100
1000
0010
0001
,
0100
0001
0010
1000
,
0001
0001
1000
0010
,
0001
1000
1000
0001
,
1000
0010
0100
0100
,
0001
1000
0100
0010
,
0010
0001
1000
0010
,
0001
0001
1000
0001
,
0010
1000
1000
0001
,
1000
0010
0100
0100
,
0001
1000
0100
0010
,
0010
0001
0000
0001
,
1000
0100
1000
0000
,
1000
0010
0001
0100
,
0001
0010
1000
0100
,
1000
0000
1000
0100
,
0000
0100
0001
0000
,
0001
0010
0001
0010
,
0000
0010
1000
0000
,
1000
0100
1000
0100
,
0001
0000
0001
0010
,
0001
0000
1000
0000
,
0100
1000
0000
0100
,
1000
0100
0010
0001
,
0000
0001
0010
0001
,
1000
0001
0000
0100
,
1000
0000
1000
0100
,
0000
1000
0010
0001
,
1000
0100
0000
0001
,
1000
0000
0010
1000
,
0100
1000
0010
0000
,
1000
0001
0000
1000
,
0100
1000
0010
0001
,
0000
0001
1000
0000
,
1000
0100
1000
0010
,
0001
0000
1000
0001
,
1000
0100
0010
0001
,
0010
0100
0000
0100
,
1000
0000
1000
0010
,
0000
0010
1000
0000
,
1000
0010
0100
0001
,
1000
0000
0100
1000
,
0000
1000
0010
0100
,
0001
1000
0000
0001
,
0100
0000
0000
0010
,
1000
0001
1000
0100
,
0010
0100
1000
0100
,
0001
1000
0010
0001
,
1000
0100
1000
0001
,
0010
0100
0000
0100
,
1000
0000
1000
0100
,
1000
0010
0001
0000
,
0000
0100
0001
0010
,
0001
1000
0100
1000
,
0010
1000
0100
0001
,
1000
0001
0000
0001
,
0010
0100
1000
0100
,
1000
0001
0010
0000
,
0000
0100
0100
1000
,
0010
0010
0100
0100
,
0001
1000
1000
0010
,
0010
1000
0100
0100
,
0001
0001
1000
0100
,
0100
0001
1000
1000
,
0010
0001
0001
0100
,
0100
0001
0010
0010
,
1000
0001
0100
1000
,
0001
1000
0100
0010
,
0001
1000
0001
1000
,
0100
1000
0100
0010
,
0001
0010
0001
0010
,
0100
1000
0001
1000
,
0100
0010
0001
1000
,
0001
0100
0010
1000
,
0001
0100
0010
0010
,
1000
0100
1000
0010
,
0001
0100
0010
1000
,
0001
0100
0010
0001
,
1000
0100
1000
0010
,
0100
1000
0100
0001
,
1000
0100
0001
0010
,
1000
0001
0100
0010
,
0001
1000
0010
0100
,
0001
0001
1000
0010
,
0100
0001
0100
1000
,
0010
0100
0001
1000
,
0001
0010
0100
1000
,
0010
0100
0010
1000
,
0100
0010
0001
0100
,
0010
1000
0100
0010
,
1000
0001
0100
0100
,
1000
0010
0100
1000
,
0010
0001
0100
1001
;

//---------------dance-single - Copied from Copied f----------------
#NOTES:
     dance-single:
     Copied from Copied f:
     Hard:
     8:
     0.516,0.530,0.081,0.013,0.293:
0000
0000
0000
0000
,
0011
0000
0000
0000
,
0000
0000
0000
0000
0000
0000
0000
0110
0000
0000
0000
0000
,
0000
0000
0000
0000
,
1100
0000
0000
0000
,
0000
0000
1001
0000
,
0000
0000
0000
0000
,
0001
1000
0001
1000
,
0100
0010
0001
1000
,
0100
1000
0010
0001
,
0100
0000
0000
0001
0000
1000
0010
0000
0000
0001
0000
0000
,
0100
0000
0010
0100
0000
0000
1000
0000
0000
0001
0000
0000
,
0100
0010
0001
0110
,
1000
0000
0001
0000
0000
0010
0001
0000
0000
0100
0000
0000
,
0010
0000
0000
1000
0000
0000
0001
0000
0100
0000
0000
0010
,
1000
0100
0010
0100
,
2000
0000
0100
0000
3000
0100
1000
0000
0000
0100
0000
0000
,
0010
0000
0000
0001
0000
0000
0200
0000
0001
0300
0000
0001
,
0100
0000
0000
1000
0000
0000
0001
0000
0010
0100
0000
0000
,
1000
0000
0001
0000
0000
0100
0001
0000
0000
0010
0000
0000
,
0010
0000
0000
0001
0000
1000
0000
0000
0010
0100
0000
0000
,
0001
0000
0000
1000
0000
0000
0100
0000
1000
0000
0000
0001
,
0010
0000
0000
1000
0000
0000
0001
0000
0000
0100
0000
1000
,
0000
0000
0100
0010
0000
0000
0001
0000
0000
1000
0000
0000
,
0100
1000
0010
0001
,
0100
0001
1000
0010
,
0100
1000
0001
0100
,
0010
0001
1000
0100
,
1000
0010
1000
0001
,
1001
0000
0000
0010
0000
0100
0000
0000
0001
0100
0000
0000
,
1000
0000
0000
0100
0000
0000
0010
0000
0001
0000
0000
0001
,
0010
0000
0000
1000
0000
0000
0100
0000
0000
1000
0000
0010
,
0000
0000
0010
0100
0000
0000
1000
0000
0000
0001
0000
0000
,
0010
0000
1000
0000
0000
1000
0010
0000
0000
0100
0000
0000
,
0001
1000
0001
0100
,
0010
0001
1000
0100
,
1000
0001
0100
0001
,
1000
0010
0100
0001
,
1000
0100
0010
1000
,
0001
0101
0010
0001
,
1100
0010
1001
0100
,
0001
0010
1000
0001
,
0100
0010
1000
0001
,
0100
0001
1000
0010
,
0000
0100
0001
0000
,
0001
0010
0100
1000
,
0000
0100
1000
0000
,
0100
0010
0001
1000
,
1001
0000
0000
0100
,
0001
0000
0000
0000
0000
0010
0001
0000
0000
0000
0000
0000
,
1000
0100
0010
0001
,
0010
0000
0100
1000
,
0000
0100
0010
0001
,
1000
0000
0000
0001
0000
0000
0010
0000
0100
0010
0000
0000
,
0100
1000
0001
0100
,
0010
0000
0001
0010
,
0100
0000
0000
0010
0000
0000
1000
0000
0010
0100
0000
0000
,
0001
0010
0100
0001
,
1000
0100
0010
1000
,
0001
0000
0000
0100
0000
0001
0000
0000
1000
0100
0000
0000
,
1000
0000
0010
0001
0000
1000
0100
0000
0010
0001
0000
0000
,
1000
0000
0000
0010
0000
0100
1000
0000
0000
0010
0000
0000
,
0100
0010
1000
0100
,
0001
0010
1000
0100
,
1000
0001
0010
0100
,
0001
0000
0000
0100
0000
0000
1000
0000
1000
0001
0000
0000
,
0010
0000
0000
0001
0000
0001
1000
0000
0000
0100
0000
0000
,
0001
1000
0100
0010
,
1000
0001
0100
0001
,
0010
1000
0001
0100
,
0010
1000
0100
1000
,
0010
0000
0000
0001
0000
1000
0000
0000
0001
0100
0000
0000
,
0010
1000
0110
1000
,
0001
0000
0000
1000
0000
0000
0001
0000
0001
0010
0000
0010
,
0100
0000
0100
1000
0000
0001
0100
0000
0000
0010
0000
0000
,
1000
0000
0000
0100
0000
0000
0100
0000
0000
1000
0000
1000
,
0010
0100
0001
0001
,
0100
0010
1000
0001
,
0100
0010
1000
0001
,
0100
0010
0001
1000
,
0100
0000
0000
1000
0000
0000
0010
0000
0001
0100
0000
0000
,
1000
0100
0001
0010
,
0001
1000
0100
1000
,
0010
0100
0001
0001
,
0010
1000
1000
0100
,
0001
0001
0010
1000
,
1000
0000
0000
0100
0000
0000
0001
0000
0010
1000
0000
0000
,
0100
0000
0000
0100
0000
0000
1000
0000
0000
0010
0000
0001
,
0100
0010
0010
1000
,
0100
0000
0100
1000
0000
0000
0001
0000
0000
0001
0000
0000
,
0100
0000
0000
0010
0000
0100
0001
0000
0000
1000
0000
0000
,
1000
0000
0000
0100
0000
0000
0010
0000
0000
0001
0000
0001
,
0010
0100
0100
1000
,
0010
0000
0010
0100
0000
0000
1000
0000
0000
1000
0000
0000
,
0100
0000
0000
0001
0000
1000
0001
0000
0000
0010
0000
0000
,
0010
0000
0000
0001
0000
0000
1000
0000
0001
1000
0000
0000
,
0100
0100
0010
1000
,
0100
0000
0001
0010
0000
0000
0001
0000
0000
0010
0000
1000
,
0100
0000
0000
1000
0000
0000
0001
0000
0100
0010
0000
0000
,
0001
0000
0000
1000
0000
0010
0100
0000
0000
0001
0000
0000
,
0010
0000
0100
1000
0000
0000
1000
0000
0000
0100
0000
0010
,
0001
0000
0000
0001
0000
0000
1000
0000
0100
0010
0000
0000
,
1000
0000
0000
0001
0000
0010
0100
0000
0000
1000
0000
0000
,
0001
0000
0010
0001
0000
0000
0001
0000
0000
1000
0000
0100
,
1000
0000
0000
0010
0000
0000
1000
0000
0100
0001
0000
0000
,
0010
0000
0000
0001
0000
0100
1000
0000
0000
1000
0000
0000
,
0001
0000
1000
0001
0000
0000
0001
0000
0000
1000
0000
0001
,
1000
0000
0000
0100
0000
0000
0010
0000
1000
0100
0000
0000
,
0010
0000
0000
0001
0000
0100
0010
0000
0000
1000
0000
0000
,
0001
0000
0010
0001
0000
0000
0100
0000
0000
0010
0000
1000
,
0100
0000
0000
0001
0000
0000
0001
0000
0010
0100
0000
0000
,
1000
0000
0000
1000
0000
0100
0010
0000
0000
0001
0000
0000
,
1000
0000
0010
1000
0000
0000
1000
0000
0000
0001
0000
0100
,
0001
0000
0000
1000
0000
0000
0010
0000
0100
0001
0000
0000
,
0001
0000
0000
0100
0000
0010
1000
0000
0000
0001
0000
0000
,
0010
0000
0100
1000
0000
0000
1000
0000
0000
0100
0000
0010
,
0001
0000
0000
1000
0000
0000
0100
0000
0010
0100
0000
0000
,
0001
0000
0000
1000
0000
0010
0001
0000
0000
0001
0000
0000
,
1000
0000
0010
1000
0000
0000
0100
0000
0000
0010
0000
0001
,
1000
0000
0000
0100
0000
0000
0010
0000
1000
0001
0000
0000
,
0100
0000
0000
0010
0000
0100
0010
0000
0000
1001
0000
0000
;

//---------------dance-single - Copied from Copied from Copied f----------------
#NOTES:
     dance-single:
     Copied from Copied from Copied f:
     Challenge:
     9:
     0.621,0.611,0.580,0.000,0.401: // measure 1
0000
0000
0000
0000
,  // measure 2
1100
0000
0000
0000
,  // measure 3
0000
0000
0000
0000
0000
0000
0000
0011
0000
0000
0000
0000
,  // measure 4
0000
0000
0000
0000
,  // measure 5
1001
0000
0000
0000
,  // measure 6
0000
0000
0110
0000
,  // measure 7
0000
0000
0000
0000
,  // measure 8
0001
0100
1000
1000
,  // measure 9
0100
0001
0001
0010
,  // measure 10
1000
1000
0010
0001
,  // measure 11
0100
0000
0000
0001
0000
1000
0010
0000
0100
0001
0000
1000
,  // measure 12
0100
0000
0010
0100
0000
0001
1000
0000
0000
1000
0000
0000
,  // measure 13
0001
0010
0100
1001
,  // measure 14
0100
0000
1000
0000
0000
0010
0100
0000
0000
0001
0000
0000
,  // measure 15
1001
0000
0000
0100
0000
0000
1000
0000
0001
0000
0000
0001
,  // measure 16
1000
1000
0011
0100
,  // measure 17
0100
0000
0010
0000
0000
0010
0001
0000
0000
1000
0000
0000
,  // measure 18
0110
0000
0000
0001
0000
0000
0010
0000
0100
0000
0000
0100
,  // measure 19
1000
0000
0000
0010
0000
0000
1000
0000
0010
0100
0010
0100
,  // measure 20
0010
0000
1000
0000
0000
0100
0010
0000
0000
1000
0000
0000
,  // measure 21
0101
0000
0000
0010
0000
0001
0000
0000
0010
1000
0000
0000
,  // measure 22
0100
0000
0000
1010
0000
0000
0001
0000
1000
0000
0000
1000
,  // measure 23
0001
0000
0000
1000
0000
0000
0011
0000
0000
0100
0000
0010
,  // measure 24
0000
0000
0100
0010
0000
0000
1000
0000
0000
0010
0000
0000
,  // measure 25
0110
1000
0010
1001
,  // measure 26
0100
1001
1000
0010
,  // measure 27
0110
1000
0011
0100
,  // measure 28
0010
0001
0010
0001
,  // measure 29
0100
1000
0010
0100
,  // measure 30
1001
0000
0000
1000
0000
0100
0000
0000
0100
0010
0000
0000
,  // measure 31
0001
0000
0000
1100
0000
0000
0010
0000
1000
0000
0000
0010
,  // measure 32
0100
0000
0000
0001
0000
0000
0110
0000
0000
1000
0000
0010
,  // measure 33
0000
0000
0010
0001
0000
0000
0100
0000
0000
0011
0000
0000
,  // measure 34
1000
0000
0001
0000
0000
1000
0001
0000
0000
0010
0000
0000
,  // measure 35
1001
0010
1000
0100
,  // measure 36
0011
0001
1100
0010
,  // measure 37
0001
0110
0001
1100
,  // measure 38
1000
0001
1000
0010
,  // measure 39
1000
0100
0001
0100
,  // measure 40
1000
0000
0000
1001
0000
0000
0010
0000
0001
0100
0000
0000
,  // measure 41
0011
0000
0000
0100
0000
0000
1010
0000
0000
0100
0000
1000
,  // measure 42
0001
0100
0001
0010
,  // measure 43
0100
0001
0010
0100
,  // measure 44
1010
0001
1100
0110
,  // measure 45
0000
1100
0011
0000
,  // measure 46
0011
0110
0001
1100
,  // measure 47
0000
0110
0011
0000
,  // measure 48
1100
0110
0011
1001
,  // measure 49
1001
0000
0000
0010
,  // measure 50
1000
0000
0000
0001
0000
0010
1000
0000
0000
0010
0000
0000
,  // measure 51
1000
0010
0100
0001
,  // measure 52
1000
0001
0100
1000
,  // measure 53
0001
0000
0010
0100
0000
0000
1000
0000
0000
0010
0000
0000
,  // measure 54
1000
0000
0000
0100
0000
0000
0010
0000
0001
0100
0000
0000
,  // measure 55
0100
0000
0000
0001
0000
0010
1000
0000
0000
0010
0000
0000
,  // measure 56
0010
0100
1000
0100
,  // measure 57
0010
0000
0000
0001
0000
0000
0001
0000
1000
0100
0000
0000
,  // measure 58
0001
0000
0000
0010
0000
0001
0100
0000
0000
0010
0000
0000
,  // measure 59
0001
0100
1000
0010
,  // measure 60
1000
0000
0000
0001
0000
0010
1000
0000
1000
0010
0000
0100
,  // measure 61
1000
0000
0100
0001
0000
0001
0010
0001
0010
0001
0000
0000
,  // measure 62
0001
0000
0000
0010
0000
0100
1000
0000
0000
0001
0000
0000
,  // measure 63
0100
0000
0000
1000
0000
0000
0001
0000
0000
0010
0000
0001
,  // measure 64
1000
0001
0010
0100
,  // measure 65
1000
0000
0100
0001
0000
0000
0001
0000
0000
1000
0000
0000
,  // measure 66
0010
0000
0000
0001
0000
0000
0010
0000
1000
0100
0000
0000
,  // measure 67
0100
0000
0000
0010
0000
0001
0010
0000
0000
0001
0000
0000
,  // measure 68
1000
0100
0001
0100
,  // measure 69
0001
1000
0010
0100
,  // measure 70
0001
0000
0000
1000
0000
0100
0010
0000
0000
1000
0000
0000
,  // measure 71
0001
0010
1000
0001
,  // measure 72
0100
0000
0000
0001
0000
1000
0000
0000
1000
0100
0000
0000
,  // measure 73
0010
0100
1001
0100
,  // measure 74
0010
0000
0000
0100
0000
0000
1000
0000
1000
0010
0000
0010
,  // measure 75
0001
0000
0001
0100
0000
1000
0000
0000
0100
0010
0000
0000
,  // measure 76
1000
0000
0000
0010
0000
0000
0001
0000
0000
0100
0000
0001
,  // measure 77
0010
1000
0100
0010
,  // measure 78
0100
0000
0000
0001
0000
0000
1000
0000
0001
0100
0000
0000
,  // measure 79
0010
0001
1000
0100
,  // measure 80
0010
0000
1000
0100
0000
0000
0001
0000
0000
0010
0000
0000
,  // measure 81
0100
0000
0000
1000
0000
0000
0001
0000
0010
0100
0000
0000
,  // measure 82
0001
1000
0100
0001
,  // measure 83
0010
0000
1000
0100
0000
0000
0100
0000
0000
1000
0000
0000
,  // measure 84
0010
0000
0000
0100
0000
0000
1000
0001
1000
0001
0000
0000
,  // measure 85
0100
0000
0000
0001
1000
0001
1000
0000
0000
0010
0000
0000
,  // measure 86
1000
0001
1000
0001
0000
0000
0100
0000
0000
0001
0000
0100
,  // measure 87
0010
0000
1000
0100
0000
0010
0001
0000
0000
1000
0000
0000
,  // measure 88
1100
0000
0000
1100
0000
0000
1000
0000
0100
0010
0000
1000
,  // measure 89
0100
0000
0000
0011
0000
0000
0011
0000
0000
1000
0000
0001
,  // measure 90
0100
0000
0010
1000
0000
0000
1001
0000
0000
1001
0000
0000
,  // measure 91
0010
0000
0000
1000
0000
0010
0100
0000
0000
0001
0000
0000
,  // measure 92
0010
0000
0000
0100
0000
0000
1000
0000
1000
0001
0000
0001
,  // measure 93
0010
0000
0000
0011
0000
0000
1100
0000
0000
0001
0000
0001
,  // measure 94
0100
0000
0100
0010
0000
0000
1001
0000
0000
1001
0000
0000
,  // measure 95
0010
0000
0000
1000
0000
0001
1000
0000
0000
0100
0000
0000
,  // measure 96
0010
0000
1000
0001
0000
0000
1000
0000
0001
1000
0000
0000
,  // measure 97
0100
0100
0010
1000
,  // measure 98
0100
0000
1000
0010
0000
0000
1100
0000
0000
0010
0000
0001
,  // measure 99
0010
0000
0000
1100
0000
0000
1000
0000
0001
0010
0000
0000
,  // measure 100
0101
0000
0000
0001
0000
0100
1000
0000
0000
0110
0000
0000
,  // measure 101
1000
0000
0100
0001
0000
0000
1100
0000
0000
0001
0000
0100
,  // measure 102
0010
0000
0000
0101
0000
0000
1000
0000
0010
0100
0000
0000
,  // measure 103
0110
0000
0000
1000
0000
0001
0010
0000
0000
1100
0000
0000
,  // measure 104
0001
0000
0010
0001
0000
0000
1001
0000
0000
0010
0000
0100
,  // measure 105
0010
0000
0000
0011
0000
0000
1000
0000
0010
0100
0000
0000
,  // measure 106
1010
0000
0000
1000
0000
0100
0010
0000
0000
1100
0000
0000
,  // measure 107
0010
0000
1000
0100
0000
0000
0011
0000
0000
0100
0000
0100
,  // measure 108
0010
0000
0000
0011
0000
0000
0010
0000
0001
0100
0000
0000
,  // measure 109
1010
0000
0000
0010
0000
0100
0001
0000
0000
1001
0000
0000
,  // measure 110
0100
0000
0010
1000
0000
0000
0011
0000
0000
0100
0000
1000
,  // measure 111
0100
0000
0000
1010
0000
0000
1000
0000
0100
0001
0000
0000
,  // measure 112
1100
0000
0000
1000
0000
0010
0001
0000
0000
0101
0000
0000
,  // measure 113
0010
0000
0010
1000
0000
0000
0101
0000
0000
0010
0000
0100
,  // measure 114
0010
0000
0000
1001
0000
0000
0010
0000
0100
1000
0000
0000
,  // measure 115
0011
0000
0000
0100
0000
0100
0010
0000
0000
1100
0000
0000
,  // measure 116
0100
0000
0010
0001
0000
0000
1010
0000
0000
0100
0000
0010
,  // measure 117
1000
0000
0000
0011
0000
0000
1000
0000
1000
0001
0000
0000
,  // measure 118
1010
0000
0000
0001
0000
0010
1000
0000
0000
0101
0000
0000
,  // measure 119
0001
0000
0010
0001
0000
0000
0110
0000
0000
1000
0000
0001
,  // measure 120
1000
0000
0000
0101
0000
0000
0010
0000
1000
0100
0000
0000
,  // measure 121
1001
0000
0000
0100
0000
0010
0100
0000
0000
1001
0000
0000
;
