#TITLE:Why Did You Go Away?;
#SUBTITLE:;
#ARTIST:jun with TAHIRIH;
#TITLETRANSLIT:;
#SUBTITLETRANSLIT:;
#ARTISTTRANSLIT:;
#GENRE:;
#CREDIT:;
#MENUCOLOR:;
#NEWMETERSYSTEM:NO;
#BANNER:Why Did You Go Away-bn.png;
#BACKGROUND:Why Did You Go Away-bg.png;
#LYRICSPATH:;
#CDTITLE:MixMania CD Title.png;
#MUSIC:Why Did You Go Away.mp3;
#OFFSET:-0.860;
#SAMPLESTART:48.820;
#SAMPLELENGTH:12.000;
#SELECTABLE:YES;
#LISTSORT:;
#BPMS:0.000=160.000;
#STOPS:;
#BGCHANGES:;
#ATTACKS:;

//---------------dance-single - ----------------
#NOTES:
     dance-single:
     :
     Easy:
     3:
     0.307,0.350,0.102,0.288,0.000:
0000
0000
0000
0000
,
0000
0000
0000
0000
,
1000
0100
0001
0000
,
0010
0000
0001
0000
,
0010
0001
0100
1000
,
0100
0000
1000
0000
,
0100
0000
0010
0100
,
0010
0000
0001
1000
,
0100
1000
0010
0000
,
0100
0000
0001
0000
,
0010
0001
0100
1000
,
0100
0000
0010
0000
,
1000
0010
1000
0100
,
0001
0000
0100
0000
,
0010
0000
0010
0100
,
2002
0000
0000
0000
0000
3003
0000
0000
,
0100
0000
0010
0000
,
0100
0001
0010
0000
,
0001
0100
1000
0100
,
0002
0000
2003
0010
,
3010
0000
0100
0000
,
1000
0100
1000
0010
,
0100
0000
0001
0010
,
0100
0000
1000
0100
,
0001
0010
0001
0100
,
1000
0000
0100
0000
,
1000
0010
0100
0000
,
0001
0000
0010
0000
,
0001
0010
1000
0100
,
1000
0010
0001
0000
,
1001
0000
1001
0000
,
0200
0000
0000
0310
,
0100
0001
1000
0100
,
1000
0000
0010
0000
,
0100
0001
0010
0001
,
2000
0000
0002
3000
,
0103
1000
0010
0001
,
0001
0000
0010
1000
,
0100
0000
0010
0001
,
0100
0001
0020
2030
,
3100
0000
0020
0032
,
0103
0000
2000
3002
,
0013
0000
1000
0100
,
1001
0000
0001
0010
,
1001
0000
0000
1000
,
1000
0100
0010
0001
,
0001
0000
1000
0100
,
0002
0000
2000
3003
,
1001
1000
0100
0000
,
1001
0001
0100
0000
,
0010
0001
1000
0010
,
1000
0000
0001
0000
,
2000
0000
3020
0000
,
0230
0000
0302
0000
,
2003
0000
3002
0000
,
1003
0000
0001
0100
,
2020
0000
0000
0000
,
0000
0000
0000
3030
,
1001
0010
0001
0000
,
1000
0000
0010
1000
,
0100
0001
0100
1000
,
0020
0000
2030
0000
,
3001
0001
0010
0001
,
0000
0100
1000
0100
,
0001
0000
0010
0001
,
1000
0100
2000
3020
,
0130
0000
0002
2003
,
3010
0000
1000
0100
,
0001
0010
0001
0010
,
2002
0000
3003
0001
,
0200
0300
0020
0030
,
0000
0001
0010
1000
,
0100
0000
0100
0000
,
1001
0000
0010
0100
,
1000
0100
0001
0020
,
0030
1001
0000
0000
;

//---------------dance-single - Copied from----------------
#NOTES:
     dance-single:
     Copied from:
     Beginner:
     1:
     0.125,0.223,0.034,0.076,0.000:
0000
0000
0000
0000
,
0000
0000
0000
0000
,
1000
0000
0000
0000
,
0001
0000
0000
0000
,
0100
0000
0000
0000
,
0010
0000
0100
0000
,
0100
0000
0000
0000
,
1000
0000
0001
0000
,
0010
0000
0000
0000
,
0001
0000
0000
0000
,
1000
0000
0000
0000
,
0100
0000
0000
0000
,
0010
0000
0000
0000
,
1000
0000
0000
0000
,
0001
0000
0000
0000
,
0010
0000
0000
0000
,
0001
0000
1000
0000
,
0100
0000
0000
0000
,
0010
0000
0010
0000
,
0001
0000
0000
0000
,
0100
0000
1000
0000
,
0100
0000
0000
0000
,
1000
0000
0001
0000
,
0010
0000
0000
0000
,
0200
0000
0300
0000
,
1000
0000
0000
0000
,
0200
0000
0300
0000
,
0001
0000
0000
0000
,
0020
0000
0030
0000
,
0200
0000
0300
0000
,
1001
0000
0000
0000
,
2002
0000
3003
0000
,
0010
0000
0000
0000
,
0100
0000
0000
0000
,
1000
0000
0100
0000
,
0001
0000
0000
0000
,
0010
0000
0000
0000
,
0100
0000
0000
0000
,
0001
0000
0000
0000
,
1000
0000
1000
0000
,
0010
0000
0010
0000
,
0001
0000
0001
0000
,
0100
0000
0000
0000
,
0001
0000
0000
0000
,
1000
0000
0000
0000
,
0100
0000
0000
0000
,
0010
0000
0100
0000
,
0020
0000
0030
0000
,
1000
0000
0000
0000
,
0100
0000
0000
0000
,
0010
0000
0000
0000
,
0001
0000
0000
0000
,
0200
0000
0000
0000
,
0000
0000
0300
0000
,
0001
0000
0010
0000
,
1001
0000
0000
0000
,
0020
0000
0000
0000
,
0000
0000
0030
0000
,
0100
0000
0000
0000
,
1000
0000
0000
0000
,
0001
0000
0010
0000
,
0001
0000
0000
0000
,
0100
0000
0000
0000
,
0100
0000
0000
0000
,
0010
0000
0000
0000
,
1000
0000
0100
0000
,
1000
0000
0001
0000
,
0010
0000
0001
0000
,
0100
0000
0000
0000
,
1001
0000
0000
0000
,
0100
0000
0000
0000
,
0010
0000
0000
0000
,
0001
0000
0000
0000
,
1000
0000
0000
0000
,
0010
0000
0001
0000
,
0010
0010
0000
0000
;

//---------------dance-single - Copied from----------------
#NOTES:
     dance-single:
     Copied from:
     Medium:
     5:
     0.364,0.350,0.085,0.017,0.008:
0000
0000
0000
0000
,
0000
0000
0000
0000
,
0001
0000
0010
0000
0001
0000
0100
1000
,
0001
0100
0001
0000
,
0010
1000
0100
1000
,
0010
0000
0001
0000
0100
0000
0001
0010
,
1000
0000
0100
0000
1000
0000
0100
1000
,
0000
0100
0000
0001
0000
0000
0000
0000
,
0010
0010
1000
1000
,
0100
0000
0001
0000
0010
0000
0001
0100
,
1000
0010
1000
0100
,
0001
0000
0010
0000
0001
0000
0100
0001
,
1000
0100
1000
0010
,
0001
0100
0001
0010
,
1000
0100
1000
0010
,
1001
0000
0000
0000
0000
1001
0000
0000
,
0100
0001
0010
0100
,
0001
0010
0001
1000
0000
0000
0100
0000
,
1000
0000
0010
0000
1000
0000
0001
1000
,
0000
0010
0100
0010
0000
0001
0000
0000
,
1000
0100
0010
0001
,
0010
0000
0100
0000
0001
0000
1000
0001
,
0100
0000
0000
0001
0000
0000
0010
0000
,
0001
0000
0000
0000
1000
0100
1000
0000
,
0100
0000
0100
0000
0010
0000
1000
0001
,
0100
0000
0010
0000
,
0001
0100
0010
0000
0001
0000
1000
0100
,
0001
0000
0000
1000
0000
0000
0010
0000
,
0100
0000
1000
0000
0010
0000
0001
0100
,
0000
0000
0010
0000
1000
0000
0100
0010
,
0001
0000
1000
0000
,
0100
0000
0000
0010
0000
0000
0100
0000
0000
0000
1001
0000
0000
0000
0000
0000
,
0100
0000
1000
0100
0000
0010
0000
0001
,
1000
0000
0000
0100
0000
0001
0010
0000
,
0100
0000
1000
0000
0010
0000
1000
0010
,
0001
0001
0100
0000
,
1000
0000
0100
0000
1000
0000
1000
0100
,
0001
0000
1000
0000
0100
0000
0001
0010
,
0100
0000
1000
0000
0001
0100
0000
0010
,
0000
0100
0000
0010
0000
0000
1000
0000
,
1000
0000
0000
0100
0000
0000
0001
0000
,
0001
0000
0000
0010
0000
0000
0100
0000
,
0100
0000
0001
1000
,
0100
0000
0010
0001
0000
0100
0000
0001
,
0000
0000
0001
1000
,
0100
0000
0000
0000
1000
0000
0000
0000
0010
0000
0000
1000
0000
0000
0001
0000
,
0200
0000
2300
0000
,
0010
0010
3001
1001
,
0001
0000
0100
0000
0010
0000
1000
0100
,
0000
0000
0100
1000
0000
0000
1000
0100
,
0000
0000
0010
0001
0000
0000
0001
0100
,
0000
0000
0100
1000
0000
0000
0000
0010
,
0000
0010
0100
0001
0000
0000
1000
0000
,
0100
0010
0001
0100
,
0010
1000
0100
0010
,
1001
0000
0000
0000
0000
1001
0000
0000
,
0100
0000
0010
0100
0000
0010
0000
0001
,
0000
0000
0100
0100
,
1000
0010
0001
0100
0000
0010
0000
0001
,
0000
0000
0100
0010
,
0001
0000
0010
1000
0000
0100
0000
0000
,
0010
0100
0010
1000
,
0100
0000
1000
0100
0000
0010
0000
0000
,
0001
0000
0001
0000
0010
0000
0010
0100
,
0000
0000
1000
0000
1000
0000
0100
0010
,
0000
0001
0000
1000
0000
0000
0001
0000
,
0100
0000
0000
0010
0000
0000
1000
0000
,
0100
0000
0000
0010
0000
0000
0001
0000
,
1000
0000
0100
0000
0010
0000
0000
1010
,
0000
1001
0000
0101
0000
0000
0100
0000
,
0010
0000
1000
0100
0001
0000
0000
0000
,
0010
0001
0100
0001
,
0010
0000
0001
1000
0001
0000
0010
0000
,
0001
0000
0100
0001
0010
0000
0100
0000
,
0001
0000
1000
0100
0000
0001
0000
0100
,
0000
1001
0000
0000
;

//---------------dance-single - Copied from----------------
#NOTES:
     dance-single:
     Copied from:
     Hard:
     7:
     0.470,0.448,0.186,0.102,0.025:
0000
0000
0000
0000
,
0000
0000
0000
0000
,
1000
0000
0001
0100
0010
0001
0000
0100
,
0000
1000
0010
0100
0001
0000
1000
0000
,
0100
0000
0001
0010
0000
0100
0000
0001
,
1000
0000
0100
0000
1000
0100
0010
0001
,
0000
0000
0100
0000
0001
0010
0100
0001
,
0000
1000
0000
0100
0000
0000
0010
0000
,
1000
0000
0100
0001
0010
0000
0001
0000
,
0100
0000
0001
0000
0100
0000
0010
1000
,
0100
1000
0100
0010
,
0001
0000
0001
0100
0001
0000
1000
0100
,
0010
0100
1000
0001
0100
0000
0001
0000
,
0010
0000
0001
0000
0100
0010
1000
0000
,
0100
0000
0010
0000
0001
0000
0100
0001
,
0220
0000
0000
0330
0000
1001
0000
0000
,
0100
1000
0010
1000
0000
0001
0000
0100
,
0010
1000
0100
0000
0010
0000
0001
0000
,
0010
0001
0100
0010
0000
1000
0010
1000
,
0000
0001
0100
0002
0000
1003
0000
0000
,
0010
0000
0010
1000
0000
0001
0000
1000
,
0000
0100
0010
0001
0000
0000
0001
1000
,
0100
0000
0000
1000
0000
0000
0100
0001
,
0010
0000
0001
0000
1000
0010
0100
0001
,
0010
0000
1000
0000
0100
0010
1000
0010
,
0000
0100
0000
1000
0001
0000
0010
0000
,
0100
0001
1000
0000
0100
0000
0010
1000
,
0000
0100
0000
0001
0000
0000
0100
0010
,
0100
0000
0001
0000
1000
0000
0100
1000
,
0000
1000
0001
0000
1000
0000
0001
0010
,
0100
1000
0010
0001
,
1000
0000
0000
0100
0000
0000
0010
0000
0000
0000
2001
0000
0000
0000
0000
0000
,
3010
0000
0001
0010
0000
0100
0000
1000
,
0100
0000
1000
0010
0000
0100
0000
0100
,
1000
0000
1000
0100
0000
0001
0000
0010
,
0000
0001
0100
0001
0000
1000
0100
0000
,
1010
0000
0100
0001
0000
0010
0100
0010
,
0000
0000
0100
0000
0100
0010
0000
0010
,
0001
0000
0100
0000
1000
0100
0000
0011
,
0000
1000
0000
0101
0000
0000
1000
0100
,
1000
0000
0000
0110
0000
0000
0001
0100
,
0001
0000
0000
1001
0000
0000
0010
0100
,
0010
0100
2000
3200
,
0301
0000
0010
0100
0000
1000
0000
0010
,
0100
0100
1000
0001
,
0010
0000
0000
0000
0001
0000
0000
0000
0001
0000
0000
0010
0000
0000
0100
0000
,
0010
0000
1000
0100
1000
0000
0001
0000
,
0010
0000
0001
0100
0001
0000
0110
0000
,
1000
0000
0000
0001
0000
0000
0100
0000
0000
0000
1000
0000
0100
0000
0001
0000
,
0000
0001
0100
0010
0000
0010
1000
0100
,
0000
0100
1000
0001
0000
0001
1000
0100
,
0000
0100
1000
0010
0000
0010
2000
0100
,
0000
0010
0000
3010
0000
0100
1000
0000
,
0100
0000
0000
0001
0000
0000
0010
0000
0000
1000
0000
0000
0100
0000
0010
0000
,
0001
0000
0000
0000
0100
0000
0000
1000
0000
0000
0100
0000
0010
0000
0001
0000
,
0020
0000
0000
0030
0000
1001
0000
0000
,
0101
0000
0010
0100
0000
1000
0000
2002
,
0000
0000
0000
3003
,
0110
0000
0001
0100
0000
1000
0000
0100
,
0010
0000
0000
0100
0000
1000
0010
0001
,
0010
0000
1000
0100
0000
0001
0000
1000
,
0000
0010
0100
0001
0000
0000
1001
0000
,
0100
0000
1000
0100
0000
0001
0000
0001
,
0100
0000
0001
0000
1000
0100
0010
0000
,
1100
0000
0010
0000
0001
0000
0010
1000
,
0000
0100
0000
0010
0000
1000
0100
0010
,
0001
0000
0000
1000
0000
0001
0010
0100
,
1000
0000
0000
0100
0000
1000
0100
0010
,
0001
0000
1001
0000
0001
0010
0000
1100
,
0000
1010
0000
1001
0000
0000
0100
0010
,
0100
0000
0010
1000
0010
0000
0001
0000
,
0100
0000
0010
1000
0100
0000
1000
0000
,
1000
0000
0100
0001
0010
0000
0010
0000
,
0001
0000
0010
0001
0100
0000
1001
0000
,
0001
0100
1000
0100
0000
1000
0000
1001
,
0000
0000
2020
0000
0000
3030
0000
0000
;

//---------------dance-single - Copied from Copied f----------------
#NOTES:
     dance-single:
     Copied from Copied f:
     Challenge:
     8:
     0.574,0.546,0.398,0.119,0.080: // measure 1
0000
0000
0000
0000
,  // measure 2
0000
0000
0000
0000
0000
0000
0001
0010
,  // measure 3
0001
0100
0001
1000
0000
0100
1000
0001
,  // measure 4
0000
0100
0001
0010
0000
0010
0001
0100
,  // measure 5
0001
0000
1000
0100
1000
0010
1000
0001
,  // measure 6
0100
0000
0001
0000
1000
0010
0001
0100
,  // measure 7
0001
0000
1000
0000
0100
0010
0100
0001
,  // measure 8
0000
1000
0000
0100
0000
0000
0011
0000
,  // measure 9
0100
0000
0000
0001
0000
0000
1000
0000
0000
0000
0100
0000
1000
0000
0010
0000
,  // measure 10
0001
0010
0000
0100
1000
0000
1000
0010
0000
0100
0001
0000
0010
0000
0001
0000
,  // measure 11
0010
0000
0100
0000
1000
0000
0010
0100
0000
0000
0001
0000
0100
0000
0010
0000
,  // measure 12
0100
0000
0000
0100
0000
0001
1000
0100
,  // measure 13
0000
0001
0100
0010
0000
1000
0100
0000
,  // measure 14
1000
0010
0000
0100
0001
0000
0001
0100
0000
0010
1000
0000
0100
0000
0000
0000
,  // measure 15
0001
0000
0010
0000
1000
0000
0000
0100
0000
0000
0010
0000
1000
0000
0001
0000
,  // measure 16
0200
0000
0000
0300
0000
1001
0000
0000
,  // measure 17
1000
0100
1000
0001
0000
0110
0000
0001
,  // measure 18
0000
1000
0001
0100
0000
1001
0000
0000
,  // measure 19
0010
0001
0001
0100
0000
0101
0000
1010
,  // measure 20
0000
1000
0001
0100
0000
1100
0000
0000
,  // measure 21
1001
0001
1000
0001
0000
0100
0000
1001
,  // measure 22
0000
0100
0010
0100
0000
1000
0100
0001
,  // measure 23
0200
0000
0310
0002
0000
1003
0200
0000
,  // measure 24
0310
0000
1001
0000
0001
1000
0100
0010
,  // measure 25
0001
0000
0110
0000
0010
0100
1000
0001
,  // measure 26
0000
0110
0000
1010
0000
0001
1000
0001
,  // measure 27
0010
0100
1000
0000
1100
0000
0010
1000
,  // measure 28
0000
0110
0000
0101
0000
1000
0010
0001
,  // measure 29
0100
0010
0000
0100
1000
0000
0010
0001
,  // measure 30
0000
0100
0100
0000
1000
0000
0001
0100
,  // measure 31
0110
0000
1000
0010
0110
0000
0001
1000
,  // measure 32
0100
0000
0000
0010
0000
0000
0100
0000
0000
0000
2002
0000
0000
0000
3003
0000
,  // measure 33
0100
1000
0001
0010
0000
0001
0000
1000
,  // measure 34
0100
0000
1000
0001
0000
0010
0100
0001
,  // measure 35
0100
0000
1000
0100
0000
1000
0000
0010
,  // measure 36
0000
1100
0000
1001
0000
0010
0100
0010
,  // measure 37
0001
0000
1000
0100
0000
1000
0000
0010
,  // measure 38
0100
0000
0001
0000
0010
0001
0010
0100
,  // measure 39
0011
0000
1100
0000
0100
0010
1000
0100
,  // measure 40
0000
1010
0000
0101
0000
0001
0010
0100
,  // measure 41
2000
0000
3000
1001
0000
1000
0100
0010
,  // measure 42
0002
0000
0003
1001
0000
0001
0010
0100
,  // measure 43
1000
0000
0010
0001
0100
0000
0001
0000
,  // measure 44
1000
0010
0001
0010
0000
1000
0100
0001
,  // measure 45
1000
0001
0010
1100
,  // measure 46
0101
0000
0000
0000
0010
0000
0000
0000
0100
0000
0000
0001
0000
0000
0010
0000
,  // measure 47
0001
0000
1000
0100
0100
0000
1001
0000
,  // measure 48
0100
0000
0001
0010
0010
0000
1001
0000
,  // measure 49
0010
0000
0001
0000
0100
0000
0000
0010
0000
0000
1000
0000
0100
0000
1000
0000
,  // measure 50
0000
0001
0100
0010
0000
1000
0010
1000
,  // measure 51
0000
0001
0010
1000
0000
1000
0001
0100
,  // measure 52
0000
0001
1000
0001
0000
0010
0001
0100
,  // measure 53
0000
1000
0100
0001
0000
1000
0100
1000
,  // measure 54
0001
0010
0000
0010
0001
0000
1000
0100
0000
0100
1000
0000
0100
0000
1000
0000
,  // measure 55
0010
0000
0001
0000
0100
0000
0000
0010
0000
0000
1000
0000
0001
0000
1000
0000
,  // measure 56
0020
0000
0000
0000
0030
1001
0000
0010
,  // measure 57
0100
0001
0100
0010
0000
1000
0000
0002
,  // measure 58
0000
0000
0010
0000
0100
0100
0103
0000
,  // measure 59
0001
0100
0100
1000
0000
0011
0000
1000
,  // measure 60
0000
0001
0100
0000
1000
0001
0010
0001
,  // measure 61
0100
0000
1000
0100
0000
1001
0000
0001
,  // measure 62
0000
0010
0001
0010
0000
0100
1000
0010
,  // measure 63
0001
0000
0100
0001
0000
0010
1000
0010
,  // measure 64
0000
0100
0100
0000
0001
0010
0001
1000
,  // measure 65
0100
0000
1001
0000
0110
0010
0001
1000
,  // measure 66
0000
0011
0000
1100
0000
1000
0100
0010
,  // measure 67
0002
0000
0003
1001
0000
0001
0010
0100
,  // measure 68
2000
0000
3000
1001
0000
1000
0100
0010
,  // measure 69
0001
0000
0100
0000
1000
0010
0100
0011
,  // measure 70
0000
1010
0000
1001
0000
0000
0010
0100
,  // measure 71
0010
0000
0001
0100
1000
0000
0100
0000
,  // measure 72
1000
0000
0010
0001
1000
0000
0110
0000
,  // measure 73
1000
0000
0001
0010
0100
0000
1000
0000
,  // measure 74
0001
0000
1000
0100
0010
0000
0100
0000
,  // measure 75
0001
0100
0010
1000
0000
1001
0000
0110
,  // measure 76
0000
0000
2002
0000
0000
0000
0000
3003
;
