#TITLE:Spring Comes Around;
#SUBTITLE:;
#ARTIST:Sota Fujimori;
#TITLETRANSLIT:;
#SUBTITLETRANSLIT:;
#ARTISTTRANSLIT:;
#GENRE:;
#CREDIT:;
#MENUCOLOR:;
#NEWMETERSYSTEM:NO;
#BANNER:Spring Comes Around-bn.png;
#BACKGROUND:Spring Comes Around-bg.png;
#LYRICSPATH:;
#CDTITLE:MixMania CD Title.png;
#MUSIC:Spring Comes Around.mp3;
#OFFSET:-1.160;
#SAMPLESTART:53.100;
#SAMPLELENGTH:12.000;
#SELECTABLE:YES;
#LISTSORT:;
#BPMS:0.000=124.000;
#STOPS:;
#BGCHANGES:;
#ATTACKS:;

//---------------dance-single - ----------------
#NOTES:
     dance-single:
     :
     Easy:
     3:
     0.225,0.267,0.089,0.089,0.000:
0000
0000
0000
0000
,
0000
0000
0000
0000
,
0000
0000
0000
0000
,
1001
0000
0010
0001
,
0100
0000
0010
0000
,
1000
0000
0100
0001
,
1000
0000
0010
0000
,
0100
1000
0100
0001
,
0010
0000
0001
0000
,
0100
0000
0010
1000
,
0100
0000
1000
0000
,
0001
0000
0100
0001
,
0010
1000
0200
0000
,
1300
0010
0001
1000
,
0020
0000
0031
0100
,
0010
1000
0100
1001
,
0010
0001
0200
0000
,
0310
1000
0001
1000
,
0010
0100
1000
0001
,
1000
0100
0010
0001
,
1001
0000
0100
0010
,
0200
0000
2300
0000
,
3010
0001
0100
1000
,
0001
0001
1000
1100
,
1000
0010
0100
0001
,
1000
0100
1000
0001
,
0020
0000
0030
0000
,
0001
1000
1001
0000
,
0010
0010
0001
1000
,
0100
1000
0010
0000
,
0001
1000
0100
0010
,
1001
0000
1001
0000
,
0010
0100
0001
1000
,
0200
0000
0302
0000
,
0013
0001
0100
1000
,
0001
1000
1001
0000
,
0010
0001
0100
0010
,
1000
0000
0100
0000
,
1000
0010
0001
0100
,
0001
0000
0010
0000
,
0001
1000
0100
1000
,
0010
0000
0100
0000
,
1000
0001
1000
0001
,
0100
0100
0010
0000
,
0100
0000
1000
0000
,
0001
0000
0010
0001
,
1000
0000
0100
0000
,
1000
1000
0001
0001
,
0100
0000
0010
0000
,
0001
1000
0100
0000
,
0020
0030
0200
0300
,
0110
0110
0020
0030
,
0100
0010
0001
0000
,
0100
0000
1000
0001
,
0100
0000
1000
0000
,
0100
0010
0001
0000
,
0010
0000
0001
0000
,
1000
0001
1000
0000
,
0010
0000
0100
0000
,
0001
0100
1000
0001
,
0110
0000
0000
0000
;

//---------------dance-single - Copied from----------------
#NOTES:
     dance-single:
     Copied from:
     Beginner:
     1:
     0.100,0.145,0.032,0.024,0.000:
0000
0000
0000
0000
,
0000
0000
0000
0000
,
0000
0000
0000
0000
,
0000
0000
0000
0000
,
1001
0000
0000
0000
,
1000
0000
0001
0000
,
0010
0000
0000
0000
,
0000
0000
0000
0010
,
0010
0000
0000
0000
,
0100
0000
0100
0000
,
1000
0000
0100
0000
,
0001
0000
0000
0000
,
0010
0000
0000
0000
,
0100
0000
1000
0000
,
0100
0000
0000
0000
,
0001
0000
0010
0000
,
0000
0000
0001
0000
,
0100
0000
1000
0000
,
0010
0000
0000
0000
,
0001
0000
0000
0100
,
0100
0000
1000
0000
,
1000
0000
0010
0000
,
0001
0000
0000
0000
,
1001
0000
1001
0000
,
0010
0000
0000
0000
,
0001
0000
1000
0000
,
0001
0000
0000
0000
,
0020
0000
0030
0000
,
0100
0000
0000
0000
,
0010
0000
0000
0000
,
0001
0000
0000
0000
,
1000
0000
0000
0000
,
1000
0000
0000
0000
,
0100
0000
0000
0000
,
0001
0000
0000
0000
,
0010
0000
0000
0000
,
1000
0000
0001
0000
,
0010
0000
0100
0000
,
0001
0000
1000
0000
,
0100
0000
0000
0000
,
0010
0000
1000
0000
,
0001
0000
0100
0000
,
0010
0000
0001
0000
,
0100
0000
1000
0000
,
0100
0000
0000
0000
,
0010
0000
0000
0001
,
0001
0000
0000
0000
,
1000
0000
0100
0000
,
0010
0000
0000
0000
,
0010
0000
0100
0000
,
0001
0000
0000
0000
,
1000
0000
2002
3003
,
0000
0010
0000
0000
,
0100
0000
0000
0000
,
0010
0000
0000
0000
,
1000
0000
0000
0000
,
0010
0000
0000
0000
,
0001
0000
0000
0000
,
0100
0000
0000
0000
,
0100
0000
0001
0000
,
0010
0000
0000
0000
;

//---------------dance-single - Copied from----------------
#NOTES:
     dance-single:
     Copied from:
     Medium:
     6:
     0.327,0.292,0.057,0.032,0.004:
0000
0000
0000
0000
,
0000
0000
0000
0000
,
0000
0000
0000
0000
,
0001
0000
1000
0000
0100
0010
0200
0000
,
0301
0000
1000
0000
0100
0000
0010
0001
,
1000
0000
1000
0010
0100
0000
0010
0001
,
0010
0100
0001
1000
,
0100
0000
1000
0000
0010
0001
0010
0001
,
0100
0000
1000
0000
0001
0000
0100
0001
,
0010
0000
0100
1000
0010
0000
0100
0010
,
0100
0000
1000
0100
0001
0000
0001
0100
,
1000
0000
0010
0000
0001
0000
1000
0100
,
0001
0000
0100
0000
0001
0000
0010
0001
,
0100
0000
0010
1000
0100
0000
1000
0000
,
0001
0001
1000
0010
,
1000
0000
0100
0000
1000
0000
0000
0001
0000
0000
0010
0000
0000
0000
0000
0000
,
0001
0000
0100
0000
1000
0000
0100
1000
,
0010
0000
0001
0000
0100
0000
0010
1000
,
0001
0100
0010
1000
,
0001
0010
0001
0100
0010
0000
1000
0000
,
1100
0000
1000
0000
0001
0100
0010
0000
,
1000
0000
0100
0001
0000
0000
0010
0000
,
0001
0000
0100
0001
0010
0000
0100
1000
,
0000
1000
0000
0100
0000
0010
0000
0002
,
0000
1000
0000
0103
0000
1000
0100
1000
,
0000
0010
0000
0001
0000
0100
0010
0100
,
0000
0000
1000
0000
0100
0000
0001
0010
,
0000
0011
0000
0101
0000
0000
1000
0001
,
0000
0100
0010
0000
1000
0000
0001
0100
,
0000
0010
1000
0100
0000
1000
0000
0100
,
0000
0010
0001
0000
0100
0000
0001
1000
,
0000
0100
0000
0010
0000
0001
0000
1001
,
0000
0000
0100
0000
0010
1000
0001
0100
,
0000
0010
0000
0001
0000
1000
0000
0100
,
1000
0000
0010
0000
0001
0000
0100
0001
,
0000
0000
0010
1000
0001
0000
0100
1000
,
0000
0010
1000
0000
0100
0000
1000
0100
,
0000
0100
0000
0010
0000
0100
0000
0001
,
0000
1000
0010
1000
0100
0000
1000
0100
,
0000
0010
0000
0100
0000
0010
0000
1001
,
0000
0000
1000
0000
0001
0000
0100
0010
,
0000
1000
0000
0001
0000
0010
0000
0100
,
0001
0000
0010
0000
1000
0000
0001
0100
,
0000
0000
1000
0010
0000
0000
1000
0000
,
0100
0000
1000
0000
0100
0000
0001
0010
,
0000
0001
0000
1000
0000
0001
0100
0010
,
1000
0000
0010
0000
0100
0000
1000
0100
,
0000
0100
1000
0010
0000
0001
0100
0001
,
0000
0010
0000
0100
0000
0000
0001
1000
,
0000
0100
0000
1000
0000
0000
0100
0000
,
1000
0000
0010
0000
0100
0000
0001
1000
,
0000
0010
0000
0100
1000
0000
0110
0000
,
0001
1000
0100
0001
,
0010
0001
1000
0100
,
1000
0001
0100
0010
,
0001
0000
0100
0000
0001
0010
0100
1000
,
0001
0100
1000
0010
,
0100
0000
0001
0000
0010
1000
0100
0000
,
1000
0100
0001
0100
,
0001
0000
0100
1000
0010
0001
0100
0000
,
2200
3300
0000
0000
;

//---------------dance-single - Copied from Copied f----------------
#NOTES:
     dance-single:
     Copied from Copied f:
     Hard:
     7:
     0.369,0.365,0.113,0.016,0.016:
0000
0000
0000
0000
,
0000
0000
0000
0000
,
0000
0000
0000
0000
,
1000
0001
1000
0001
0010
0001
0011
0000
,
0001
0000
0100
0000
1000
0000
0010
1000
,
0100
0000
0100
0001
0010
0000
0010
0001
,
1000
0000
0100
0000
1000
0000
0010
1000
,
0000
1000
0100
1000
0000
1000
0010
0001
,
0100
0000
0001
0000
0010
0000
0001
0010
,
0100
0000
0100
1000
0010
0000
0100
0001
,
0010
0000
0001
0100
1000
0000
1000
0100
,
1000
0000
0010
0000
0100
0001
1000
0000
,
1001
0000
0000
0000
0100
0000
0000
1000
0000
0000
0100
0000
0000
0000
0100
0000
,
1000
0000
0100
0000
0010
0000
0000
0001
0000
0000
0100
0000
0001
0000
0100
0000
,
0010
1000
0100
1000
,
0001
0000
0010
0000
1000
0000
0000
0010
0000
0000
0100
0000
0000
0000
0000
0000
,
1000
0000
0001
0100
0001
0010
0000
0100
,
1000
0000
0100
0000
0001
0000
0000
0010
0000
0000
0000
0000
0000
0000
0100
0000
,
1000
0001
0010
0001
,
1000
0001
0100
0001
0010
1000
0001
0101
,
1001
0000
0100
1000
0010
0000
0100
0000
,
0001
0000
1000
0100
0000
1000
0010
0001
,
0100
0000
0001
0000
1000
0000
0001
1000
,
0000
1000
0010
0001
0000
0100
0000
1001
,
0000
0100
1000
0010
0000
0100
0001
1000
,
0000
0010
0000
1000
0000
0010
0000
0001
,
0000
0000
0100
0000
0010
1000
0100
0001
,
0000
1001
0000
1010
0000
0010
0100
1000
,
0000
0100
1000
0010
0001
1000
0000
0001
,
0000
0100
1000
0100
0000
1001
0000
0010
,
0000
1000
0100
0001
0010
0000
0001
0100
,
0000
0001
0000
1000
0000
0100
0000
1010
,
0000
0100
1000
0000
0100
0001
0010
0001
,
0000
0100
0000
0010
0000
1000
0000
0100
,
0001
0000
0100
0000
1000
0010
0100
0001
,
0000
0000
0100
0001
0010
0100
0010
0100
,
0000
1000
0100
0000
0001
0000
0100
0001
,
0000
0001
0010
1000
0000
1010
0000
0100
,
0000
0001
1000
0100
0001
0000
0010
0001
,
0000
0100
0000
0010
0000
1000
0000
1100
,
0000
1000
0001
0000
0100
0010
1000
0100
,
0000
0001
0000
0010
0000
0001
0000
0001
,
0010
0000
0100
0000
1000
0100
1000
0001
,
0000
0000
0010
1000
0000
0000
0100
0000
,
1000
0000
0100
0000
1000
0000
0001
0010
,
0000
0010
0001
1000
0000
0100
1000
0010
,
0100
0000
0001
0000
1000
0000
0100
0001
,
0010
0000
0010
0001
0100
0000
0100
1000
,
0010
0000
1000
0000
0100
0000
1000
0001
,
0000
0010
0001
1000
0000
0000
0010
0000
,
0100
0000
0001
0000
0010
0000
1000
0100
,
0000
0001
0000
1000
0010
0000
1001
0000
,
0100
0001
0010
0000
0001
0000
1000
0010
,
0000
1000
0100
1000
0000
0010
1000
0100
,
0001
0000
0100
0000
0001
0010
0001
0100
,
0000
0100
1000
0010
0000
1000
0100
0010
,
0001
0000
0001
0000
0100
0001
0010
1000
,
0000
0100
0000
0001
0000
0010
0001
0100
,
0001
0000
0100
0000
0010
0000
1000
0100
,
0001
0000
0100
1000
0010
0000
1100
0000
,
0220
0330
0000
0000
;

//---------------dance-single - Copied from Copied f----------------
#NOTES:
     dance-single:
     Copied from Copied f:
     Challenge:
     8:
     0.465,0.439,0.283,0.048,0.093: // measure 1
0000
0000
0000
0000
,  // measure 2
0000
0000
0000
0000
,  // measure 3
0000
0000
0000
0000
,  // measure 4
1000
0000
0001
0100
0001
0000
1000
0000
0010
0000
0100
0000
1001
0000
0000
0000
,  // measure 5
0100
0000
0000
0000
1000
0000
0001
0000
0100
0000
0000
0000
0010
0000
0001
0010
,  // measure 6
0001
0000
0000
0000
1000
0000
0100
1000
0100
0000
0000
0000
0010
0000
0100
0001
,  // measure 7
0100
0000
1000
0000
0100
0000
0010
0001
,  // measure 8
0000
0100
0001
1000
0010
1000
0100
1000
,  // measure 9
1010
0000
0000
0000
0100
0000
0000
0000
1000
0000
0000
0000
0010
0000
0001
0100
,  // measure 10
0001
0000
0000
0000
1000
0000
0100
0010
0100
0000
0000
0000
0010
0000
1000
0001
,  // measure 11
1000
0000
0000
0000
0010
0000
0001
1000
0001
0000
0000
0000
0010
0000
0100
1000
,  // measure 12
0100
0000
0100
0000
0010
0001
0100
0010
,  // measure 13
1100
0000
0000
0000
0001
0000
0100
1000
0000
0000
0100
0000
0000
0000
0100
0000
,  // measure 14
0001
0000
1000
0000
0100
0010
0000
0100
0000
0000
0000
0000
1000
0000
0001
0010
,  // measure 15
0100
1000
0010
0001
0010
0100
1000
0001
,  // measure 16
0100
0000
0010
0000
0100
1000
0000
0001
0000
0000
1001
0000
0000
0000
0010
0000
,  // measure 17
0100
0000
1000
0000
0001
0000
0100
0010
0000
0000
0001
0000
0000
0000
1000
0000
,  // measure 18
0100
0000
1000
0000
0100
1000
0000
0001
0000
0000
0010
0000
1000
0000
0100
1000
,  // measure 19
0010
0100
0001
0010
0100
0000
1000
0000
,  // measure 20
1000
0001
0010
0100
0001
0010
0100
1100
,  // measure 21
1001
0000
0100
0010
0100
0001
0100
1000
,  // measure 22
0200
0000
0310
0002
0000
1000
0103
0100
,  // measure 23
0010
1000
0001
0100
0010
0000
0001
0100
,  // measure 24
0000
0010
1000
0100
0000
0110
0000
0011
,  // measure 25
0000
1000
0001
0010
0000
0001
1000
0100
,  // measure 26
0000
1000
0000
0010
0000
0001
0100
0010
,  // measure 27
0100
0000
0100
0000
1000
0001
0100
0011
,  // measure 28
0000
0110
0001
1100
0000
0010
0010
1001
,  // measure 29
0000
0100
1000
0100
0010
0001
0000
1001
,  // measure 30
0000
0010
0100
0001
0000
0010
0000
1001
,  // measure 31
0000
0100
1000
0100
0010
0000
0001
1001
,  // measure 32
0000
0010
0000
1001
0000
0100
0000
1001
,  // measure 33
0000
0100
0010
0000
0001
0100
1000
1001
,  // measure 34
0000
0010
0000
1000
0000
0010
0000
0001
,  // measure 35
1001
0000
0100
0000
1000
0100
0010
1001
,  // measure 36
0000
0000
0010
0010
1000
0100
0001
0110
,  // measure 37
0000
1000
0001
1000
0001
0010
0000
0110
,  // measure 38
0000
0010
1000
0010
0000
0100
0000
0110
,  // measure 39
0000
0001
0010
0100
1000
0000
0001
0110
,  // measure 40
0000
0001
0000
1000
0000
0001
0000
0110
,  // measure 41
0000
0010
0001
0000
1000
0001
1000
0110
,  // measure 42
0000
1000
0000
0100
0000
0001
0000
1000
,  // measure 43
0110
0000
0100
0000
1000
0100
0010
0100
,  // measure 44
0000
0000
0100
0010
0001
0100
0010
1000
,  // measure 45
1100
0000
0100
0000
0001
0010
0001
0101
,  // measure 46
0000
0010
1000
1100
0000
1000
0010
0100
,  // measure 47
0001
0000
0000
0000
0010
0000
0000
0000
0001
0000
0100
0000
0010
0000
1000
0100
,  // measure 48
1000
0000
0010
0000
0100
0000
0001
0010
0001
0000
0100
0000
0010
0000
0100
0010
,  // measure 49
0100
1000
0100
0001
0000
0100
0001
0010
,  // measure 50
0000
1000
0100
1000
0010
0001
0100
0001
,  // measure 51
0000
0001
0010
0100
0000
1000
0100
1100
,  // measure 52
0000
0000
1010
0000
0000
0001
0100
0000
0101
0000
0000
0000
1001
0000
0000
0000
,  // measure 53
0100
1000
0100
0001
0010
0000
0001
0100
,  // measure 54
0000
0010
1000
0100
0000
1000
0001
0100
,  // measure 55
0010
0000
0001
0000
1000
0100
0001
0100
,  // measure 56
0000
1000
0010
0100
0000
0001
0010
0100
,  // measure 57
1000
0000
0001
0000
1000
0100
0001
0010
,  // measure 58
0000
0010
0100
0001
0000
0001
0010
0100
,  // measure 59
1000
0100
1000
0010
0100
0001
0010
0100
,  // measure 60
0002
0000
1003
0010
0200
0000
0310
0010
,  // measure 61
2002
0000
0000
3003
0000
0000
0000
0000
;
