#TITLE:Second Heaven;
#SUBTITLE:;
#ARTIST:Ryu*;
#TITLETRANSLIT:;
#SUBTITLETRANSLIT:;
#ARTISTTRANSLIT:;
#GENRE:;
#CREDIT:;
#MENUCOLOR:;
#NEWMETERSYSTEM:NO;
#BANNER:Second Heaven-bn.png;
#BACKGROUND:Second Heaven-bg.png;
#LYRICSPATH:;
#CDTITLE:MixMania CD Title.png;
#MUSIC:Second Heaven.mp3;
#OFFSET:0.980;
#SAMPLESTART:52.160;
#SAMPLELENGTH:11.960;
#SELECTABLE:YES;
#LISTSORT:;
#BPMS:0.000=149.000;
#STOPS:;
#BGCHANGES:;
#ATTACKS:;

//---------------dance-single - ----------------
#NOTES:
     dance-single:
     :
     Easy:
     3:
     0.294,0.419,0.195,0.161,0.000:
0000
0000
0000
0000
,
0010
0010
0000
0000
0000
0000
0000
0000
,
1000
0100
0001
0100
,
1000
0010
0002
0003
,
0010
0001
0100
0010
,
1000
0100
2000
3000
,
0100
0000
0010
0000
,
0100
0000
0010
0000
,
0001
0000
1000
0000
,
0010
0001
0000
0010
,
2002
0000
0000
0000
,
0000
0000
0000
3003
,
0010
0100
0000
0001
,
0000
0010
0001
0100
,
1000
0000
0100
0000
,
0010
0001
0010
0000
,
0100
0001
0010
0000
,
1000
0100
1000
0000
,
0010
0000
0100
0001
,
0010
0001
0100
0000
,
1000
1000
0100
0100
,
0001
0001
0010
0001
,
0010
0010
0001
0001
,
0100
1000
0100
0000
,
1001
0000
0000
0000
,
0110
0000
0000
0000
,
0110
0000
1001
0000
,
0110
0110
1001
0110
,
2002
0000
0000
3003
,
0100
1000
0010
0100
,
0001
0010
0100
0100
,
1000
0010
0100
0001
,
0020
0100
2030
0000
,
3100
0100
0001
0010
,
0001
0100
0010
0010
,
0001
1000
0100
0010
,
0002
0100
0023
0000
,
0031
0100
0001
0000
,
1000
0100
1000
0000
,
0010
0100
0001
0000
,
1000
0000
0100
0000
,
0010
1000
0100
0000
,
0010
0001
0100
0000
,
0010
0000
0100
0000
,
2002
0000
3003
0000
,
0010
0100
0010
0100
,
1000
0100
0001
0000
,
0010
0100
0010
0100
,
0001
0100
1000
0000
,
0011
0000
0000
0000
,
1100
0000
0000
0000
,
0011
0000
1010
0000
,
1100
0101
0000
0100
,
0010
0010
1000
0100
,
0001
0010
0001
0000
,
0100
0001
1000
0010
,
1000
0100
1000
0000
,
0100
0100
0010
0000
,
0010
0010
0001
0000
,
1000
0100
0001
0100
,
1000
0010
0200
0300
,
1001
0000
0000
0000
,
0020
0000
0030
0000
,
0001
0100
1000
0100
,
0010
0100
1001
1001
,
0010
0001
0100
1000
,
0100
0010
1001
0000
,
0100
1000
2002
3003
,
0001
2002
3003
1000
,
0010
0001
0100
1000
,
0010
1000
0002
0003
;

//---------------dance-single - Copied from----------------
#NOTES:
     dance-single:
     Copied from:
     Medium:
     6:
     0.429,0.481,0.245,0.051,0.000:
0000
0000
0000
0000
,
1000
1000
0000
0000
0000
0000
0000
0000
,
0100
0001
0010
0001
,
1000
0000
0100
0000
0001
0010
0001
0000
,
0100
1000
0010
0100
,
0001
0000
1000
0000
0100
1000
0010
0000
,
1001
0000
0100
0100
,
0110
0000
1000
0001
,
0011
0000
0101
0000
,
1010
1010
0000
0000
0100
0000
1000
0000
,
0020
0000
0000
0000
,
0000
0000
0000
1030
,
0100
0001
1000
0000
0100
0000
0001
0000
,
0100
0010
0001
0000
1010
0000
1100
0000
,
0001
0100
0010
0000
1000
0000
0001
0000
,
1000
0100
0010
0001
0100
0000
1001
0000
,
0010
0001
0101
0010
,
0000
1000
1100
0001
,
0010
0010
0101
0010
,
0000
1000
1100
0000
,
0010
0100
0001
0000
0100
1000
0010
0000
,
0100
0001
0010
0000
0100
0001
0100
0000
,
1000
0100
0010
0000
1000
0001
0010
0100
,
0010
0001
0100
0010
,
1001
0000
0010
0001
,
0011
0000
0010
0001
,
1100
0010
0101
0001
,
1001
0110
1001
0110
,
2002
0000
0000
3003
,
0010
0100
0001
0100
1000
0000
0100
0000
,
0010
0000
1000
0000
0100
0010
0001
0000
,
0010
1000
0100
0001
0100
0000
1000
0000
,
0100
0000
0100
0001
0010
0000
0001
0000
,
0100
1000
0001
0100
0001
0000
0100
0000
,
0010
0000
1000
0000
0001
0010
0001
0000
,
0100
0001
1000
0010
0100
0000
1000
0000
,
0100
0000
0010
0001
0100
0000
0001
0000
,
1000
0000
0001
1000
0000
0010
0001
0100
,
0000
0100
1000
0000
0010
0000
0100
0001
,
0000
0010
1000
0100
0000
0010
0001
0000
,
0100
0001
0100
0000
1000
0000
0010
0001
,
0000
0010
1000
0010
0000
0100
0001
0000
,
0010
0000
0100
0001
0010
0000
0100
1000
,
0000
0010
0100
0010
0000
1000
0100
0000
,
0001
0000
0010
0100
1000
0000
0001
0000
,
0010
1000
0000
1000
0000
0001
0000
0100
,
0000
0010
0000
1000
0000
0110
0000
0110
,
0000
0001
0000
1000
0000
0010
0000
0001
,
0000
0100
0000
0001
0000
1001
0000
1000
,
0010
0010
0000
0100
0000
0001
0000
1000
,
0001
0001
0000
0100
0000
0001
0000
0010
,
1000
1000
0000
0100
0001
0001
0000
0010
,
0100
0100
0010
0020
0000
0000
0030
0000
,
1100
0000
0100
0001
0010
0000
0001
0000
,
1000
0000
0010
1000
0100
0000
1000
0000
,
0100
0000
0001
0010
0001
0000
0100
0000
,
0010
1000
0100
0000
1001
0000
0010
0000
,
0001
0000
0100
0010
1000
0000
0100
0000
,
0001
0000
0100
0010
1000
0000
0100
0000
,
1000
0001
1000
0001
,
0100
0010
0100
0010
0200
0000
0020
0000
,
0330
0000
0000
0000
,
1000
0001
1000
0001
0000
0000
0000
0000
,
0001
0000
1000
0100
1000
0000
0010
0000
,
0001
0000
0100
0000
0001
0010
0001
1000
,
0001
1000
0100
0010
,
1000
0100
1000
0001
0100
0000
1001
0000
,
0010
0001
0000
0010
0001
0010
0001
0000
,
1000
0100
0000
1000
0100
1000
0100
0000
,
0001
0100
0000
0001
0100
0001
0100
0001
,
0010
0000
1000
0001
0100
0000
1000
0000
,
1010
0000
0000
0000
;

//---------------dance-single - Copied from----------------
#NOTES:
     dance-single:
     Copied from:
     Beginner:
     2:
     0.185,0.239,0.093,0.000,0.000:
0000
0000
0000
0000
,
1000
0000
0000
0000
,
0001
0000
0000
0000
,
0100
0000
1000
0000
,
0010
0000
0000
0000
,
0100
0000
0001
0000
,
0010
0000
0000
0000
,
0100
0000
0000
0000
,
0001
0000
1000
0000
,
0010
0000
0000
0000
,
1001
0000
0000
0000
,
0000
0000
0000
0000
,
1000
1000
0000
0001
,
0000
0010
0010
0010
,
0010
0000
0100
0000
,
0001
0001
0001
0000
,
1000
1000
0000
0001
,
0000
0100
0100
0100
,
0100
0000
0001
0000
,
0010
0010
0010
0000
,
1001
0000
0000
0000
,
0000
0000
0000
0000
,
1001
0000
0000
0000
,
0010
0010
0000
0000
,
1000
0000
0000
0000
,
0100
0000
0000
0000
,
0010
0000
0001
0000
,
0001
0001
0001
0001
,
0001
0000
0000
0000
,
1000
0000
0100
0000
,
1000
0000
0010
0010
,
0010
0000
0001
0000
,
0100
0000
1000
0000
,
1000
0000
0010
0000
,
0001
0000
1000
1000
,
1000
0000
0100
0000
,
0010
0000
0001
0000
,
0010
0000
0010
0000
,
0100
0000
0001
0000
,
0010
0000
1000
0000
,
0100
0000
0000
0000
,
1000
1000
1000
0000
,
0001
0000
0010
0000
,
0001
0001
0001
0000
,
0100
0000
0010
0000
,
1001
0000
0100
0000
,
0010
0000
0100
0000
,
1001
0000
0010
0000
,
0100
0000
0010
0000
,
1100
0000
0000
0000
,
1100
0000
0000
0000
,
0011
0000
0110
0000
,
1001
1001
0000
0000
,
0100
0100
0100
0000
,
1000
0000
0001
0000
,
1000
1000
1000
0000
,
0010
0000
0100
0000
,
0001
0001
0001
0000
,
0010
0010
0010
0000
,
0100
0000
1000
0000
,
0100
0100
0100
0100
,
0000
0000
0000
0000
,
0010
0010
0000
0000
,
0001
0000
1000
0000
,
0010
0000
0001
0001
,
0001
0000
0100
0000
,
0010
0010
0010
0000
,
1000
1000
1000
0000
,
0100
0100
0100
0000
,
0010
0000
0001
0000
,
0010
0010
0010
0000
;

//---------------dance-single - Copied from----------------
#NOTES:
     dance-single:
     Copied from:
     Hard:
     8:
     0.496,0.481,0.144,0.017,0.042:
0000
0000
0000
0000
,
1001
1001
0000
0000
0000
0000
0000
0000
,
0010
0001
0000
0100
0000
0001
0000
1000
,
0000
0010
0000
1000
0000
0100
0000
0100
,
0000
0001
0000
1000
0000
0010
0000
0001
,
0000
0100
0000
0001
0000
1000
0000
0100
,
1000
0100
0000
0100
0000
0010
0000
0001
,
0010
0001
0000
0100
0000
0001
0000
1000
,
0100
1000
0000
0001
0100
0001
0000
1000
,
0010
0010
0000
0100
0000
0001
0000
1000
,
2200
0000
0000
0000
,
0000
0000
0000
3300
,
0100
0001
0010
0001
0000
0100
0001
1000
,
0000
0100
1000
0010
0100
0001
0010
0001
,
0100
1000
0010
0100
0000
1000
0100
0001
,
0010
0001
0100
0010
0100
0000
0001
0000
,
1000
0100
0001
0010
0001
0000
0100
0000
,
0001
0010
1000
0100
1000
0000
0010
0000
,
0100
0001
0010
0001
0100
0000
0010
1000
,
0000
0100
1000
0010
0001
0000
0100
0000
,
0001
0010
0100
1000
0000
1000
0100
0010
,
0000
0010
0001
0100
0001
1000
0010
1000
,
0100
1000
0010
0100
0000
0001
0010
0100
,
0001
1000
0100
1000
0010
0000
0100
0000
,
0001
0000
0000
0000
1000
0000
0100
1000
,
0010
0000
0000
0000
0100
0000
0100
0001
,
0010
0000
0010
0001
0100
0000
0100
1000
,
0010
1000
0100
0010
0001
0010
0001
0100
,
1000
0000
0000
0000
,
1000
0100
1000
0010
0001
0000
0100
0000
,
0001
0000
0010
0100
0001
0010
0100
0000
,
1000
0000
0100
1000
0010
0000
0100
0000
,
0001
0010
0100
0001
1000
0000
0100
0000
,
0010
0000
1000
0100
1000
0000
0010
0000
,
0100
0000
0001
0000
0100
1000
0100
0010
,
0001
0000
0100
0001
0010
0000
0100
0000
,
1000
0010
1000
0100
0001
0000
0100
0000
,
0001
1000
0100
1000
0000
0010
0100
0001
,
0000
0010
0100
1000
0100
1000
0001
0100
,
0001
0010
0100
1000
0000
0100
0001
0100
,
1000
0100
0010
0100
1000
0000
0110
0000
,
0001
1000
0001
0010
0000
0001
1000
0010
,
0000
0100
0010
0001
0100
0010
1000
0100
,
0000
1000
0010
0001
0000
0010
0100
1000
,
0001
0010
0100
0001
0010
0000
1001
0000
,
0100
0000
1000
0000
0000
0000
0001
0000
0000
0000
0010
0001
0000
0000
0010
0001
,
0000
0100
1000
0100
0000
0010
0000
0010
,
0001
0000
0100
0000
0000
0000
0010
0000
0000
0000
0100
1000
0000
0000
0100
1000
,
0000
0010
0100
0001
0000
0100
0000
0010
,
1001
0100
0000
0010
0000
0100
0000
0010
,
1001
0100
0000
0010
0000
0100
0000
0010
,
0011
0001
0000
0100
1100
1000
0000
0010
,
1001
0100
1001
0010
0000
0100
0100
0010
,
1000
0100
1000
0000
0100
0000
0001
0010
,
0001
0000
0100
0000
0001
0010
0100
0001
,
1000
0000
0100
0010
1000
0000
0100
0000
,
0001
1000
0100
0010
0100
0000
0001
0000
,
1000
0000
0100
1000
0100
0000
0010
0000
,
1000
0000
0100
1000
0100
0000
0010
0000
,
0001
1000
0100
0010
,
0001
0000
1000
0000
0001
0000
1000
0000
0010
0000
0100
0000
0010
0100
0010
0100
,
0000
0000
0000
0000
,
0001
1000
0001
1000
0001
1000
0001
1000
0000
0000
0000
0000
0000
0000
0000
0000
,
0110
0000
0001
0100
1000
0000
0010
0000
,
0110
0000
1000
0100
0001
0100
1000
0000
,
0110
0000
0001
0100
1000
0000
0001
0000
,
0110
0000
1000
0100
0010
0000
1001
0000
,
0100
0001
0000
0010
0001
0100
1000
0000
,
0010
0001
1000
0100
0001
0100
1000
0000
,
1001
0000
0001
1000
0100
0001
0100
0000
,
0100
1000
0001
1000
0100
1000
0001
0010
,
0001
0000
0000
0000
;

//---------------dance-single - Copied from Copied f----------------
#NOTES:
     dance-single:
     Copied from Copied f:
     Challenge:
     10:
     0.698,0.721,0.432,0.034,0.262: // measure 1
0000
0000
0000
0000
,  // measure 2
1100
0011
0000
0000
0000
0000
0000
0000
,  // measure 3
0001
0000
0100
0000
0001
0000
0100
0000
1000
0000
0100
1000
0000
0000
0100
0010
,  // measure 4
0000
0001
0100
0010
1000
0101
0000
1010
,  // measure 5
0100
0000
0001
0000
0100
0000
0010
0000
1000
0000
0010
0001
0000
0000
0010
1000
,  // measure 6
0000
0100
0010
0100
1000
0110
0000
1001
,  // measure 7
0110
0110
0000
0001
0000
1000
0100
0010
,  // measure 8
0011
0011
0000
0001
0000
1000
0000
0100
,  // measure 9
1100
0110
0000
0010
0011
0101
0000
0010
,  // measure 10
1100
0110
0011
1001
0000
0100
0000
0010
,  // measure 11
2002
0000
0000
0000
,  // measure 12
0000
0000
0000
3003
,  // measure 13
0011
1000
0100
0010
0000
0001
0100
0010
,  // measure 14
0000
1000
0100
0001
0010
0100
0001
0100
,  // measure 15
1000
0100
0010
1000
0000
0001
0100
0010
,  // measure 16
0100
1000
0010
0100
0001
1000
0100
0010
,  // measure 17
0101
0000
0010
1000
1100
0000
0110
0000
,  // measure 18
0001
0000
0110
0000
0101
0000
0110
1000
,  // measure 19
1100
0000
1000
0001
0101
0000
1001
0000
,  // measure 20
0010
0000
0101
0000
1010
0000
1001
0100
,  // measure 21
1010
0100
0010
0001
0000
0010
0100
1000
,  // measure 22
0000
0100
0010
0100
0001
1000
0100
1000
,  // measure 23
0010
0100
0001
0100
0000
0010
1000
0100
,  // measure 24
0010
0001
0010
1000
0100
0001
0010
0001
,  // measure 25
0100
1000
0100
0010
0000
0001
0010
0100
,  // measure 26
0000
0100
1000
0100
0010
1000
0010
0100
,  // measure 27
0001
0010
0001
0100
0000
0010
1000
0100
,  // measure 28
0001
0010
0100
0010
1000
0000
0001
0000
,  // measure 29
0220
0000
0000
0330
,  // measure 30
1000
0000
0001
0010
0001
0000
0100
0000
1000
0000
0010
0000
0100
0000
0001
0000
,  // measure 31
1000
0000
0100
1000
0100
0000
0010
0000
0100
0000
0001
0000
1000
0000
0100
0000
,  // measure 32
0010
0000
0001
1000
0001
0000
0100
0000
0010
0000
1000
0000
0100
0000
1000
0000
,  // measure 33
0010
0001
0010
0100
1000
0000
0010
0000
,  // measure 34
0100
0000
0010
0100
1000
0000
0001
0000
0010
0000
0001
0000
0100
0000
0010
0000
,  // measure 35
1000
0000
0100
1000
0001
0000
0010
0000
0100
0000
0001
0000
1000
0000
0100
0000
,  // measure 36
0010
0000
0010
1000
0001
0000
0010
0000
0100
0000
0001
0000
1000
0000
0100
0000
,  // measure 37
1000
0100
0010
0001
1000
0000
0010
0000
,  // measure 38
1001
0000
0010
0000
0100
0000
0010
0001
1000
0000
0100
0000
0001
0000
0010
0100
,  // measure 39
0001
0000
0100
0000
0010
0000
1000
0001
0100
0000
0010
0000
0100
0000
0001
1000
,  // measure 40
0010
0000
1000
0000
0001
0000
0100
1000
0010
0000
1000
0000
0100
0000
1000
0010
,  // measure 41
0001
0000
0010
0000
0001
0000
0100
0000
0010
0000
1000
0000
0100
0000
0001
1000
,  // measure 42
0100
0000
1000
0000
0010
0000
0100
0010
0001
0000
0010
0000
0100
0000
1000
0100
,  // measure 43
0010
0000
0100
0000
0001
0000
1000
0000
0100
0010
1000
0000
0010
0000
0100
0000
,  // measure 44
1000
0000
0001
0000
1000
0000
0010
0001
1000
0000
0100
0000
0010
0000
0001
0010
,  // measure 45
0100
0010
0100
0010
0001
1000
0100
0010
,  // measure 46
0010
0000
0001
0000
1000
0000
0001
0000
1000
0000
0001
0010
0000
0000
0001
0100
,  // measure 47
0000
0000
0010
0000
1000
0000
1000
0000
0001
0000
0100
0000
0010
0000
0100
1000
,  // measure 48
0001
0000
1000
0000
0001
0000
1000
0000
0001
0000
1000
0100
0000
0000
1000
0010
,  // measure 49
0000
1000
0100
0010
0001
0100
0000
0010
,  // measure 50
0101
0011
0000
0100
0000
0010
0000
0100
,  // measure 51
1010
1100
0000
0010
0000
0001
0000
1000
,  // measure 52
0110
0011
0000
0001
0110
1100
0000
0010
,  // measure 53
1001
0100
1001
0010
0000
0100
0000
0100
,  // measure 54
1000
0000
0001
0010
0001
0000
0100
0000
0010
0000
1000
0000
0100
0000
1000
0001
,  // measure 55
0010
0000
1000
0100
1000
0000
0010
0000
0100
0000
0001
0000
0010
0000
0001
0000
,  // measure 56
0100
0000
0010
0100
0010
0000
1000
0000
0001
0000
1000
0000
0010
0000
0001
1000
,  // measure 57
0001
1000
0100
0001
1000
0000
0010
0000
,  // measure 58
0100
0000
0010
1000
0100
0000
0001
0000
0010
0000
0001
0000
1000
0000
0100
0000
,  // measure 59
1000
0000
0010
0100
0001
0000
0010
0000
1000
0000
0100
0000
1000
0000
0010
0000
,  // measure 60
1000
0000
0100
1000
0100
0000
0001
0010
0001
0000
0010
0100
0010
0000
0100
1000
,  // measure 61
0100
0000
0100
0000
0010
0000
0010
0000
0001
0010
0001
0010
0100
0010
0100
0010
,  // measure 62
0100
0000
0000
0000
,  // measure 63
1000
0100
0010
0001
1000
0100
0010
0001
0000
0000
0000
0000
0100
0000
0000
0000
,  // measure 64
1001
0000
0010
0001
0010
0001
0100
0010
1000
0000
0100
0000
1000
0000
0010
0100
,  // measure 65
0001
0000
0010
0100
0001
1000
0100
0010
1000
0000
0010
0000
0001
0000
0010
0000
,  // measure 66
0100
0000
0010
1000
0100
1000
0010
0100
1000
0000
0010
0000
0100
0000
0001
0100
,  // measure 67
0010
0001
1000
0100
0010
0000
0001
0000
,  // measure 68
0110
0000
1001
0000
0000
0000
0100
0010
0100
0000
0001
0000
1000
0000
0100
0000
,  // measure 69
0110
0000
0101
0000
0010
1000
0100
1000
0010
0000
0001
0000
0010
0000
0100
0000
,  // measure 70
1000
0000
0001
0010
0100
1000
0100
0000
0010
0000
0001
0000
0100
0000
0000
0000
,  // measure 71
0010
0100
0001
1000
1100
0010
0001
0010
,  // measure 72
0010
0000
0000
0000
;
