#TITLE:SPICY PIECE;
#SUBTITLE:(Ryu* Remix);
#ARTIST:remixed by Ryu*;
#TITLETRANSLIT:;
#SUBTITLETRANSLIT:;
#ARTISTTRANSLIT:;
#GENRE:;
#CREDIT:;
#MENUCOLOR:;
#NEWMETERSYSTEM:NO;
#BANNER:SPICY PIECE (Ryu Remix)-bn.png;
#BACKGROUND:SPICY PIECE (Ryu Remix)-bg.png;
#LYRICSPATH:;
#CDTITLE:MixMania CD Title.png;
#MUSIC:SPICY PIECE (Ryu Remix).mp3;
#OFFSET:-2.500;
#SAMPLESTART:24.440;
#SAMPLELENGTH:12.000;
#SELECTABLE:YES;
#LISTSORT:;
#BPMS:0.000=180.000,178.000=90.000,208.000=180.000;
#STOPS:178.000=2.660
,206.000=1.340
,208.000=2.660
;
#BGCHANGES:;
#ATTACKS:;

//---------------dance-single - ----------------
#NOTES:
     dance-single:
     :
     Easy:
     4:
     0.325,0.334,0.134,0.176,0.017:
0000
0000
0000
0000
,
1000
0000
0000
0000
0000
0000
0000
0000
0000
0001
0000
0000
0000
0000
0000
0000
0000
0000
1000
0000
0000
0000
0000
0000
0000
0000
0000
0001
0000
0000
0000
0000
,
0000
0020
0000
0000
0000
0000
0000
0030
,
0000
0000
0000
0000
0000
0000
0000
1001
0000
0000
0000
0000
0000
0000
0000
0000
0000
0000
0000
0000
0000
0000
0000
0000
0000
0000
0000
0000
0000
0000
0000
0000
,
0000
0000
0000
0000
,
1001
0100
0001
1000
,
0002
1003
0020
1030
,
0001
0001
0010
0001
,
2000
3001
0200
0301
,
0010
0010
1000
1000
,
0100
0100
0001
0001
,
1000
0100
0010
0001
,
2002
0000
0000
0000
,
3003
0000
0000
0000
,
0000
0000
0000
0000
,
0000
0000
0010
0010
,
0010
0010
1000
0001
,
0010
1000
0110
1000
,
0100
0100
0010
0001
,
1000
1000
0100
0001
,
0010
0010
0001
1000
,
0100
0001
0010
0100
,
1000
1000
0100
0001
,
0010
0010
0001
1000
,
0001
0001
0010
0100
,
1000
1001
1000
0100
,
0001
0001
0010
0100
,
1000
0001
0100
0001
,
0010
0010
1000
0100
,
0010
1001
0001
0100
,
0010
1000
0100
1000
,
0100
0010
0001
1000
,
0001
0100
0001
1000
,
0010
1001
0010
0100
,
1000
0001
0100
0010
,
1000
0100
0010
1000
,
0001
0100
0010
0001
,
0100
1001
0020
0000
,
0000
0000
0230
0000
,
0000
1000
2300
0000
,
0000
0000
3200
0000
,
0000
0001
0302
0000
,
0000
0000
0023
0000
,
0000
1000
0230
0000
,
0000
0310
1001
0010
,
1000
0010
0001
0100
,
0010
1000
0100
1000
,
0100
0010
0101
0000
,
0000
1010
0100
1000
,
0100
0001
0010
0001
,
1000
0100
0010
1000
,
0001
0100
1001
0100
,
1001
0100
0100
0000
,
1000
0001
1000
0010
,
1001
0100
1000
0100
,
0010
0001
0010
0100
,
1000
0000
0001
0000
,
0010
0001
0200
0000
,
0310
1000
0100
0001
,
0100
1000
0010
0001
,
0100
0010
1000
0001
,
0100
0010
0200
0300
,
0010
1000
0010
0100
,
0001
0010
0100
1000
,
0001
0100
0001
1000
,
0001
1000
0010
1001
,
0001
0010
1000
0100
,
1000
0010
0001
0100
,
0001
0010
1000
0100
,
1000
0010
0100
0002
,
0003
0100
0010
0100
,
0002
0000
2000
0000
,
3003
0220
0330
0000
;

//---------------dance-single - Copied from----------------
#NOTES:
     dance-single:
     Copied from:
     Beginner:
     1:
     0.169,0.212,0.075,0.050,0.008:
0000
0000
0000
0000
,
0010
0000
0000
0000
0000
0000
0000
0000
0000
0100
0000
0000
0000
0000
0000
0000
,
0000
0200
0000
0000
0000
0000
0000
0300
,
0000
0000
0000
0000
0000
0000
0000
1001
0000
0000
0000
0000
0000
0000
0000
0000
0000
0000
0000
0000
0000
0000
0000
0000
0000
0000
0000
0000
0000
0000
0000
0000
,
0000
0000
0000
0000
,
1000
0000
1000
0000
,
0100
0000
0001
0000
,
0010
0000
0001
0000
,
0100
0000
1000
0000
,
0010
0000
0000
0000
,
0100
0000
0000
0000
,
1000
0000
0001
0000
,
1001
0000
0000
0000
,
0000
0000
0000
0000
,
0000
0000
0000
0000
,
0000
0000
0000
0000
,
0000
0000
0100
0100
,
0100
0000
0001
0000
,
1000
0000
0010
0000
,
0001
0000
0100
0000
,
1000
0000
0010
0000
,
0200
0300
0100
0000
,
0010
0000
0001
0000
,
1000
0000
0100
0000
,
0010
0000
0001
0000
,
1000
0000
0100
0000
,
1000
0000
0010
0000
,
0002
0003
0001
0000
,
0010
0000
1000
0000
,
0100
0000
0010
0000
,
0100
0000
1000
0000
,
0001
0000
0100
0000
,
0010
0000
0100
0000
,
2000
3000
1000
0000
,
0100
0000
1000
0000
,
0100
0000
0001
0000
,
0010
0000
0100
0000
,
1000
0000
1001
0000
,
0000
0000
0000
0000
,
0000
0000
0110
0000
,
0000
0000
0000
0000
,
0000
0000
1001
0000
,
0000
0000
0000
0000
,
0000
0000
0110
0000
,
0000
0000
1001
0000
,
0010
0000
0100
0000
,
1000
0000
0001
0000
,
0010
0010
0010
0000
,
0000
1001
0000
0010
,
0000
0100
0000
1000
,
0000
0010
0000
0001
,
0000
0010
0010
0100
,
0100
0100
0100
0000
,
1000
1000
1000
0000
,
0001
0000
0010
0000
,
0001
0000
1000
0000
,
0100
0000
1000
0000
,
0100
0000
0002
0003
,
0001
0000
0010
0000
,
1000
0000
0100
0000
,
0010
0000
1000
0000
,
0100
0100
0200
0300
,
0100
0000
1000
0000
,
0010
0000
0001
0000
,
0010
0000
0100
0000
,
0001
0000
1000
0000
,
1000
0000
0010
0000
,
0100
0000
0001
0000
,
0010
0000
0001
0000
,
0100
0100
0100
0000
,
0000
0010
0000
1000
,
1000
0000
0001
0000
,
0000
1001
0000
0000
;

//---------------dance-single - Copied from----------------
#NOTES:
     dance-single:
     Copied from:
     Medium:
     6:
     0.367,0.486,0.084,0.067,0.021:
0000
0000
0000
0000
,
0010
0000
0000
0000
0000
0000
0000
0000
0000
0010
0000
0000
0000
0000
0000
0000
0000
0000
0100
0000
0000
0000
0000
0000
0000
0000
0000
1000
0000
0000
0000
0000
,
0000
0002
0000
0000
0000
0000
0000
0003
,
0000
0000
0000
0000
0000
0000
0000
1100
0000
0000
0000
0000
0000
0000
0000
0000
0000
0000
0000
0000
0000
0000
0000
0000
0000
0000
0000
0000
0000
0000
0000
0000
,
0000
0000
0000
0000
,
0010
0001
0100
0010
,
0100
0000
1000
0000
0100
0001
1000
0000
,
0010
1000
0100
0010
,
0100
0000
0001
0000
1000
0001
0010
0000
,
0100
0100
0000
0000
1000
1000
0000
0000
,
0001
0001
0000
0000
0010
0010
0000
0000
,
0001
0010
0100
1000
,
1001
0000
0000
0000
,
0000
0000
0000
0000
,
0000
0000
0000
0000
,
0000
0000
1000
0001
,
1000
0001
0010
0001
,
0100
0001
0010
0000
0100
0000
0100
0000
,
1000
0010
0100
0010
,
0100
0000
0001
0000
0010
1000
0100
0000
,
1000
0100
0001
0001
,
0200
0000
0300
0000
0010
1000
0100
0000
,
1000
0100
0010
0100
,
0001
0000
1000
0000
0010
0100
1000
0000
,
0100
1000
0010
0100
,
0001
0010
0100
0000
1000
0000
0001
0000
,
0100
1000
0010
0100
,
0001
0000
0000
0001
0000
0000
1000
0000
0010
0000
0000
0000
0100
0000
0000
0000
,
1000
0100
0010
0001
,
0100
0001
1000
0000
0100
0000
1000
0000
,
0010
0100
1000
0100
,
0001
0010
0100
0001
,
1000
0010
0100
1000
,
0001
1000
0010
1000
0100
0000
0100
0000
,
0001
0010
0100
1000
,
0001
1000
0100
1000
,
0010
0100
0001
1000
,
0010
1000
0100
0000
0010
0000
0001
0000
,
0100
1000
0010
0100
,
1000
0000
0001
0100
1000
0000
0010
0000
,
0100
1000
0001
0100
,
0010
1000
0100
0010
0001
0000
0100
0000
,
0001
0010
0100
1000
,
0100
0000
0001
0010
0001
0000
0100
0000
,
0010
1000
1001
0010
,
0100
0000
0001
1000
0100
0000
0010
0000
,
1000
0000
0100
0010
0001
0000
0100
0000
,
0001
0000
0010
0100
1000
0100
0000
0000
,
0010
1001
0100
1000
,
0010
0001
0101
0000
0010
0000
0001
0000
,
0100
1000
1010
0000
0001
0000
0010
0000
,
1000
0001
1001
0000
1010
0000
0100
0010
,
1001
0010
0001
0000
,
0001
0000
1000
0000
0010
1000
0100
0000
,
1000
0100
0001
0010
,
0001
0000
0100
0000
1000
0010
1000
0100
,
0001
0100
0001
0010
,
0001
0100
0020
1000
,
1030
0100
1000
0100
,
0010
0000
0001
0000
0100
1000
0010
1000
,
0100
1000
0100
0010
,
1000
0100
0010
0001
,
0100
0001
0010
1000
,
0100
0000
1000
0000
0010
0001
0100
0001
,
0010
1000
0100
0001
,
0010
1000
0002
1000
,
0013
1000
0100
0001
,
1000
0000
0010
0000
1000
0000
1000
0010
,
0100
0100
0010
0001
,
1000
0000
0001
0000
1000
0000
0010
0001
,
0000
0010
0100
0010
,
2000
0000
0002
0000
,
3003
0022
0033
0000
;

//---------------dance-single - Copied from----------------
#NOTES:
     dance-single:
     Copied from:
     Hard:
     8:
     0.461,0.577,0.159,0.050,0.025:
0000
0000
0000
0000
,
0100
0000
0000
0000
0000
0000
0000
0000
0000
0010
0000
0000
0000
0000
0000
0000
0000
0000
1000
0000
0000
0000
0000
0000
0000
0000
0000
0100
0000
0000
0000
0000
,
0000
2000
0000
0000
0000
0000
0000
3000
,
0000
0000
0000
0000
0000
0000
0000
0110
0000
0000
0000
0000
0000
0000
0000
0000
0000
0000
0000
0000
0000
0000
0000
0000
0000
0000
0000
0000
0000
0000
0000
0000
,
0000
0000
0000
0000
,
1000
0000
0100
1000
0010
0000
1000
0000
,
0100
0000
0001
0000
0010
0001
0100
0000
,
0001
0000
1000
0000
0010
1000
0100
0000
,
1000
0000
0100
0000
0001
0010
0001
0000
,
0100
0001
1000
0000
0010
1000
0100
0000
,
0100
1000
0010
0000
0100
0001
0010
0000
,
0001
0010
0100
1000
0100
0010
0001
0010
,
0100
0000
0000
0000
,
0000
0000
0000
0000
,
0000
0000
0000
0000
,
0000
0000
0010
0010
,
0001
0010
0100
1000
,
0100
1000
0010
0000
0100
0001
0010
0000
,
0100
0000
1000
0000
0010
1000
0100
0000
,
1000
0000
0100
0000
0010
0001
0100
0000
,
0010
0000
1000
0000
0001
1000
0100
0000
,
0010
0001
0010
0001
0010
0100
1000
0000
,
0100
0000
1000
0000
0010
1000
0100
0000
,
0010
0000
0001
0000
0100
0001
0010
0000
,
0100
0000
0001
0000
0010
0100
1000
0100
,
1000
0010
0100
0000
0001
0100
1000
0000
,
0010
0000
1000
0000
0100
1000
0010
0000
,
0100
0000
0000
0001
0000
0000
0010
0000
0010
0000
0000
0000
1000
0000
0000
0000
,
0100
0000
1000
0000
0010
1000
0001
0010
,
0001
0000
0100
0000
0001
0010
1000
0000
,
0100
0000
1000
0000
0010
1000
0001
0000
,
0100
0000
0001
0000
0010
0001
1000
0000
,
0100
0000
1000
0000
0010
1000
0100
0010
,
0001
0000
0100
0000
0001
0010
0100
0000
,
0001
0000
1000
0000
1000
0100
0010
0000
,
1000
0000
0000
0001
0000
0000
1000
0000
0001
0000
0000
0000
0010
0000
0000
0000
,
0100
0000
0001
0000
0010
1000
0001
1000
,
0100
0000
0010
0000
1001
0000
0100
0001
,
0010
0100
0010
1000
,
0100
0000
1000
0010
0100
0000
0001
1000
,
0000
1000
0100
0000
0010
0000
1000
0000
,
0001
1000
0100
0010
0001
0000
0100
0001
,
1000
0010
1000
0100
,
0001
0000
0010
0001
0100
0000
0010
0000
,
1000
0100
0010
0000
0100
0010
0001
0010
,
0100
1000
0100
0010
1001
0100
0001
1000
,
0100
1000
0010
0100
1001
0100
0001
0010
,
0100
1000
0100
1000
0011
1100
0000
0000
,
0010
0010
1001
0000
0010
0100
1100
0000
,
0010
0100
0011
0100
0010
0001
1100
0000
,
0010
1000
0101
0010
1000
0100
1001
0000
,
0010
0001
0100
0010
0101
0000
1000
0100
,
1001
0000
1000
0000
0001
1000
0100
0000
,
0010
0000
0001
0000
0100
0001
1000
0000
,
0010
1000
0100
1000
0000
0010
1000
0100
,
0000
0001
0100
0010
0001
1000
0100
1000
,
0010
1000
0000
0100
0000
1000
0000
0010
,
0000
0001
0000
0100
0002
0000
0000
0000
,
1003
0010
1000
0100
0000
1000
0010
0001
,
0000
0100
0001
0010
0000
0001
1000
0100
,
1000
0010
0100
0001
,
1000
0001
1000
0001
0010
0001
1000
0000
,
1000
0001
0100
0000
0001
1000
0010
0000
,
1000
0100
0001
0010
,
0001
0100
1000
0000
0010
1000
0100
0000
,
1000
0000
0001
0000
0100
0010
0001
0010
,
0100
1000
0100
0000
1000
0010
1000
0000
,
0001
0000
1000
0000
0010
0100
1000
0100
,
0010
1000
0100
0001
,
1000
0010
1000
0001
1000
0001
0010
0001
,
0000
1001
0011
1001
,
1200
0000
0020
0000
,
0330
2002
3003
0000
;

//---------------dance-single - Copied from Copied f----------------
#NOTES:
     dance-single:
     Copied from Copied f:
     Challenge:
     9:
     0.566,0.638,0.159,0.151,0.084: // measure 1
0000
0000
0000
0000
,  // measure 2
0001
0000
0000
0000
0000
0000
0000
0000
0000
0010
0000
0000
0000
0000
0000
0000
0000
0000
0100
0000
0000
0000
0000
0000
0000
0000
0000
1000
0000
0000
0000
0000
,  // measure 3
0000
0220
0000
0000
0000
0000
0000
0330
,  // measure 4
0000
0000
0000
0000
0000
0000
0000
1001
0000
0000
0000
0000
0000
0000
0000
0000
0000
0000
0000
0000
0000
0000
0000
0000
0000
0000
0000
0000
0000
0000
0000
0000
,  // measure 5
0000
0000
0000
0000
,  // measure 6
1000
0100
0010
0001
,  // measure 7
0100
0000
0000
1000
0000
0000
0001
0000
0100
0000
1000
0000
0100
0000
0000
0000
,  // measure 8
1000
0010
0001
0100
,  // measure 9
0010
0000
0000
1000
0000
0000
0001
0000
0100
0000
0010
0000
1000
0000
0100
0000
,  // measure 10
1000
2000
0000
3000
0100
0200
0000
0300
,  // measure 11
0010
0020
0000
0030
0001
0002
0000
0003
,  // measure 12
0100
0100
0010
0010
1000
1000
0001
0001
,  // measure 13
1001
0000
0000
0000
,  // measure 14
0000
0000
0000
0000
,  // measure 15
0000
0000
0000
0000
,  // measure 16
0000
0000
0001
0010
,  // measure 17
0100
1000
1001
1010
,  // measure 18
1001
1000
0100
0000
1000
0010
1000
0001
,  // measure 19
0100
0001
0010
0001
1000
0100
1000
0010
,  // measure 20
1000
0001
1000
0000
0100
1000
0010
0100
,  // measure 21
0001
0010
1000
0100
0001
1000
0100
1000
,  // measure 22
0020
0000
0230
0000
0301
1000
0100
1000
,  // measure 23
0010
1000
0001
0100
0010
0001
0010
1000
,  // measure 24
0100
1000
0010
0000
0001
1000
0100
1000
,  // measure 25
0010
0100
0001
0010
0001
1000
0100
0001
,  // measure 26
0010
0001
0200
0000
0301
0010
1000
0100
,  // measure 27
1000
0010
0001
0100
0001
0010
0001
0100
,  // measure 28
1000
0000
0000
0001
0000
0000
0010
0000
0001
0000
0100
0000
1000
0000
0010
0000
,  // measure 29
1000
0000
0100
0000
1000
0010
0001
0100
,  // measure 30
0001
0000
0000
0010
0000
0000
0100
0000
1000
0000
0100
0000
1000
0000
0010
0000
,  // measure 31
1000
0001
0100
0010
0001
0100
0001
0010
,  // measure 32
1000
0100
1000
0000
0001
0010
0100
0001
,  // measure 33
1000
0001
0010
0100
1000
0010
1000
0100
,  // measure 34
1000
0010
0100
0000
0100
1000
0100
0010
,  // measure 35
1000
0001
1000
0010
0001
1000
0001
0100
,  // measure 36
1000
0000
0000
0001
0000
0000
1000
0000
0100
0000
0010
0000
0100
0000
0001
0000
,  // measure 37
1000
0100
1000
0010
0100
0001
0010
0001
,  // measure 38
0100
0000
0000
0001
0000
0000
0010
0000
0001
0000
0000
0000
0100
0000
0010
0000
,  // measure 39
1000
0100
1000
0010
,  // measure 40
0100
0001
0010
0001
1000
0000
0100
1000
,  // measure 41
0010
0000
1000
0000
0100
0010
0001
0010
,  // measure 42
0100
1000
0001
0000
1000
0000
0001
0010
,  // measure 43
0100
0000
0100
0000
1000
0010
0001
0010
,  // measure 44
0100
0001
1000
0100
1000
0000
1000
0010
,  // measure 45
0100
0000
0001
0000
0110
1000
0100
0010
,  // measure 46
0001
0000
0100
0000
0001
0000
0010
0100
0010
0000
1000
0000
0100
0000
1000
0000
,  // measure 47
0001
0000
0010
0000
0100
0000
1000
0001
1000
0000
0100
0000
0010
0000
1000
0000
,  // measure 48
0001
0100
0010
0001
0011
0101
0000
0000
,  // measure 49
1000
0000
0010
0000
1010
0000
0000
0000
0100
0000
1000
0000
0001
0000
0100
0001
,  // measure 50
0000
0001
0010
0000
0110
0000
1000
0010
1000
0000
0100
0000
1000
0000
0010
0100
,  // measure 51
0000
0100
0001
0000
1010
0000
0100
1000
0010
0000
0100
0000
0001
0000
1000
0100
,  // measure 52
0000
0010
0001
0000
0100
0000
0001
0000
0110
0000
0000
0000
1000
0000
0100
0000
,  // measure 53
0011
0000
0001
0000
0010
1000
0100
0000
,  // measure 54
1000
0000
0010
0000
0001
0100
0020
0000
,  // measure 55
1030
0100
1000
0010
0001
0100
0001
0010
,  // measure 56
1000
0000
0100
1000
0010
0100
0001
0010
,  // measure 57
0001
1000
0001
0010
0000
0010
0001
0100
,  // measure 58
0000
0100
1000
0010
2000
0000
0100
0000
,  // measure 59
3100
1000
0100
0010
0000
0010
0001
1000
,  // measure 60
0000
0100
1000
0010
0100
0001
1000
0010
,  // measure 61
0000
0100
0001
0010
0000
0010
1000
0100
,  // measure 62
1000
0010
0001
0100
0001
0010
0002
0000
,  // measure 63
0013
0100
0010
0001
1000
0100
0001
0010
,  // measure 64
1000
0100
0010
0100
0001
0010
0100
1000
,  // measure 65
0010
0100
0001
0100
0010
1000
0100
0010
,  // measure 66
0001
0100
0010
1000
0002
0000
2003
0000
,  // measure 67
3100
0001
1000
0010
1000
0100
0001
1000
,  // measure 68
0001
0100
0001
0010
1000
0001
1000
0001
,  // measure 69
0100
0010
0001
1000
0100
0010
0001
1000
,  // measure 70
0010
0100
0001
0100
1000
0010
0100
0001
,  // measure 71
0000
0110
1100
0011
,  // measure 72
1002
0000
0200
0000
,  // measure 73
0303
0022
0033
0000
;
