#TITLE:RISLIM;
#SUBTITLE:-remix-;
#ARTIST:ric / remix by Hisashi Nawata;
#TITLETRANSLIT:;
#SUBTITLETRANSLIT:;
#ARTISTTRANSLIT:;
#GENRE:;
#CREDIT:;
#MENUCOLOR:;
#NEWMETERSYSTEM:NO;
#BANNER:RISLIM -remix-bn.png;
#BACKGROUND:RISLIM -remix-bg.png;
#LYRICSPATH:;
#CDTITLE:MixMania CD Title.png;
#MUSIC:RISLIM -remix-.mp3;
#OFFSET:1.440;
#SAMPLESTART:14.880;
#SAMPLELENGTH:12.000;
#SELECTABLE:YES;
#LISTSORT:;
#BPMS:0.000=132.000;
#STOPS:;
#BGCHANGES:;
#ATTACKS:;

//---------------dance-single - ----------------
#NOTES:
     dance-single:
     :
     Easy:
     4:
     0.315,0.378,0.196,0.177,0.000:
0000
0000
0000
0000
,
0100
0000
0010
0000
,
0100
0010
0000
1000
,
0001
0000
0010
0000
,
0001
0200
0000
0300
,
1001
0000
0010
0000
,
1000
0001
0000
0010
,
0001
0000
0100
0000
,
1000
0010
0001
1001
,
0010
0000
1000
0100
,
1000
0000
0001
1000
,
0100
0100
0001
0001
,
0010
0000
1000
0100
,
1000
0000
0001
0010
,
1000
0000
0001
0100
,
1000
1000
0100
0100
,
0010
0010
0000
1001
,
0100
0001
0010
0001
,
1000
0001
0010
1000
,
0100
1000
0100
0010
,
0001
0100
0020
1030
,
0100
1000
0100
0001
,
1000
0000
0001
0010
,
1001
0000
1001
0000
,
1001
1001
1001
2001
,
3010
0100
0001
0010
,
1000
0100
0010
0001
,
0100
0001
0100
0010
,
1000
0100
0001
1000
,
0010
1000
0100
0001
,
0010
0001
1000
0100
,
2000
0000
3020
0000
,
0032
0000
0203
0010
,
1300
0100
1000
0100
,
0010
0001
1000
0001
,
0010
0100
1000
0100
,
0001
0001
0100
1000
,
2000
0000
3020
0000
,
1030
0100
0001
0100
,
0010
1001
0100
1001
,
0010
1001
0100
0100
,
0000
0000
0110
1001
,
0100
1000
0100
0001
,
0020
0000
0032
1000
,
1003
0100
0001
1000
,
0100
0010
0001
0101
,
0020
0000
2030
0001
,
3001
0100
1000
0010
,
1001
0000
0100
0001
,
0020
2030
3200
0302
,
0013
0001
1000
0100
,
1000
0001
0010
0101
,
2010
0100
0100
0001
,
3010
0001
0100
0010
,
1000
0100
0001
0100
,
1000
0010
0001
0001
,
1100
0001
0101
1000
,
1100
0000
0000
0000
0010
0000
0000
0000
0001
0000
0000
0000
2000
0000
0000
3000
;

//---------------dance-single - Copied from----------------
#NOTES:
     dance-single:
     Copied from:
     Beginner:
     1:
     0.149,0.189,0.000,0.028,0.000:
0000
0000
0000
0000
,
0100
0000
0100
0000
,
1000
1000
0000
0000
,
0010
0000
0010
0000
,
0001
0001
0000
0000
,
0010
0000
0100
0000
,
0010
0010
0000
0000
,
1000
0000
0001
0000
,
1000
1000
0000
0001
,
0001
0000
0100
0000
,
1000
0000
0010
0000
,
0100
0000
0001
0000
,
0010
0000
0010
0010
,
0010
0000
0100
0000
,
1000
0000
0001
0000
,
0100
0000
0100
0000
,
0100
0100
0000
0000
,
0010
0000
0010
0000
,
1000
0000
0001
0000
,
0100
0000
0000
0000
,
1000
0000
0010
0000
,
0010
0000
0000
0001
,
0001
0000
0000
0000
,
1000
0000
0001
0000
,
1000
0000
0010
0010
,
0010
0000
0001
0000
,
1000
0000
0100
0000
,
0010
0000
0001
0000
,
1000
0000
0010
0000
,
1000
0000
0100
0000
,
0001
0000
0010
0000
,
0200
0000
0000
0000
,
0000
0300
0000
0000
,
0100
0000
0001
0000
,
1000
0000
0010
0000
,
0010
0000
0100
0000
,
0001
0000
1000
0000
,
2000
0000
3000
0000
,
0001
0000
0010
0000
,
0100
0000
0100
0000
,
0100
0100
0100
0000
,
0000
0000
0000
0010
,
0010
0000
1000
0000
,
1000
0000
0010
0000
,
0001
0000
0000
0000
,
0000
0000
0000
1000
,
1000
0000
0001
0000
,
0100
0000
1000
0000
,
0001
0000
0000
0000
,
0010
0010
0010
0000
,
0100
0000
1000
0000
,
0010
0000
0001
0000
,
0100
0000
0000
0000
,
0000
0000
0000
0010
,
0010
0000
0001
0000
,
0100
0000
1000
0000
,
0010
0000
0010
0000
,
0010
0000
0000
0000
0010
0000
0000
0000
0010
0000
0000
0000
0020
0000
0000
0030
;

//---------------dance-single - Copied from----------------
#NOTES:
     dance-single:
     Copied from:
     Medium:
     5:
     0.351,0.351,0.074,0.168,0.000:
0000
0000
0000
0000
,
0001
1000
0110
1000
,
0001
1100
0010
1000
,
0001
0100
0011
0100
,
1010
0011
0000
0000
,
0100
0000
1000
0010
0001
0000
0100
0000
,
0001
0010
1000
0100
,
1000
0000
0010
0001
0010
0000
0100
1000
,
0200
2300
3010
1001
,
0100
0001
0010
1000
,
0001
0000
0100
0000
1000
0000
0010
1000
,
0200
0001
0302
1000
,
2003
0000
0000
0000
3010
0000
0100
0001
,
0100
0010
1000
0100
,
1000
0000
0001
0000
0010
0000
0100
0001
,
0020
0001
0032
0100
,
0203
0010
0310
0100
,
1001
0100
1000
0001
,
0010
0001
0100
0001
,
1000
0100
0010
1000
,
0100
0000
1000
0000
0010
0010
0010
0000
,
0001
0010
1000
0100
,
1000
0000
0001
0010
0000
0010
0001
0000
,
0200
0300
0020
0030
,
2000
0000
3002
0000
0023
0000
0130
0100
,
0100
1000
0100
0001
,
0010
0001
0010
0100
,
1000
0100
1000
0010
,
0100
1000
0001
0100
,
0010
0000
0000
0001
0000
0000
1000
0000
,
0100
0000
0000
0010
0000
0000
1000
0000
,
0001
0000
0000
0010
0000
0000
0100
0000
,
0000
0000
0010
0100
,
1000
0100
0010
0000
0001
0000
0100
0000
,
0001
0000
0010
0001
0100
0000
0010
0000
,
1000
0100
1000
0010
,
1000
0000
0100
0001
0000
0000
0010
0000
,
0100
0001
0100
1000
,
0010
0000
1000
0100
1000
0000
0100
0000
,
0020
0030
2002
3003
,
0100
0000
0010
0000
1000
0100
0001
0000
,
0020
0000
0000
0000
1000
1000
1030
0000
,
0100
0000
1000
0010
0001
0000
0100
0000
,
0001
0000
0010
0000
0100
0000
0001
0100
,
1000
0010
0010
1000
,
0001
0000
1000
0000
0001
1000
0100
0000
,
0010
0000
1000
0010
0001
0000
0100
0000
,
0001
0000
1000
0001
0000
0010
0001
0000
,
0100
0010
1000
0001
,
0000
0100
0000
1000
0000
0100
0000
0000
,
0010
0000
0100
0000
1000
0000
0001
0010
,
0001
0000
0100
0000
0001
0000
1000
0010
,
0100
0001
0100
1000
,
0010
1000
0100
0001
,
0010
0000
0100
0001
0100
0000
0010
0000
,
1000
0000
0000
1000
0000
0100
0010
0000
,
0001
0000
0100
0001
0010
0000
0100
1000
,
0010
0000
0000
0000
0100
0000
0000
0000
1000
0000
0000
0000
0002
0000
0000
0003
;

//---------------dance-single - Copied from----------------
#NOTES:
     dance-single:
     Copied from:
     Hard:
     6:
     0.419,0.432,0.233,0.037,0.000:
0000
0000
0000
0000
,
1001
0000
1000
0010
0001
0000
0100
0000
,
0001
0010
0010
0100
,
1010
0000
0001
0100
1000
0000
0010
0000
,
0100
0000
1000
0000
0000
0110
1001
0000
,
0101
0000
0010
1000
0100
0000
0001
0000
,
1000
0001
0010
0100
,
1001
0000
0010
0001
0010
0000
0010
1000
,
0010
1000
0100
1000
0000
0000
1001
0000
,
0010
0000
0001
0010
0000
1000
0100
1000
,
0010
0000
0100
0001
0000
0010
0001
1000
,
0100
0000
0010
0001
1000
0000
0010
0001
,
1000
0000
0000
0100
0000
0100
0000
0000
,
1010
0000
1000
0100
0010
0000
0100
0000
,
0010
0000
0001
0010
0000
0100
0010
1000
,
0001
0000
0010
1000
0001
0000
0010
1000
,
0001
1000
0001
1000
0000
0010
0100
0000
,
0001
1000
0100
0010
,
0001
0000
0010
0000
0100
0000
1000
0100
,
0000
0010
0001
0010
0001
0000
1000
0000
,
0100
0000
0010
1000
0000
0100
0001
0000
,
1001
0000
0010
0001
0000
1000
0010
1000
,
0100
0000
0010
0001
0000
0100
0010
0000
,
1001
0000
1001
0000
,
0110
0000
1001
0000
0110
0000
0001
1000
,
1001
0010
0001
1000
0000
0100
1000
0010
,
0000
1000
0100
0010
,
0001
0010
0001
1000
0000
0100
1000
0010
,
0000
0000
0001
0100
1000
0000
0100
0000
,
0010
0000
0000
0001
0000
0000
0010
1000
,
0100
0000
0000
1000
0000
0000
0100
1000
,
0010
0000
0000
0100
0000
0000
0001
0010
,
0001
0000
0100
0000
0001
1000
0001
1000
,
0010
0001
0100
0000
0001
0000
1000
0000
,
0010
1000
0100
0000
1000
0000
0010
0000
,
0100
0000
0001
0010
0000
0001
1000
0000
,
0100
0000
1000
0010
0000
0100
0001
0000
,
0010
0000
0001
0000
0010
0000
1000
0100
,
0001
0000
0001
0010
1000
0000
0100
0000
,
1001
0110
1001
0110
,
1001
1001
0110
2002
,
3003
0000
0000
0000
0010
0010
0100
0010
,
0100
0000
1000
0100
0000
0001
0010
0000
,
0001
0000
1000
0001
0000
0001
0010
0100
,
1000
0001
1000
0100
,
0001
0000
0010
0000
0001
0010
1000
0001
,
1000
0000
0100
1000
0010
0000
0100
0000
,
0001
0000
0001
1000
0000
0010
1000
0010
,
0001
0001
0100
1000
,
0010
0001
0010
0001
0010
0001
0100
0000
,
0001
0000
0010
1000
0000
0100
0001
0000
,
0010
0000
0001
0010
0000
0010
0100
1000
,
0100
0010
1000
0100
,
0001
0000
1000
0000
0100
0010
0001
0000
,
1100
0000
0010
0001
0010
0000
0010
0000
,
1000
0000
0100
1000
0000
1000
0001
0010
,
0001
0000
0100
0001
0010
0000
0100
0010
,
0001
0000
1000
0000
0100
0000
1000
0000
0010
0000
0000
0000
0220
0000
0000
0330
;

//---------------dance-single - Copied from----------------
#NOTES:
     dance-single:
     Copied from:
     Challenge:
     8:
     0.537,0.566,0.289,0.000,0.112: // measure 1
0000
0000
0000
0000
,  // measure 2
1010
0000
0001
0000
0100
0001
0010
0000
,  // measure 3
1100
0000
0000
0000
0010
0000
0000
0010
0000
0000
0001
0000
0100
0000
0000
0000
,  // measure 4
0110
0000
1000
0100
0001
0000
0010
0100
,  // measure 5
0001
0000
0110
0000
0000
1001
0011
0000
,  // measure 6
1010
0000
0100
0010
0001
0000
1010
0000
,  // measure 7
0001
0000
0000
0000
1000
0000
0000
0001
0000
0000
0100
0000
0100
0000
0000
0000
,  // measure 8
1001
0000
0000
0000
0010
0100
0010
0000
1001
0000
0000
0000
0100
0010
0100
0000
,  // measure 9
0011
0110
1100
1001
0000
0000
0110
0000
,  // measure 10
0001
0100
1000
0100
0000
1000
0010
0100
,  // measure 11
0001
0010
0001
0100
0000
0010
1000
0100
,  // measure 12
0010
0000
1000
0100
0010
0000
1000
0100
,  // measure 13
0010
0000
0001
0000
0010
0000
0100
0000
0000
0001
0100
0000
0010
0000
1000
0000
,  // measure 14
0100
0001
0010
0001
0000
0100
0001
0010
,  // measure 15
1000
0100
1000
0010
0000
0100
0001
0010
,  // measure 16
1000
0000
0001
0010
1000
0000
0001
0010
,  // measure 17
1000
0000
1000
0000
1000
0000
1000
0000
0000
0000
1000
0000
0100
0010
0001
0010
,  // measure 18
0100
0000
0000
0000
0100
0000
0000
1000
0000
0000
0100
0000
0010
0000
0001
0000
,  // measure 19
0100
0000
0000
0000
1000
0000
0000
0001
0000
0000
0010
0000
1000
0000
0100
0000
,  // measure 20
0000
1000
0001
0100
0010
0000
0001
0000
,  // measure 21
1000
0000
0100
0000
0010
0000
1000
0000
0100
1000
0100
0000
1100
0000
0000
0000
,  // measure 22
0101
0010
0100
0010
0000
1000
0100
0001
,  // measure 23
0100
0010
1000
0100
0000
1000
0100
0010
,  // measure 24
0011
0000
0100
0010
0011
0000
0100
0010
,  // measure 25
0011
0000
1000
0000
0100
0000
1000
0000
0010
0000
0100
0000
1000
0001
1000
0001
,  // measure 26
0100
0010
1000
0100
0000
0001
0100
0010
,  // measure 27
0000
0000
0001
0000
0010
0000
0100
1000
,  // measure 28
0100
1000
0010
0100
0000
0001
0010
1000
,  // measure 29
0000
0000
1000
0100
0010
0000
0001
0000
,  // measure 30
0100
0000
0001
0010
1000
0000
0010
0001
,  // measure 31
0100
0010
1000
0100
0000
0100
1000
0000
,  // measure 32
0010
0000
0100
0010
0001
0000
0100
0000
,  // measure 33
0001
0000
0010
0000
0001
0000
0010
0000
1000
0100
1000
0000
0001
0010
0001
0000
,  // measure 34
0110
0000
1000
0000
0100
0000
0001
0010
0000
0000
1000
0000
0100
0000
1000
0000
,  // measure 35
0001
0010
0100
1000
0010
0000
0100
0010
,  // measure 36
1000
0000
0100
0010
0000
1000
0001
0010
,  // measure 37
0001
0000
1000
0100
0000
0010
0100
1000
,  // measure 38
0010
0100
0000
1000
0100
0000
0010
0001
0000
0000
0100
0000
0010
0000
1000
0000
,  // measure 39
0100
0001
1000
0100
0010
0000
0100
0001
,  // measure 40
0010
0011
0100
1010
,  // measure 41
0100
0110
0010
0110
0100
1000
0100
0001
,  // measure 42
0000
0000
0000
0000
0000
0000
0000
0000
1000
0100
1000
0100
0010
0001
0010
0001
,  // measure 43
0100
0000
0100
1000
0010
0000
0100
0001
,  // measure 44
0010
0001
1000
0100
0000
1000
0010
0001
,  // measure 45
0100
0000
0010
1000
0100
0000
1000
0100
,  // measure 46
0010
0001
0010
0100
0001
0100
1000
0100
,  // measure 47
0010
0000
1000
0100
0001
0000
0010
0001
,  // measure 48
0100
0001
1000
0010
0000
1000
0100
1000
,  // measure 49
0010
0100
1000
0100
,  // measure 50
1000
0010
1000
0010
1000
0010
1001
0000
,  // measure 51
0100
0001
0010
1000
0000
0100
1000
0010
,  // measure 52
0100
0001
0010
0001
0000
1000
0001
0010
,  // measure 53
0100
0010
1000
0100
,  // measure 54
0010
0001
0100
0001
0010
0100
0001
0000
,  // measure 55
1000
0001
1000
0010
0000
0100
0001
0010
,  // measure 56
0001
1000
0100
0001
0000
1000
0010
0001
,  // measure 57
0101
0000
0100
1000
1010
0000
1000
0010
,  // measure 58
0101
0000
0010
0000
1001
0000
0010
0000
0101
0000
0010
0000
1000
0100
1000
0100
;
