#TITLE:QUICK RESULT;
#SUBTITLE:;
#ARTIST:AKIRA YAMAOKA;
#TITLETRANSLIT:;
#SUBTITLETRANSLIT:;
#ARTISTTRANSLIT:;
#GENRE:;
#CREDIT:;
#MENUCOLOR:;
#NEWMETERSYSTEM:NO;
#BANNER:QUICK RESULT-bn.png;
#BACKGROUND:QUICK RESULT-bg.png;
#LYRICSPATH:;
#CDTITLE:MixMania CD Title.png;
#MUSIC:QUICK RESULT.mp3;
#OFFSET:-2.140;
#SAMPLESTART:28.780;
#SAMPLELENGTH:12.000;
#SELECTABLE:YES;
#LISTSORT:;
#BPMS:0.000=135.000;
#STOPS:;
#BGCHANGES:;
#ATTACKS:;

//---------------dance-single - ----------------
#NOTES:
     dance-single:
     :
     Easy:
     4:
     0.308,0.368,0.096,0.287,0.000:
0000
0000
0000
0000
,
0000
0000
0000
0000
,
0000
0000
0000
0000
,
0100
0010
0100
0001
,
1000
0100
1000
0000
,
1000
0010
0001
0010
,
0001
0100
0010
0000
,
0001
0100
0010
0001
,
1000
0100
0020
0030
,
1000
0100
0001
0100
,
0010
1000
0101
0000
,
1000
0002
0100
0013
,
1000
0020
1000
0130
,
0010
0200
0010
0301
,
0010
2000
0010
3010
,
0100
1000
0001
0000
,
0100
1000
0001
0010
,
0001
1000
0100
0000
,
0010
0001
0100
0000
,
1000
0010
0001
1000
,
0100
0001
1000
0100
,
0010
0100
0100
1000
,
0001
0010
0001
0100
,
0002
0000
1000
1000
,
2003
0000
0010
0010
,
3020
0000
0100
0100
,
0230
0000
0001
0001
,
0302
0000
0010
1000
,
0023
0000
0100
0001
,
0230
0000
1000
0010
,
2300
0000
0010
3100
,
0220
0330
1000
0001
,
2200
3300
0001
0100
,
0022
0033
0010
0001
,
2020
3030
0100
0010
,
2002
3003
0100
0001
,
2020
3030
0100
0001
,
2200
3300
0010
0100
,
0022
0033
0100
0010
,
1000
1000
0001
0100
,
0010
0010
0001
1000
,
0100
1000
0010
0001
,
0100
0001
0010
1000
,
0100
0100
1000
0010
,
1000
1000
0001
0100
,
0001
0010
1000
0100
,
0010
0001
0200
0300
,
0010
0010
0001
0100
,
1000
1000
0001
1000
,
0010
0001
1000
0100
,
1000
0001
0010
0100
,
0001
0001
1000
0100
,
0010
0010
0001
1000
,
0010
0100
0010
0100
,
0001
1000
0100
1000
,
1001
0000
0000
0000
;

//---------------dance-single - Copied from----------------
#NOTES:
     dance-single:
     Copied from:
     Beginner:
     1:
     0.124,0.132,0.000,0.048,0.000:
0000
0000
0000
0000
,
0000
0000
0000
0000
,
0000
0000
0000
0000
,
0010
0000
0100
0000
,
0010
0000
0100
0000
,
1000
0000
0001
0000
,
0010
0000
0000
0000
,
0100
0000
0001
0000
,
1000
0000
0100
0000
,
0100
0000
0010
0000
,
0100
0000
0002
0000
,
0003
0000
1000
0000
,
0000
0000
0010
0000
,
0000
0000
0001
0000
,
0000
0000
0100
0000
,
1000
0000
0010
0000
,
1000
0000
0010
0000
,
0000
0000
0001
0000
,
0000
0000
0100
0000
,
0010
0000
0001
0000
,
1000
0000
0010
0000
,
1000
0000
0100
0000
,
0010
0000
0001
0000
,
0200
0000
0000
0300
,
0000
0000
0010
0000
,
0002
0000
0000
0003
,
0000
0000
1000
0000
,
2000
0000
0000
3000
,
0000
0000
0100
0000
,
0200
0000
0000
0300
,
0000
0000
0010
0000
,
1000
0000
0100
0000
,
1000
0000
0001
0000
,
0100
0000
0010
0000
,
0001
0000
1000
0000
,
0100
0000
0010
0000
,
0001
0000
0100
0000
,
0010
0000
1000
0000
,
0100
0000
0001
0000
,
0010
0000
0000
0000
,
0100
0000
0000
0000
,
1000
0000
0000
0000
,
0001
0000
0000
0000
,
0010
0000
0000
0010
,
0010
0000
0000
0001
,
0001
0000
0000
1000
,
1000
0000
0000
0100
,
0100
0000
1000
0000
,
0001
0000
0100
0000
,
0010
0000
0100
0000
,
0001
0000
0010
0000
,
1000
0000
0100
0000
,
0001
0000
0010
0000
,
1000
0000
0100
0000
,
0010
0000
0001
0000
,
0010
0000
0000
0000
;

//---------------dance-single - Copied from----------------
#NOTES:
     dance-single:
     Copied from:
     Medium:
     7:
     0.396,0.447,0.163,0.144,0.000:
0000
0000
0000
0000
,
0000
0000
0000
0000
,
0000
0000
0000
0000
0000
0000
0000
0010
,
0001
0000
0100
0000
0001
0100
1000
0000
,
0010
0000
1000
0000
0100
1000
0010
1000
,
0100
0000
0001
0000
0100
0001
0010
0000
,
0100
0000
0001
0000
1000
0010
1000
0100
,
1000
0000
0100
0000
0001
0010
0001
0000
,
0100
0000
0001
0000
1000
0100
0001
0100
,
0001
0000
1000
0000
0100
0010
1000
0000
,
0100
0000
0010
0000
0001
1000
0100
0000
,
1000
0010
0100
0000
0010
0000
1000
0000
,
0001
0100
1000
0000
0010
0000
1000
0000
,
0001
0100
0010
0000
0001
0000
0100
0000
,
1000
0010
0100
0000
0001
0000
1000
0000
,
0100
0100
1000
0010
,
1000
0100
0001
0010
,
0001
0000
1000
0100
0010
0000
0001
0000
,
0100
0000
0001
0010
0100
0000
1001
0000
,
0100
0001
0100
0010
0001
0000
0100
0000
,
0010
1000
0010
1000
0100
0000
1000
0000
,
0001
0100
1000
0000
1000
0100
0001
0000
,
1000
0000
0010
0000
0100
0001
0010
0000
,
0101
0011
1010
0000
,
0100
0000
0000
0000
1000
0100
1000
0000
,
1010
0011
0101
0000
,
0100
0000
0000
0000
1000
0100
0010
0000
,
1010
0101
0011
1100
,
0001
0000
1000
0000
0010
1000
0100
0000
,
1010
1100
0011
0101
,
1001
0000
0010
0010
,
0200
2300
3002
0023
,
0032
0000
0203
0000
2300
0000
3010
0001
,
0020
0230
2300
3002
,
0203
0000
0320
0000
2030
0100
3002
0100
,
0103
0000
0010
0000
0001
0100
1000
0000
,
0100
0000
1000
0000
0010
0000
1000
0100
,
0001
1000
0010
0100
,
0001
1000
0100
1000
0010
0100
0010
0000
,
0100
0000
1000
0001
0100
0001
0010
0000
,
0100
0000
0001
1000
0100
1000
0010
0000
,
1000
0100
0100
0001
,
1000
0000
0010
0000
0001
0010
1000
0000
,
0100
0000
0100
1000
0001
0010
1000
0000
,
0100
0000
0001
1000
0010
0100
0001
0000
,
0100
1000
0010
0100
,
0001
0000
0001
0000
1000
0001
0100
0000
,
0010
0000
0010
0000
0010
1000
0001
0000
,
0100
0000
0010
0000
0010
0001
1000
0000
,
0100
0000
1000
0000
0001
0010
1000
0000
,
0100
0000
1000
0000
1000
0010
0001
0100
,
0001
0000
0010
0000
0001
0100
1000
0000
,
0010
0000
0100
0000
0001
0010
0001
0000
,
0100
0000
1000
0000
0010
1000
0100
0000
,
1000
0001
0100
1001
,
0100
0000
0000
0000
;

//---------------dance-single - Copied from----------------
#NOTES:
     dance-single:
     Copied from:
     Hard:
     8:
     0.506,0.447,0.086,0.010,0.019: // measure 1
0000
0000
0000
0000
,  // measure 2
0000
0000
0000
0000
,  // measure 3
0000
0000
0000
0000
,  // measure 4
1100
0100
0010
0000
0100
0001
1000
0000
,  // measure 5
0100
1000
0010
0000
0100
0001
0010
0000
,  // measure 6
0100
1000
0010
0000
1000
0100
0001
0000
,  // measure 7
0010
0001
0100
0000
0010
1000
0100
0000
,  // measure 8
1000
0000
0010
0000
0001
0000
0000
0100
1000
0000
0100
0000
1000
0000
0000
0000
,  // measure 9
0010
0000
0001
0000
0100
0000
0000
0010
0001
0000
0100
0000
0020
0000
0000
0000
,  // measure 10
0130
0000
1000
0000
0001
0000
0000
1000
0100
0000
0010
0000
0001
0000
0000
0000
,  // measure 11
0001
0000
1000
0000
0010
0000
0000
0001
0100
0000
0010
0000
1000
0000
0100
0000
,  // measure 12
1000
0100
0010
0100
0001
0010
0001
0000
,  // measure 13
0100
1000
0010
0100
0001
1000
0100
0000
,  // measure 14
0010
1000
0100
0010
0001
0100
1000
0000
,  // measure 15
0100
0010
1000
0001
0100
0001
0010
0000
,  // measure 16
0001
0001
0100
1000
0100
0010
0001
0000
,  // measure 17
0100
0100
0010
1000
0100
0001
0010
0001
,  // measure 18
0100
0000
0001
1000
0100
0000
0001
0000
,  // measure 19
1000
0010
0001
0010
0100
0000
0001
0000
,  // measure 20
1000
0100
1000
0100
0010
0001
0010
0001
,  // measure 21
0100
0010
1000
0001
0100
0010
0001
1000
,  // measure 22
0100
1000
0010
0100
0001
1000
0100
0001
,  // measure 23
0010
0100
0001
1000
0010
0100
0001
0000
,  // measure 24
1000
0100
0001
0010
0100
0001
1000
0000
,  // measure 25
0100
0000
0010
0000
1000
0010
1010
0000
,  // measure 26
1000
0100
0010
0001
0010
0100
1000
0000
,  // measure 27
0001
0000
0100
0000
0001
0010
0011
0000
,  // measure 28
0010
0100
0001
1000
0001
0100
0010
0000
,  // measure 29
0001
0000
0100
0000
1000
0100
1100
0000
,  // measure 30
0001
0010
0100
1000
0100
0010
0001
0000
,  // measure 31
1000
0000
0100
0000
0001
0100
1010
0000
,  // measure 32
0100
1000
0100
0001
0010
0100
0001
0000
,  // measure 33
1000
0100
0001
1000
0010
0100
1000
0000
,  // measure 34
0010
0100
0001
0010
0100
1000
0100
0000
,  // measure 35
0001
1000
0010
0100
0001
1000
0100
1000
,  // measure 36
0100
1000
0100
0010
0100
0001
0010
0000
,  // measure 37
0100
0010
1000
0001
0100
0001
0010
0100
,  // measure 38
1000
0001
0010
0100
0001
1000
0100
0000
,  // measure 39
1000
0000
0001
0000
0010
0001
0011
0000
,  // measure 40
0100
0100
1000
0100
0001
0010
0001
0000
,  // measure 41
0100
0001
1000
0100
1000
0010
0001
0100
,  // measure 42
1000
1000
0001
0100
0010
1000
0001
0000
,  // measure 43
0100
0001
1000
0100
0100
0001
0100
0000
,  // measure 44
0010
1000
0001
0100
0001
0010
0001
0000
,  // measure 45
0100
0001
1000
0100
0010
1000
0001
0010
,  // measure 46
1000
0001
0100
0010
0001
0010
1000
0000
,  // measure 47
0001
1000
0010
0001
0100
0001
1000
0000
,  // measure 48
0110
0100
0001
1000
0100
0001
1000
0000
,  // measure 49
0100
1000
0001
0010
0100
1000
0001
0010
,  // measure 50
0100
1000
0001
1000
0100
0010
1000
0000
,  // measure 51
0001
1000
0010
1000
0100
0001
0001
0000
,  // measure 52
1001
0010
0100
0001
1000
0100
0010
0000
,  // measure 53
0100
0001
1000
0100
0010
0100
0010
1000
,  // measure 54
0100
0001
0010
0100
1000
0100
0001
1000
,  // measure 55
0010
1000
0100
0001
0010
0001
0100
0000
,  // measure 56
1010
0000
0000
0000
;

//---------------dance-single - Copied from----------------
#NOTES:
     dance-single:
     Copied from:
     Challenge:
     9:
     0.593,0.526,0.641,0.038,0.086:
0000
0000
0000
0000
,
0000
0000
0000
0000
,
0000
0000
0000
0000
,
1001
0000
1000
0000
0100
0000
0000
0001
1000
0000
0001
0000
0110
0000
0000
0000
,
1100
0000
0000
0000
0010
0000
0000
0001
0100
0000
1000
0000
0001
0000
0000
0000
,
1001
0000
0001
0000
0010
0000
0000
1000
0010
0000
0001
0000
0100
0000
0000
0000
,
0011
0000
0000
0000
0100
0000
0000
0001
0100
0000
1000
0000
0100
0000
0000
0000
,
1010
0010
1000
0010
1000
1000
1010
0000
,
0101
0100
1000
0100
0100
0001
0101
0000
,
0011
0001
0100
0010
0010
0100
0011
0000
,
1010
1000
0001
0010
1010
0001
1010
0000
,
1001
0001
0012
0000
0100
0000
1003
0000
,
1001
0010
2100
0000
0001
0000
3001
0000
,
1001
1000
0210
0000
0010
0000
1300
0000
,
1001
0001
0120
0000
0100
0001
0031
0010
,
0011
0010
0100
1000
1000
0100
0010
0000
,
0001
0001
1000
0100
0100
0010
1000
1000
,
0001
0000
0000
0000
1000
0000
0000
0001
0010
0000
0001
0000
1001
0000
0000
0000
,
0010
0000
0000
0000
0100
0000
0000
1000
0100
0000
0010
0000
0011
0000
0000
0000
,
1000
0000
0100
1000
0010
0000
0010
0100
0001
0000
0001
0100
0010
0000
0000
0000
,
0010
0000
0010
1000
0100
0000
0100
1000
0001
0000
0001
1000
0010
0000
0000
0000
,
0001
0000
0000
0000
0100
0000
0000
1000
0100
0000
0010
0000
1100
0000
0000
0000
,
1000
0000
0000
0000
0010
0000
0000
0001
0010
0000
0100
0000
0011
0000
0000
0000
,
1000
0100
0010
0001
1000
0100
0010
0001
,
0010
0100
0001
1000
0100
0010
1000
0100
,
0001
0010
0100
1000
0001
0010
0100
1000
,
1001
0000
0010
0000
0010
0000
0000
0100
1000
0000
0100
0000
0110
0000
0000
0000
,
0010
0001
1000
0100
0010
0001
1000
0100
,
0010
0100
1000
0001
0100
0010
1000
0010
,
0100
1000
0001
0010
0100
1000
0001
0010
,
1001
0000
0010
0000
0010
0000
0000
0001
0100
0000
0010
0000
1100
0000
0000
0000
,
0010
0001
1000
0100
1000
0010
1001
0000
,
1000
0010
0001
0010
0100
0001
1001
0000
,
1000
0100
0010
0001
0010
0100
1001
0000
,
0001
0010
0100
1000
0100
0010
1001
0000
,
0100
0001
0010
0001
0100
1000
0100
0010
,
1000
0100
0001
0010
0100
0001
1000
0010
,
0001
1000
0100
0010
0001
0100
0001
1000
,
0100
0001
0010
0100
0001
1000
0101
0000
,
1010
1000
1001
0000
0100
0010
0100
0000
,
1001
0001
0101
0000
0010
0100
0010
0000
,
0110
0001
0011
0000
0001
0010
0001
0000
,
0110
0100
1100
0000
1000
0100
1000
0100
,
1100
0010
0011
0000
0001
0100
1000
0000
,
0011
0100
1100
0000
1000
0100
0001
0000
,
0101
0010
1010
0000
0100
0001
0100
0000
,
1010
0100
0101
0000
0010
1000
0110
0000
,
1001
1000
0100
0001
0100
1000
1001
0000
,
1001
0001
0100
1000
0100
0001
1001
0000
,
1000
0100
0010
0001
0001
0010
0100
1000
,
1000
0001
1000
0001
1100
0000
1001
0000
,
0011
0100
1000
0100
0100
1000
0011
0000
,
1001
0100
0100
1000
0100
0100
1001
0000
,
1100
0010
0010
0100
0010
0010
1100
0000
,
1100
0000
0000
0000
0011
0000
0001
0000
0010
0000
0010
0000
0001
0010
0001
0010
;
