#TITLE:Polis;
#SUBTITLE:;
#ARTIST:Toshiji Kato;
#TITLETRANSLIT:;
#SUBTITLETRANSLIT:;
#ARTISTTRANSLIT:;
#GENRE:;
#CREDIT:;
#MENUCOLOR:;
#NEWMETERSYSTEM:NO;
#BANNER:Polis-bn.png;
#BACKGROUND:Polis-bg.png;
#LYRICSPATH:;
#CDTITLE:MixMania CD Title.png;
#MUSIC:Polis.mp3;
#OFFSET:-0.360;
#SAMPLESTART:39.160;
#SAMPLELENGTH:11.980;
#SELECTABLE:YES;
#LISTSORT:;
#BPMS:0.000=77.000;
#STOPS:48.000=1.580
;
#BGCHANGES:;
#ATTACKS:;

//---------------dance-single - ----------------
#NOTES:
     dance-single:
     :
     Easy:
     2:
     0.190,0.198,0.101,0.221,0.000:
0000
0000
0000
0000
,
0000
0000
0000
0000
,
2001
0000
0010
0010
,
3010
0100
1000
0010
,
0220
0000
0000
0030
,
0302
0000
2003
0000
,
3010
1001
0100
1001
,
1001
0001
0010
0100
,
2000
0001
3200
1000
,
0320
0001
0032
0100
,
2003
0100
0100
0010
,
3001
0010
0001
1000
,
0110
1000
0100
0001
,
0100
0010
1000
0100
,
1000
0200
0000
0300
,
1000
0001
0100
1000
,
0002
0003
2000
3000
,
0001
0100
0010
0100
,
2000
3000
0002
0003
,
1000
0100
1100
1000
,
0001
0010
0011
0100
,
0001
0100
0101
0001
,
0010
1000
1010
0010
,
2000
0000
0000
0000
,
0001
0001
0010
3001
,
1001
0010
0001
0010
,
0200
0301
0020
1030
,
0100
1000
0100
0001
,
2000
3100
0020
0031
,
0001
0010
0001
1000
,
0020
0130
2000
3001
,
1000
0100
0010
0001
,
0020
0031
0200
1000
,
0300
0000
0000
0000
;

//---------------dance-single - Copied from----------------
#NOTES:
     dance-single:
     Copied from:
     Medium:
     4:
     0.208,0.259,0.028,0.157,0.000:
0000
0000
0000
0000
,
0000
0000
0200
0000
,
1300
0000
0100
0000
0001
0000
0010
0001
,
0001
0010
0100
0001
,
0200
0000
0000
0000
,
1300
0000
0010
0000
1000
0100
1000
0000
,
0010
0000
0100
0000
0001
0000
0010
1000
,
0100
0100
1000
0010
,
0002
0023
0032
0203
,
2300
3020
0230
0302
,
1003
0000
0100
0000
1000
0000
0010
0001
,
0001
0100
0010
0100
,
1001
0100
1000
0100
,
0010
0000
0100
0000
0001
1000
0010
0100
,
0001
2002
0000
3003
,
0010
0000
0100
1000
0001
0000
0100
0000
,
0001
0000
1000
0010
0001
0000
0010
0000
,
0100
0001
1000
0100
,
0002
0003
2000
3000
,
0100
1000
0010
1000
1000
0000
0100
0000
,
0001
0010
0001
0100
0100
0000
0001
0000
,
1000
0010
0001
0100
0100
0000
0001
0000
,
0001
0010
0001
0100
0100
0000
1000
0000
,
2020
0000
0000
0000
,
0000
0000
0000
3030
,
0100
0000
1000
0100
0001
0000
0010
0000
,
0001
1000
0100
0010
,
1000
0000
0001
0100
1000
0000
0010
0000
,
0100
0000
0001
0000
1000
1000
0010
0000
,
0010
1000
0100
1000
0001
0000
0100
0000
,
0010
0001
1000
0001
0010
0000
0010
0000
,
0001
1000
1000
0010
0010
0000
0100
1000
,
0010
0000
1000
0001
0020
0000
0001
0000
,
0030
0000
0000
0000
;

//---------------dance-single - Copied from----------------
#NOTES:
     dance-single:
     Copied from:
     Beginner:
     1:
     0.094,0.107,0.111,0.055,0.000:
0000
0000
0000
0000
,
0000
0000
0000
0000
,
1001
0000
0000
0000
,
1001
0000
0000
0000
,
0100
0000
0000
0000
,
0010
0000
0001
0000
,
1001
0000
0000
0000
,
1001
0000
0000
0000
,
1000
0000
0000
0000
,
0100
0000
0010
0000
,
1001
0000
0000
0000
,
1001
0000
0000
0020
,
0030
0000
0100
0000
,
0001
0000
1000
0000
,
0000
2002
3003
0000
,
0010
0000
1000
0000
,
0001
0000
1000
0000
,
0010
0000
0000
0000
,
1000
0000
0100
0000
,
1000
1000
1000
0000
,
0001
0001
0001
0000
,
1000
1000
1000
0000
,
0010
0010
0010
0000
,
0220
0000
0000
0000
,
0000
0000
0330
0000
,
1001
0000
0100
0000
,
0010
0000
0001
0000
,
1001
0000
1000
0000
,
0100
0000
1000
0000
,
1001
0000
0010
0000
,
0001
0000
0100
0000
,
1001
0000
0010
0000
,
1000
0000
0002
0000
,
0003
0000
0000
0000
;

//---------------dance-single - Copied from----------------
#NOTES:
     dance-single:
     Copied from:
     Hard:
     5:
     0.244,0.244,0.092,0.111,0.000:
0000
0000
0000
0000
,
0010
0000
1000
0000
,
1002
0000
0000
0000
0010
0010
0010
0010
,
0013
0000
1000
0000
0001
0010
0001
0000
,
1001
0000
0100
0010
,
1000
0100
0001
0010
,
2001
0000
0000
0000
0100
0100
0100
0100
,
3100
0001
1000
0100
,
0020
0000
1000
0001
0001
0000
1000
0000
,
0130
0000
0100
0100
1000
0000
1000
0010
,
0001
0100
0001
1000
,
1010
0000
0100
0000
0001
1000
0010
0001
,
0100
0010
0001
1000
,
0100
0100
1000
0010
0200
0000
0302
0000
,
1003
0220
0000
0300
,
1030
0000
0100
0001
0010
0001
0100
0000
,
1000
0000
0001
0000
1000
0010
0001
0010
,
1000
0000
0100
0000
0001
0000
0001
0010
,
0001
0100
0001
1000
0200
0000
1000
1000
,
0310
0000
0100
1001
0100
0000
1000
0000
,
0001
0100
1000
1001
0100
0000
0001
0000
,
1000
0010
0001
1100
0001
0000
0010
0000
,
0100
1000
0100
0011
0100
0000
0001
0000
,
2002
0000
0000
0000
,
0000
0000
0000
3000
,
1003
0100
0010
1000
0001
0000
0100
0001
,
0010
0100
0001
1000
0100
0001
0020
0000
,
0130
1000
0001
0100
0010
0000
0001
0100
,
1000
0000
0010
1000
0100
0000
1000
0010
,
0001
0100
0001
1000
0010
0000
0100
1000
,
0100
0000
1000
0010
0001
0000
0100
0001
,
0010
0001
1000
1000
0100
0000
1000
0010
,
0001
0000
1000
0010
0200
0010
0001
1000
,
0300
0000
0000
0000
;

//---------------dance-single - Copied from ----------------
#NOTES:
     dance-single:
     Copied from:
     Challenge:
     7:
     0.420,0.396,0.184,0.221,0.217: // measure 1
0000
0000
0000
0000
,  // measure 2
0000
0000
0000
0000
,  // measure 3
1001
0000
0001
0000
0100
0100
0001
0010
,  // measure 4
0011
0100
0001
1000
0200
0000
1000
1000
,  // measure 5
1300
0010
0100
0001
,  // measure 6
2000
0000
0010
0010
3001
0100
0010
0010
,  // measure 7
0011
0000
0100
1000
0002
0010
0100
1003
,  // measure 8
1001
0000
1000
0100
0001
0010
0001
0100
,  // measure 9
0020
1000
2030
0100
3200
0001
0302
0010
,  // measure 10
0023
0100
0230
0001
0302
1000
2003
3010
,  // measure 11
1001
0010
0001
2000
3200
0320
0032
2003
,  // measure 12
3001
0010
0001
1000
0100
1000
1100
1010
,  // measure 13
1001
0000
0000
0100
0001
0000
0010
0000
0001
0000
1000
0100
1000
0000
0010
0000
,  // measure 14
1000
0000
0000
0001
0100
0000
0010
0000
1000
0000
0001
0100
1000
0100
0001
0000
,  // measure 15
0010
0100
2002
0000
0000
0000
0003
0001
,  // measure 16
3001
0000
0010
0001
1000
0000
0100
0000
1000
0000
0010
1000
0001
0100
0001
0000
,  // measure 17
0010
0000
0001
0100
1000
0000
0010
0000
0100
0000
1000
0000
0100
0001
0010
0000
,  // measure 18
0100
0000
1000
0000
0001
0000
0010
0001
0100
0000
0001
0000
0010
1000
0010
0000
,  // measure 19
0001
0000
0100
0000
1000
0000
0100
0001
0010
0000
0100
0000
0001
0000
0010
1000
,  // measure 20
0010
0000
1010
0000
0100
0000
1100
1100
1000
0000
0100
0000
0001
0000
0010
0001
,  // measure 21
0100
0000
0001
0000
0010
0000
0011
0011
0001
0000
0100
0000
1000
0000
0010
1000
,  // measure 22
0100
0000
0010
0000
0100
0000
1001
1001
0100
0000
0010
0000
1000
0000
0100
0001
,  // measure 23
0010
0000
0001
0000
0100
0000
0110
0110
0001
0000
0010
0000
1000
0000
0100
0000
,  // measure 24
2000
3002
0203
0320
,  // measure 25
0130
0000
0100
1000
0100
0000
0010
0000
0010
0000
0010
0001
0010
0000
0100
0000
,  // measure 26
1001
0000
0100
0000
1000
0100
0001
0010
0001
0000
0100
0000
0001
1000
0010
0100
,  // measure 27
0001
0000
1000
0000
0100
0000
0010
0000
1010
0000
0100
0000
1000
0010
0001
0000
,  // measure 28
0100
0000
0001
0000
1000
0010
1000
0100
1000
0010
1000
0000
0100
0000
0001
1000
,  // measure 29
0010
0000
0001
0000
0100
0000
0001
0000
0010
0000
0001
0000
0001
0010
0100
0001
,  // measure 30
0100
0000
1000
0000
0010
1000
0001
0100
0010
0000
0100
0000
1000
0000
0001
0000
,  // measure 31
0100
0000
0100
0000
0001
1000
0100
0000
0010
0000
0100
0000
1000
0001
0100
0001
,  // measure 32
0010
0000
0001
0000
0001
0010
0001
0100
0001
1000
0001
0000
0100
0000
0010
1000
,  // measure 33
0010
0000
0100
0000
0001
0010
0100
0000
0020
0000
1000
0130
2000
0001
0010
0100
,  // measure 34
3000
0000
0000
0000
;
