#TITLE:Outer Space;
#SUBTITLE:;
#ARTIST:Freezepop;
#TITLETRANSLIT:;
#SUBTITLETRANSLIT:;
#ARTISTTRANSLIT:;
#GENRE:;
#CREDIT:;
#MENUCOLOR:;
#NEWMETERSYSTEM:NO;
#BANNER:Outer Space-bn.png;
#BACKGROUND:Outer Space-bg.png;
#LYRICSPATH:;
#CDTITLE:;
#MUSIC:Outer Space.mp3;
#OFFSET:-1.200;
#SAMPLESTART:29.960;
#SAMPLELENGTH:19.000;
#SELECTABLE:YES;
#LISTSORT:;
#BPMS:0.000=150.000;
#STOPS:;
#BGCHANGES:;
#ATTACKS:;

//---------------dance-single - ----------------
#NOTES:
     dance-single:
     :
     Easy:
     2:
     0.179,0.181,0.039,0.102,0.000:
0000
0000
0000
0000
,
0000
0000
0000
0000
,
0000
0000
0000
0000
,
1000
0000
0001
0000
,
0000
0000
0010
0000
,
0100
0000
0000
1000
,
1000
0000
0100
0002
,
0000
0000
0023
0000
,
0000
1030
0000
0000
,
0100
0000
0010
2000
,
0000
0000
3020
0000
,
0000
0130
0000
0000
,
1000
0000
0010
0001
,
0000
0100
0000
1000
,
0000
0000
0000
1000
,
0100
0000
0010
0001
,
0000
0100
0000
0010
,
0000
0000
0000
0000
,
1001
0000
0010
0100
,
0000
1000
0100
0000
,
0000
0001
0000
0000
,
0001
0010
0000
1000
,
0000
0000
0100
0000
,
0000
0010
0000
0000
,
1000
0001
0000
0100
,
0000
0010
1000
0000
,
0000
0100
0000
0000
,
1000
0100
0010
0001
,
0000
0010
0000
0100
,
0000
0000
0000
0000
,
1001
0000
0010
0010
,
0000
0100
1000
0000
,
0000
0100
0000
0000
,
1001
0000
0001
1000
,
0000
1000
0100
0000
,
0000
0010
0000
0000
,
0110
0000
0001
0010
,
0000
0000
1000
0000
,
0000
0100
0000
0000
,
1100
0000
0010
0001
,
0000
0000
0010
0000
,
0000
0001
0000
0000
,
0020
0000
0000
0032
,
0000
0000
2003
0000
,
0000
3000
0000
1000
,
0200
0000
0000
0320
,
0000
0000
0032
0000
,
0000
0003
0000
0010
,
0002
0000
0000
2003
,
0000
0000
3200
0000
,
0000
0300
0000
0000
,
0000
0100
0001
0000
,
1000
0100
0000
0001
,
0100
0000
0010
1000
,
0000
0100
1000
0000
,
0010
0001
0000
0001
,
1000
0000
1000
0100
,
0000
0100
0010
0000
,
0010
1000
0000
0001
,
1000
0000
1000
0001
,
0000
0010
0100
0000
,
1000
0001
0000
0010
,
0001
0000
0001
0100
,
0000
0100
0010
0000
,
1000
0100
0000
0010
,
1000
0000
0000
0000
,
0001
0000
1000
0010
,
0000
0001
0100
0000
,
0000
0000
0000
0000
,
1000
0000
0010
0001
,
0000
0100
1000
0000
,
0000
0010
0000
0000
,
0100
0000
0001
1000
,
0000
1000
0001
0000
,
0000
0000
0000
0000
,
0010
0000
1000
0010
,
0000
0100
0000
0010
;

//---------------dance-single - Copied from----------------
#NOTES:
     dance-single:
     Copied from:
     Beginner:
     1:
     0.099,0.181,0.000,0.063,0.000:
0000
0000
0000
0000
,
0000
0000
0000
0000
,
0000
0000
0000
0000
,
0010
0000
0000
0000
,
0000
0000
0010
0000
,
0000
0000
0000
1000
,
1000
0000
0000
0001
,
0000
0000
0010
0000
,
0000
0000
0000
0000
,
0001
0000
0000
1000
,
0000
0000
0100
0000
,
0000
0000
0000
0000
,
0010
0000
0000
1000
,
0000
0000
0000
0010
,
0000
0000
0000
0000
,
0001
0000
0000
0100
,
0000
0000
0000
1000
,
0000
0000
0000
0000
,
1000
0000
0000
0100
,
0000
0000
0001
0000
,
0000
0000
0000
0000
,
0100
0000
0000
0010
,
0000
0000
1000
0000
,
0000
0000
0000
0000
,
0001
0000
0000
1000
,
0000
0000
0010
0000
,
0000
0000
0000
0000
,
0010
0000
0000
0100
,
0000
0000
0000
1000
,
0000
0000
0000
0000
,
0002
0000
0000
0003
,
0000
0000
2000
0000
,
0000
3000
0000
0000
,
0200
0000
0000
0300
,
0000
0000
0020
0000
,
0000
0030
0000
0000
,
0200
0000
0000
0300
,
0000
0000
0002
0000
,
0000
0003
0000
0000
,
0020
0000
0000
0030
,
0000
0000
2000
0000
,
0000
3000
0000
0000
,
0100
0000
0000
0100
,
0000
0000
0100
0000
,
0000
0000
0000
0000
,
0001
0000
0000
0001
,
0000
0000
0001
0000
,
0000
0000
0000
1000
,
1000
0000
0000
1000
,
0000
0000
1000
0000
,
0000
0000
0000
0000
,
0000
0010
0010
0000
,
0010
0010
0000
0100
,
0100
0000
0100
0100
,
0000
0001
0000
0000
,
1000
0000
0000
0010
,
0000
0000
0100
0000
,
0000
0001
0000
0000
,
0010
0000
0000
0001
,
0000
0000
1000
0000
,
0000
0100
0000
0000
,
0010
0000
0000
0100
,
0000
0000
0001
0000
,
0000
1000
0000
0000
,
0100
0000
0000
0010
,
0000
0000
0000
0000
,
0001
0000
0000
0010
,
0000
0000
1000
0000
,
0000
0000
0000
0000
,
0100
0000
0000
0010
,
0000
0000
0100
0000
,
0000
0000
0000
0000
,
1000
0000
0000
0001
,
0000
0000
0010
0000
,
0000
0000
0000
0000
,
0100
0000
0000
0010
,
0000
0000
0000
0001
;

//---------------dance-single - Copied from----------------
#NOTES:
     dance-single:
     Copied from:
     Medium:
     3:
     0.222,0.241,0.000,0.094,0.000:
0000
0000
0000
0000
,
0000
0000
0000
0000
,
0000
0000
0000
0000
,
1000
0001
0000
0010
0000
0000
0000
0000
,
0000
0000
0000
0000
0001
1000
0000
0100
,
0000
0000
0000
0010
,
0010
1000
0100
0001
,
0000
0100
1000
0000
,
0001
0100
0000
0000
,
0010
0001
0100
0010
,
0000
1000
0100
0000
,
0001
0010
0000
0000
,
1000
0001
0010
0001
,
0000
1000
0001
0100
,
0000
0010
0000
0001
,
1000
0100
1000
0010
,
0000
0100
0001
0010
,
0000
0100
0000
0000
,
0001
1000
0010
0100
,
0000
1000
0100
0000
,
0010
0001
0000
0000
,
0100
0010
1000
0100
,
0000
0010
0001
0000
,
0001
1000
0000
0000
,
0010
1000
0100
0001
,
0000
0010
0001
0000
,
0000
0100
0000
0000
,
1000
0100
0001
1000
,
0000
0100
1000
0010
,
0000
0100
0000
1000
,
0002
0000
1000
2003
,
0000
3100
0020
0000
,
0000
0031
0000
0000
,
0002
0000
1000
0023
,
0000
0000
0230
0000
,
0000
0310
0000
0000
,
2000
0000
0001
3002
,
0000
1000
0203
0000
,
0000
0310
0000
0000
,
0002
0000
0010
0203
,
0000
1000
0302
0000
,
0000
0003
0000
0000
,
1000
0000
0001
1000
,
0000
1000
0001
0000
,
0010
0001
0000
0100
,
1000
0000
1000
0010
,
0000
0010
0100
0000
,
1000
0001
0010
0001
,
0100
0000
0010
1000
,
0000
1000
0100
0000
,
1000
0001
0000
0000
,
0010
0001
0100
0000
,
1000
0100
0000
0010
,
1000
0000
0100
0001
,
0010
0001
0100
1000
,
0100
1000
0010
0000
,
0001
0001
0000
0000
,
0010
1000
0100
0001
,
0000
0100
1000
0000
,
1000
0100
0000
0010
,
0001
0100
0001
0010
,
0000
1000
0100
0000
,
0000
1000
0000
0010
,
0001
0100
0001
1000
,
0000
1000
0100
0000
,
1000
0010
0000
0000
,
0100
1000
0001
0010
,
0000
0100
0100
0000
,
0000
0000
0000
0000
,
1000
0010
0001
0010
,
0000
0001
0100
0000
,
0000
0000
0000
0000
,
0010
0100
0010
0100
,
0000
0001
1000
0000
,
0000
0000
0000
0000
,
0001
0010
0000
0000
1000
0000
0001
0000
,
0000
0001
1000
0100
;

//---------------dance-single - Copied from Copied f----------------
#NOTES:
     dance-single:
     Copied from Copied f:
     Hard:
     5:
     0.358,0.422,0.071,0.189,0.000:
0000
0000
0000
0000
,
0000
0000
0000
0000
,
0000
0000
0000
0000
,
0001
0100
0000
0001
0000
0000
1000
0000
,
0100
0000
1000
0000
0010
1000
0000
0100
,
0000
0001
1000
0100
,
0100
0010
0001
2000
,
0100
0100
3002
0100
,
0100
0103
0000
0010
,
1000
0100
0001
0020
,
0001
0031
0200
1000
,
1000
1300
0010
1000
,
0100
0001
0010
0002
,
1000
1000
2003
0001
,
0001
3001
0010
0001
,
0100
0001
1000
0000
0010
0000
0100
0000
,
0001
1000
0200
0010
,
0010
0310
0000
1000
,
0001
0100
0010
1000
,
0100
0000
1000
0000
0100
0000
0010
0001
,
0010
0100
0001
1000
,
0010
0100
0001
1000
,
0100
0000
1000
0000
0010
0000
1000
0001
,
1000
0000
0110
0000
0000
1001
0000
0000
,
0010
0001
0100
1000
,
0010
0100
0001
0010
,
0001
0000
1001
0000
0100
0000
1000
0001
,
0010
0001
1000
0000
0100
0000
0001
0000
,
1000
0100
1000
0010
,
0100
1001
0100
0010
,
2000
3200
0320
0032
,
1003
0000
0100
0010
0100
0000
0001
0000
,
1000
0100
0000
0010
,
0002
0023
0230
2300
,
3100
0000
0010
0001
1000
0000
0100
0000
,
1000
0010
0000
0100
,
1001
0010
0100
1001
,
0100
0000
0010
0001
1000
0000
0100
0000
,
0010
1000
0000
0100
,
0110
1000
0001
0110
,
1000
0000
0001
1000
0100
0000
0010
0000
,
0001
0100
1000
0010
,
2000
0000
3001
0020
,
0000
0031
0200
0000
,
1300
0001
1000
0000
0000
0000
0100
0010
,
0002
0000
1003
0200
,
0000
1300
0020
0000
,
0031
0100
0001
0000
0000
0000
1000
0001
,
0020
0000
0130
2000
,
0000
3100
0200
0000
,
1300
0100
0010
0000
0000
0000
0100
0000
,
0001
0000
1000
0100
1000
0000
0000
0000
,
0001
0010
0001
0000
0000
0000
0100
0010
,
0100
0000
0000
0000
0001
1000
0001
0000
,
0000
0000
0100
0010
0001
0000
0000
0000
,
0010
1000
0100
0000
0100
0000
0010
0000
,
0001
1000
0001
0100
,
1000
0000
0010
1000
0010
0000
0000
0000
,
0010
0001
0010
0000
0000
0000
0100
0000
,
0001
1000
0010
0100
,
0001
0000
0010
0100
0010
0000
0000
0000
,
0001
1000
0001
0000
0100
0000
0010
0000
,
1000
0100
0010
0001
,
0000
0000
1000
0001
0010
0000
0000
0000
,
0001
1000
0010
0000
0100
0000
0010
0000
,
0001
1000
0000
0000
,
0001
1000
0001
0010
,
0001
1000
0100
0001
,
0010
1000
0000
0000
,
0100
0010
0001
0100
,
0001
0010
1000
0100
,
0001
0010
0000
0000
,
1000
0100
1000
0001
,
0010
0001
0100
0010
,
0100
0001
0000
0000
,
0100
0001
0000
0000
0100
0000
0010
0000
,
0001
1000
0010
1001
;

//---------------dance-single - Copied from Copied from Copied f----------------
#NOTES:
     dance-single:
     Copied from Copied from Copied f:
     Challenge:
     7:
     0.402,0.392,0.039,0.102,0.000: // measure 1
0000
0000
0000
0000
,  // measure 2
0000
0000
0000
0000
,  // measure 3
0000
0000
0000
0000
,  // measure 4
1000
0010
0100
0010
0001
0000
0100
0000
,  // measure 5
0010
0000
1000
0000
0001
1000
0100
1000
,  // measure 6
0001
0000
0100
0000
0010
0000
1000
0001
,  // measure 7
0100
0000
0010
0001
0010
0000
1000
0000
,  // measure 8
0100
0000
1000
0010
0001
0000
0100
0000
,  // measure 9
0010
1000
0001
0100
,  // measure 10
0001
0010
0100
0000
0001
0000
1100
0000
,  // measure 11
1000
0000
0010
1000
0001
0000
0100
0000
,  // measure 12
0010
0100
0001
0000
1000
0000
0001
0000
,  // measure 13
0010
0000
0100
1000
0100
0000
0001
0000
,  // measure 14
1000
0100
0010
0000
0001
0000
1000
0001
,  // measure 15
0010
0100
0001
0000
1000
0000
0100
0000
,  // measure 16
0010
0000
1000
0010
0001
0000
0100
0000
,  // measure 17
0010
0000
0010
1000
0100
0000
0100
0000
,  // measure 18
1000
0010
0001
0000
0100
0000
0001
0000
,  // measure 19
1000
0000
0001
0000
0100
0001
0010
0000
,  // measure 20
0010
0000
0100
0001
1000
0000
0100
0000
,  // measure 21
1000
0010
1000
0000
0100
0000
1000
0000
,  // measure 22
0001
0000
0100
0010
0001
1000
0001
0000
,  // measure 23
0100
0001
1000
0000
0110
0000
1000
0001
,  // measure 24
0100
0010
0100
0001
,  // measure 25
1000
0000
0100
1000
0001
0000
0100
0000
,  // measure 26
0010
0000
0001
0010
0100
0000
1000
0000
,  // measure 27
0001
0000
1000
0000
0001
0000
0100
1000
,  // measure 28
0010
1000
0001
0000
0100
0000
0100
0000
,  // measure 29
1000
0001
0100
0010
,  // measure 30
1000
1001
0000
0000
,  // measure 31
0010
1000
0100
0001
0100
0010
1000
0000
,  // measure 32
0100
0000
1000
0010
0001
0000
0100
0000
,  // measure 33
0001
0010
0100
0001
,  // measure 34
0010
0001
0100
0001
1000
0100
1000
0000
,  // measure 35
0010
0000
0100
1000
0001
0000
0100
0000
,  // measure 36
0010
1000
0100
0001
,  // measure 37
0010
0100
1000
0001
0100
0010
1000
0000
,  // measure 38
0100
0000
0001
1000
0001
0000
0100
0000
,  // measure 39
0010
1000
0001
0100
,  // measure 40
0010
1000
0100
1000
0010
0100
0001
0000
,  // measure 41
0010
0000
0001
1000
0001
0000
0010
0000
,  // measure 42
0100
0001
1000
0100
,  // measure 43
0020
0000
0000
0000
1030
0001
2000
0000
,  // measure 44
0000
0000
3100
1000
0020
0000
0000
0000
,  // measure 45
0000
0000
0031
0000
0000
0000
0100
0010
,  // measure 46
0200
0000
0000
0000
0301
0100
0002
0000
,  // measure 47
0000
0000
0013
0001
2000
0000
0000
0000
,  // measure 48
0000
0000
3100
0000
0000
0000
0010
1000
,  // measure 49
0002
0000
0000
0000
0103
0001
0020
0000
,  // measure 50
0000
0000
0130
0001
2000
0000
0000
0000
,  // measure 51
0000
3100
0000
0000
,  // measure 52
0000
1000
0100
0010
0001
0000
0000
0001
,  // measure 53
0010
0100
1000
0000
0000
1000
0100
0010
,  // measure 54
0001
0000
0000
0001
0010
0100
1000
0000
,  // measure 55
1001
0000
0100
0010
0100
0000
0001
0000
,  // measure 56
1000
0010
0100
0000
0001
0000
1000
0100
,  // measure 57
0001
0000
0010
0000
0100
0001
0010
0000
,  // measure 58
0100
0000
0001
0010
1000
0000
0001
0000
,  // measure 59
1000
0100
1000
0000
1000
0000
0100
0001
,  // measure 60
0010
0000
0001
0000
1000
0001
1000
0000
,  // measure 61
0010
0000
0100
0010
0100
0000
1000
0000
,  // measure 62
0100
0010
1000
0000
0100
0000
0001
1000
,  // measure 63
0001
0000
0010
0000
0001
1000
0100
0000
,  // measure 64
0001
0000
1000
0100
1000
0000
0010
0000
,  // measure 65
0010
0001
1000
0000
0100
0000
0010
1000
,  // measure 66
0001
0100
0010
0001
,  // measure 67
1000
0100
1000
0020
,  // measure 68
0000
1030
0200
0000
,  // measure 69
0001
1300
0000
0000
,  // measure 70
0010
0001
1000
0200
,  // measure 71
0000
0010
1300
0001
,  // measure 72
0100
0001
0000
0000
,  // measure 73
1000
0100
0001
0020
,  // measure 74
0000
0001
1030
0100
,  // measure 75
0010
1000
0000
0000
,  // measure 76
0001
0010
0100
0000
0001
0000
0100
0000
,  // measure 77
1000
0001
1000
0110
;
