#TITLE:Occhi dwue tun;
#SUBTITLE:;
#ARTIST:Ahn Sungyoon;
#TITLETRANSLIT:;
#SUBTITLETRANSLIT:;
#ARTISTTRANSLIT:;
#GENRE:;
#CREDIT:;
#MENUCOLOR:;
#NEWMETERSYSTEM:NO;
#BANNER:Occhi dwue tun-bn.png;
#BACKGROUND:Occhi dwue tun-bg.png;
#LYRICSPATH:;
#CDTITLE:MixMania CD Title.png;
#MUSIC:Occhi dwue tun.mp3;
#OFFSET:0.240;
#SAMPLESTART:64.360;
#SAMPLELENGTH:12.000;
#SELECTABLE:YES;
#LISTSORT:;
#BPMS:0.000=169.000;
#STOPS:;
#BGCHANGES:;
#ATTACKS:;

//---------------dance-single - ----------------
#NOTES:
     dance-single:
     :
     Easy:
     3:
     0.284,0.335,0.035,0.138,0.000:
0000
0000
0000
0000
,
0100
0010
0001
0000
,
1000
0000
0010
0000
,
0100
1000
0001
0000
,
0010
0000
0100
1000
,
0100
0000
0001
0000
,
1000
0010
0001
0000
,
0100
0000
0001
0000
,
1000
0000
0100
0100
,
1000
0100
0001
0000
,
0010
0000
0001
0000
,
0000
1000
0001
1000
,
0000
0001
1000
0001
,
0100
0000
0010
0000
,
1000
0010
0001
1000
,
0000
0010
0100
0010
,
0000
0100
0010
0100
,
0000
1000
0000
0100
,
0001
0010
0000
0001
,
0000
0100
0000
0010
,
1000
0100
0000
1000
,
0000
0001
0000
0010
,
0100
1000
0000
0001
,
0000
1000
0000
0010
,
0100
0001
0000
0010
,
0100
0001
1000
0000
,
0010
0000
0001
0100
,
0010
1000
0100
0000
,
1000
0000
1000
0100
,
0010
0000
0001
0000
,
0100
0010
1000
0000
,
0000
1000
0100
0010
,
0000
0001
0010
0100
,
0000
0001
0000
1000
,
0100
0010
0001
0000
,
0000
0010
0001
0100
,
0000
0010
1000
0100
,
0000
1000
0000
0001
,
1000
0010
0000
0100
,
0000
1000
0000
0100
,
1000
0010
0000
0100
,
0000
0001
0000
1000
,
0010
0001
0000
0100
,
0000
0001
0000
0010
,
0001
1000
0100
0100
,
0000
1001
0000
0100
,
1000
0010
0100
0000
,
0001
0000
2000
0000
,
3002
0000
0023
0000
,
0032
0103
0100
1000
,
0001
0000
0010
0000
,
0100
0001
0020
0000
,
0230
0000
0302
0000
,
2003
3100
0001
0010
,
0001
0000
1000
0000
,
0001
0100
0200
0000
,
0302
0000
2003
0000
,
3020
0130
1000
0001
,
0100
0000
0001
0000
,
1000
0010
0002
0000
,
2003
0000
3200
0000
,
0320
0000
1030
0001
,
0100
0000
0001
0000
,
1000
0000
0100
0010
,
0001
0010
0100
0000
,
1001
0000
0100
1000
,
0100
0000
0010
0000
,
0001
1000
0100
1000
,
0001
0010
0001
0000
,
1001
0000
0001
1000
,
0001
0000
0010
1000
,
0001
0000
1000
0000
,
0001
0010
0100
0000
,
1001
0000
1000
0010
,
0001
0000
0010
1000
,
0001
0100
1000
0000
,
0001
0000
0010
0010
,
1000
0001
0010
0000
;

//---------------dance-single - Copied from----------------
#NOTES:
     dance-single:
     Copied from:
     Beginner:
     1:
     0.127,0.169,0.017,0.078,0.000:
0000
0000
0000
0000
,
0100
0000
0000
0000
,
1000
0000
0000
0000
,
0001
0000
0000
0000
,
0010
0000
0000
0100
,
0100
0000
0000
0000
,
1000
0000
0000
0000
,
0001
0000
0000
0000
,
0010
0000
0100
0000
,
0100
0000
1000
0000
,
0001
0000
0000
0000
,
0010
0000
0001
0000
,
1000
0000
0100
0000
,
0100
0000
0000
0000
,
1000
0000
0000
0000
,
0010
0000
0001
0000
,
0010
0000
0001
0000
,
2000
0000
0000
0000
,
3000
0000
0000
0000
,
0002
0000
0000
0000
,
0003
0000
0000
0000
,
0020
0000
0000
0000
,
0030
0000
0000
0000
,
0200
0000
0000
0000
,
0300
0000
0000
0000
,
1000
0000
0000
0000
,
0010
0000
0000
0000
,
0100
0000
0000
0000
,
0001
0000
0000
0010
,
0010
0000
1000
0000
,
0001
0000
0000
0000
,
0100
0000
1000
0000
,
0010
0000
0000
0000
,
0100
0000
0001
0000
,
1000
0000
0000
0000
,
0100
0000
1000
0000
,
1000
0000
0000
0000
,
0020
0000
0000
0000
,
0030
0000
0000
0000
,
2000
0000
0000
0000
,
3000
0000
0000
0000
,
0200
0000
0000
0000
,
0300
0000
0000
0000
,
0002
0000
0000
0000
,
0003
0000
0000
0000
,
0000
1001
0000
0000
,
0001
0000
1000
0000
,
0000
0000
0010
0000
,
0000
0000
1000
0000
,
0000
0000
0001
0000
,
0100
0000
1000
0000
,
0000
0000
0100
0000
,
0000
0000
0001
0000
,
0000
0000
0010
0000
,
1000
0000
0100
0000
,
0000
0000
1000
0000
,
0000
0000
0010
0000
,
0000
0000
0100
0000
,
0010
0000
0100
0000
,
0000
0000
1000
0000
,
0000
0000
0001
0000
,
0100
0000
0110
0000
,
1000
0000
0001
0000
,
0000
0000
0100
0000
,
0000
0000
0001
0000
,
0000
0000
1000
0000
,
0001
0000
0010
0000
,
0000
0000
0001
0000
,
0000
0000
0100
0000
,
0000
0000
0001
0000
,
0100
0000
1000
0000
,
0000
0000
1000
0000
,
0000
0000
0001
0000
,
0000
0000
1000
0000
,
0001
0000
1000
0000
,
0000
0000
0010
0000
,
1000
0000
0001
0000
,
0100
0000
0020
0000
,
0000
0030
0000
0000
;

//---------------dance-single - Copied from----------------
#NOTES:
     dance-single:
     Copied from:
     Medium:
     5:
     0.428,0.436,0.035,0.329,0.000:
0000
0000
0000
0000
,
1000
0100
0001
0010
,
0001
0100
1000
0000
,
0010
1000
0100
1000
,
0001
0100
0001
0100
,
0101
1000
0100
0001
,
0010
0100
0001
1000
,
0100
0001
0100
0010
,
1000
0001
1001
1001
,
0010
0100
0001
1000
,
0100
0001
1000
0100
,
0010
0000
0001
0000
0100
0000
0001
1000
,
0000
0000
0100
0000
1000
0000
0010
0001
,
0000
0100
0001
1000
,
0010
0100
0001
1000
,
0100
0000
0010
0000
1000
0000
0100
1000
,
0000
0100
0001
0010
,
0002
0103
2000
3100
,
0020
0031
2000
3010
,
0002
1003
0020
0031
,
0200
0310
0200
1300
,
0020
1030
0200
0301
,
0020
0130
2000
3001
,
0020
0130
2000
3100
,
0002
0013
0200
0310
,
0010
0001
1000
0100
,
1000
0001
0010
0100
,
0001
1000
0010
0100
,
1000
0000
0001
0000
0100
0000
0010
1000
,
0100
0001
1000
0100
,
0010
0001
1000
0100
,
1000
0000
0010
0000
0001
0000
0100
0010
,
0000
0000
0001
0000
1000
0000
0100
1000
,
0000
0010
0001
0100
,
1000
0100
1000
0010
,
0100
0000
0001
0000
1000
0000
0100
0010
,
0000
0001
0100
1000
,
0020
1030
0200
0310
,
0002
1003
0020
0130
,
2000
3010
0200
0310
,
0002
1003
0020
0031
,
2000
3100
0020
1030
,
0002
0013
0200
0310
,
2000
3100
0002
0013
,
0020
1030
0200
1300
,
0010
1001
0100
1000
,
0001
0000
0010
0000
0001
0000
0100
1000
,
0000
0000
0100
0000
0010
0000
1000
0001
,
0000
0000
0010
0000
0001
0000
0100
1000
,
0000
0100
0010
1000
,
0001
0000
0100
0000
1000
0000
0100
0001
,
0000
0000
0010
0000
0001
0000
0100
1000
,
0000
0000
0010
0000
0100
0000
0001
0100
,
0000
0010
0001
1000
,
0100
0000
0010
0000
0001
0000
0010
1000
,
0000
0000
0100
0000
0001
0000
1000
0010
,
0000
0000
0001
0000
1000
0000
0100
0001
,
0000
0010
0001
0100
,
0001
0000
0010
0000
1000
0000
1000
0100
,
0000
0000
0010
0000
1000
0000
0010
0001
,
0000
0010
0001
0100
,
0002
0000
0000
0003
0000
0000
1000
0000
0100
0000
0000
0000
0100
0000
0000
0000
,
0010
0000
1000
0000
0001
0000
0010
0200
,
0000
0300
0000
0000
1000
0000
0100
0000
,
0010
0001
1000
0100
,
0010
0001
1000
0001
,
0100
0000
0010
0000
1000
0000
0010
0002
,
0000
0003
0000
0000
0001
0000
0010
0000
,
0100
1000
0001
0010
,
0100
1000
0001
0100
,
0010
0000
1000
0000
0100
0000
0100
2000
,
0000
3000
0000
0000
0100
0000
0010
0000
,
1000
0001
0100
0010
,
1000
0001
0010
0001
,
1000
0000
0100
0000
0001
0000
0010
0200
,
0000
0300
1000
0000
0100
0000
0010
0001
,
0000
1000
0000
0000
0010
0000
0001
0000
,
2000
0000
0000
3000
0000
0000
0001
0000
1000
0000
0000
0000
0000
0000
0000
0000
;

//---------------dance-single - Copied from Copied f----------------
#NOTES:
     dance-single:
     Copied from Copied f:
     Hard:
     6:
     0.449,0.369,0.017,0.000,0.013:
0000
0000
0000
0000
,
1001
0100
0001
0010
,
1000
0000
0100
0000
1000
0000
0010
1000
,
0100
0001
0100
0001
,
0010
0000
0100
0000
0001
1000
0001
1000
,
0100
1000
0010
0001
,
0100
0000
0001
0000
0010
0000
0100
0001
,
0010
0100
0001
1000
,
0100
0000
0000
0000
1000
0000
0000
0000
0010
0000
0000
1000
0000
0000
0001
0000
,
0010
0000
0100
0000
1000
0000
0100
0001
,
0000
0010
0000
0001
0000
1000
0100
0010
,
0001
0000
1000
0000
0010
0000
1000
0100
,
0000
0000
1000
0000
0010
0000
0001
0010
,
0100
0000
0001
0000
1000
0000
0100
1000
,
0000
0001
0000
0010
0000
0010
0001
0010
,
1000
0000
0100
0000
0001
0000
0010
0001
,
0000
0000
0100
0000
0001
0000
1000
0100
,
1000
0010
0100
0001
,
1000
0000
0100
0010
0001
0010
0100
0000
,
0001
1000
0100
1000
,
0010
0000
0100
0000
1000
0100
0010
0000
,
1000
0001
0100
0010
,
0001
0000
0100
1000
0100
0010
0100
0000
,
1000
0001
1000
0100
,
0010
0000
0001
0000
1000
0001
0100
0000
,
0010
0000
0100
1000
0000
0001
0000
0100
,
0000
0001
0000
0010
0000
0001
0010
0000
,
0100
0000
0001
1000
0000
0100
0000
1000
,
0000
0010
0000
1000
0000
0100
0000
1000
,
0100
0000
0001
0000
0010
0000
0001
0100
,
0000
0010
0000
1000
0000
0100
1000
0000
,
0100
0000
1000
0000
0100
0000
0010
0001
,
0000
0000
0001
0000
0010
0000
0100
1000
,
0100
0000
1000
0000
0001
0000
0100
0010
,
0000
0100
0000
0010
0000
1000
0100
0000
,
1000
0000
0001
0000
0100
0000
0010
1000
,
0000
0000
1000
0000
0010
0000
0100
0001
,
0010
0100
0001
1000
,
0010
0000
0100
0000
0001
1000
0010
0000
,
0100
1000
0001
0100
,
0010
0000
0001
0000
1000
0001
0010
0000
,
0100
0001
1000
0100
,
1000
0000
0010
0000
0010
1000
0100
0000
,
0001
1000
0100
1000
,
0010
0000
1000
0000
0100
0010
0001
0000
,
0100
1001
1000
0100
,
0001
0000
1000
0000
0100
0000
0010
0001
,
0100
0000
1000
0000
0010
0000
0100
1000
,
0100
0000
1000
0000
0100
0000
0010
0001
,
0010
0100
0001
0000
1000
0000
0100
0000
,
0010
0000
1000
0000
0100
0000
1000
0010
,
0001
0000
0100
0000
0001
0000
0100
1000
,
0100
0000
0010
0000
0001
0000
0100
0001
,
0010
1000
0100
0000
0001
0000
1000
0000
,
0100
0000
0010
0000
1000
0000
0001
1000
,
0010
0000
0100
0000
0001
0000
1000
0001
,
1000
0000
0100
0000
0001
0000
0001
1000
,
0001
0010
0100
0000
0010
0000
1000
0000
,
0100
0000
0001
0000
0100
0000
1000
0010
,
0001
0000
0100
0000
0001
0000
0001
0010
,
0001
0100
0010
1000
,
0100
0000
0000
0001
0000
0000
1000
0000
0100
0000
0000
0000
0010
0000
0000
0000
,
0001
0000
1000
0000
0100
0000
0010
1000
,
0100
0000
0001
0000
0100
0000
0010
0001
,
1000
0000
0100
0000
0001
0000
0100
1000
,
0010
0001
0100
0010
,
0001
0000
1000
0000
0100
0000
0010
0001
,
1000
0000
0100
0000
0010
0000
0100
0010
,
1000
0000
0001
0000
0100
0000
0010
0100
,
1000
0001
0100
0010
,
0100
0000
0001
0000
1000
0000
0010
0001
,
0010
0000
0100
0000
0001
0000
1000
0010
,
0100
0000
0010
0000
0001
0000
0100
0001
,
1000
0010
0100
0001
,
1000
0000
0001
0000
0100
0000
1000
0100
,
1000
0000
0100
0000
0010
0000
0001
0010
,
1000
0100
0001
0100
,
1000
0000
0000
0100
0000
0000
0010
0000
0001
0000
0000
0000
0000
0000
0000
0000
;

//---------------dance-single - Copied from Copied f----------------
#NOTES:
     dance-single:
     Copied from Copied f:
     Challenge:
     8:
     0.562,0.469,0.138,0.000,0.013: // measure 1
0000
0000
0000
0000
,  // measure 2
1001
0001
0010
0001
0000
0100
0000
0001
,  // measure 3
0000
1000
0000
0100
0000
0000
1000
0000
,  // measure 4
0010
1000
0100
1000
0000
0010
0000
0100
,  // measure 5
0000
0001
0000
0010
0000
0001
0100
0001
,  // measure 6
1000
0100
1000
0010
0000
1000
0000
0100
,  // measure 7
0000
1000
0000
0010
0000
0000
0100
0000
,  // measure 8
0001
0010
0001
0100
0000
1000
0000
0010
,  // measure 9
0000
0000
0001
0000
0100
0000
0001
0000
1000
0000
0000
0100
0000
0000
0010
0000
,  // measure 10
0001
0000
0010
0000
0100
1000
0100
0001
,  // measure 11
0000
0100
0000
0001
0000
0010
0001
0100
,  // measure 12
0001
1000
0010
1000
0100
1000
0010
1000
,  // measure 13
0000
0100
1000
0010
0100
0001
0010
0001
,  // measure 14
0100
0000
0001
0000
0001
0010
0001
0100
,  // measure 15
0000
0010
0000
1000
0000
0100
0001
1000
,  // measure 16
0010
0001
0100
0010
1000
0100
0001
0010
,  // measure 17
0000
0001
1000
0010
0100
0001
0010
0001
,  // measure 18
0100
1000
0010
0100
0000
0001
0010
0001
,  // measure 19
0000
1000
0010
0100
0000
1000
0010
0001
,  // measure 20
0000
0100
0001
0010
0000
0100
1000
0010
,  // measure 21
0000
0100
0001
0010
1000
0100
1000
0000
,  // measure 22
0010
1000
0100
0010
0000
0001
0010
0001
,  // measure 23
0000
1000
0100
1000
0000
0010
0100
1000
,  // measure 24
0001
0010
0001
0100
0000
1000
0010
0100
,  // measure 25
0000
0001
0100
0010
1000
0000
0001
0000
,  // measure 26
0100
0001
0010
0001
0000
0100
0000
1000
,  // measure 27
0000
0010
0000
1000
0000
0100
1000
0010
,  // measure 28
1000
0100
0010
0001
0000
0010
0000
0001
,  // measure 29
0000
0100
0000
0001
0000
0010
0001
0010
,  // measure 30
0001
0000
1000
0000
1000
0100
0010
0001
,  // measure 31
0000
0100
0000
1000
0000
0100
1000
0010
,  // measure 32
1000
0100
0010
0001
0100
0010
0001
0100
,  // measure 33
0000
0010
1000
0001
0010
0100
1000
0010
,  // measure 34
0100
0000
0001
0000
1000
0010
0100
0001
,  // measure 35
0000
0010
0000
0100
0000
1000
0100
1000
,  // measure 36
0010
0001
0100
0010
1000
0001
0100
0010
,  // measure 37
0000
0001
1000
0100
1000
0010
0001
0100
,  // measure 38
0001
0100
1000
0100
0000
0001
0010
1000
,  // measure 39
0000
1000
0100
0010
0000
0001
0100
0010
,  // measure 40
0000
1000
0010
0001
0000
0100
1000
0100
,  // measure 41
0000
0010
1000
0001
0000
1000
0001
1000
,  // measure 42
0000
0010
0100
0001
0000
0100
0010
1000
,  // measure 43
0000
0100
0001
1000
0000
0010
1000
0010
,  // measure 44
0001
0100
0001
0100
0000
1000
0010
0100
,  // measure 45
0000
0001
1000
0100
0010
0000
1000
0000
,  // measure 46
1000
0001
1001
1000
0100
0000
0001
0000
,  // measure 47
0011
0000
0100
0000
1000
0000
0010
0100
,  // measure 48
0001
0000
0010
1000
0100
0000
0010
0001
,  // measure 49
0000
0001
0010
0100
1000
0000
0010
0100
,  // measure 50
0000
1000
0100
0010
0001
0000
0010
0000
,  // measure 51
1100
0000
0100
0000
0010
0000
1000
0100
,  // measure 52
1000
0000
0010
0000
0100
0000
0001
0010
,  // measure 53
0000
0001
1000
0100
1000
0000
0010
0001
,  // measure 54
0000
0100
0001
0010
1000
0000
0100
0000
,  // measure 55
1001
0000
0010
0000
0100
0000
0100
0010
,  // measure 56
1000
0000
0001
0100
0001
0000
0010
1000
,  // measure 57
0000
0100
1000
0010
0001
0000
0100
0001
,  // measure 58
0000
0010
1000
0010
0001
0000
0001
0000
,  // measure 59
0110
0000
1000
0000
0001
0000
1000
0010
,  // measure 60
1000
0000
0001
0100
0010
0000
1000
0100
,  // measure 61
0000
0010
1000
0001
1000
0000
0010
0000
,  // measure 62
1001
0000
0000
0100
0000
0000
0010
0000
1001
0000
0000
0000
0010
0000
0000
0000
,  // measure 63
0101
0000
0010
0000
1000
0000
0001
0100
,  // measure 64
1000
0000
0010
0000
1000
0000
0100
1000
,  // measure 65
0100
0000
0001
0100
0001
0000
0010
0001
,  // measure 66
0010
0000
1000
0001
1000
0000
0010
0000
,  // measure 67
1001
0000
0010
0000
0100
0000
1000
0010
,  // measure 68
0100
0000
0001
0000
0010
0000
0001
0010
,  // measure 69
0001
0000
0100
0010
0100
0000
1000
0100
,  // measure 70
1000
0000
0010
0001
0010
0000
1000
0000
,  // measure 71
0011
0000
0100
0000
1000
0000
0100
0010
,  // measure 72
0001
0000
0010
0000
0100
0000
1000
0100
,  // measure 73
1000
0000
0001
0010
0001
0000
0100
0010
,  // measure 74
0100
0000
0001
1000
0001
0000
0100
0000
,  // measure 75
1010
0000
0100
0000
1000
0000
0001
0100
,  // measure 76
1000
0000
1000
0000
0110
0000
0001
0010
,  // measure 77
0000
1001
0000
1000
0010
0000
1000
0000
,  // measure 78
1001
0000
0000
0010
0000
0000
0100
0000
1001
0000
0000
0000
0000
0000
0000
0000
;
