#TITLE:Mahjong Fight Club Tokubetsu Setzukou Kyoku;
#SUBTITLE:;
#ARTIST:Mahjong Fight Club;
#TITLETRANSLIT:;
#SUBTITLETRANSLIT:;
#ARTISTTRANSLIT:;
#GENRE:;
#CREDIT:;
#MENUCOLOR:;
#NEWMETERSYSTEM:NO;
#BANNER:Mahjong Fight Club Tokubetsu Setzukou Kyoku-bn.png;
#BACKGROUND:Mahjong Fight Club Tokubetsu Setzukou Kyoku-bg.png;
#LYRICSPATH:;
#CDTITLE:;
#MUSIC:Mahjong Fight Club Tokubetsu Setzukou Kyoku.mp3;
#OFFSET:0.220;
#SAMPLESTART:3.500;
#SAMPLELENGTH:11.940;
#SELECTABLE:YES;
#LISTSORT:;
#BPMS:0.000=127.000,16.000=110.000,29.000=124.000,53.000=57.000,62.000=136.000,110.000=157.001,158.000=147.001,210.000=210.001,290.000=152.001;
#STOPS:;
#BGCHANGES:;
#ATTACKS:;

//---------------dance-single - ----------------
#NOTES:
     dance-single:
     :
     Easy:
     5:
     0.314,0.391,0.062,0.218,0.000:
0000
0000
0000
0000
,
0000
0000
0000
0000
,
0000
0000
0000
0000
,
0100
0000
0100
0000
,
0020
0000
0000
0000
,
0200
0330
1001
0000
,
1001
1001
2002
0000
,
0000
3003
0000
0000
,
0010
0100
0010
0001
,
2000
0000
0100
0000
,
3010
0100
0002
0003
,
0002
0000
0010
0000
,
0103
0010
2000
3000
,
0100
0001
0100
0010
,
0100
1000
0010
0001
,
0100
0010
0100
0000
,
0100
0000
0100
0000
,
0010
0000
1001
0000
,
1000
0000
0001
0000
,
0100
0000
0001
0010
,
0001
1000
0100
0010
,
1000
0001
0100
1000
,
0100
0001
0010
0001
,
1000
0100
2000
3100
,
0020
0031
0200
0310
,
0002
0013
0002
1003
,
0200
1300
0020
0130
,
2000
3001
0100
1000
,
0100
0010
0001
0100
,
0001
0010
1000
0001
,
0100
0010
0100
1000
,
0001
0100
0010
0010
,
1000
1000
0100
0100
,
0001
0001
1000
1000
,
0010
0010
0001
0001
,
0100
0100
0001
0010
,
0100
1000
0001
0010
,
0100
1000
0010
0001
,
1000
0100
0010
0001
,
1000
0100
1000
0000
,
0001
0000
0010
0000
,
0100
0100
0010
0000
,
1000
0000
0001
0000
,
0010
0001
0100
0000
,
0100
0000
1000
1000
,
0100
0010
0001
0100
,
0001
0010
0100
0100
,
0001
1000
0010
0001
,
1000
0100
0010
0010
,
1000
0001
1000
0010
,
0100
1000
0001
0001
,
0010
0100
0001
1000
,
0010
0100
0001
0000
,
0001
0000
1000
1000
,
0100
0001
1000
0000
,
0010
0000
0100
0100
,
0001
1000
0100
0000
,
0001
0000
2000
0010
,
3001
0000
0002
0010
,
1003
0000
0200
0001
,
0310
0000
0020
1000
,
0130
0010
0001
0001
,
1000
1000
0001
1000
,
0100
0010
1001
0100
,
0001
1000
0100
0001
,
0002
0000
0103
1000
,
0100
0001
1000
0010
,
0100
0010
0001
1000
,
0100
0001
1000
0001
,
0020
0000
0130
1000
,
0100
0001
1000
0010
,
0001
1000
0001
0001
,
1000
1000
1001
0100
,
0010
0001
2000
0000
,
3100
0010
0020
0000
,
0031
0100
0020
0030
,
2000
3000
0220
0000
,
0000
0330
0000
0000
;

//---------------dance-single - Copied from----------------
#NOTES:
     dance-single:
     Copied from:
     Medium:
     6:
     0.417,0.451,0.093,0.078,0.000:
0000
0000
0000
0000
,
0000
0000
0000
0000
,
1001
0000
0100
0000
,
0010
0000
0000
0000
0100
0000
0001
1000
,
0100
0100
0010
0010
,
1000
1000
1001
0010
,
1001
0110
1001
0100
,
0001
0010
0001
0100
,
1000
0100
1000
0000
0010
0000
0001
1000
,
0100
0000
0001
0010
0001
0100
0001
0000
,
1000
0100
1000
0000
0010
0010
0010
0000
,
0001
0000
1000
0001
0100
0001
1000
0000
,
0010
1000
0100
0000
0100
0100
0100
0000
,
1000
0000
1001
0001
0100
0010
0010
1000
,
0100
0001
0010
0010
0001
0100
1000
1000
,
0100
0010
0001
0001
0010
0000
0100
0000
,
1000
0100
0001
1000
,
0010
0000
0100
0001
0001
0000
1000
0000
,
0100
0010
0001
1000
,
0100
0000
0010
1000
1000
0000
0100
0000
,
0010
0001
0100
0001
,
1000
0000
0100
0001
0001
0000
0100
0000
,
1000
0010
0100
0010
,
0100
0010
1100
0100
,
0001
0010
0101
0001
,
0010
1000
0011
0100
,
1000
0010
1001
0100
,
0010
0000
0100
0000
1000
1000
0000
0000
,
0100
0100
0000
0000
0001
0001
0000
0000
,
0010
0010
0000
0000
0001
0010
0000
0010
,
0100
1000
0000
1000
0100
0010
0000
0010
,
0001
1000
0000
0000
0100
1000
0100
0000
,
0010
0001
0010
0000
0001
0100
1000
0000
,
1000
0010
0001
0000
0100
0001
0010
0000
,
0100
1000
0010
0000
1000
0100
0010
0001
,
0010
0100
0001
0000
0001
0010
1000
0000
,
0001
0010
1000
0000
1000
0100
0001
0000
,
1000
0100
0001
0000
1000
0100
0010
0001
,
1000
0100
0010
0001
0100
0000
0001
0000
,
1000
0010
0001
0010
0100
0000
0001
0000
,
0100
0001
0100
1000
,
0100
1000
0010
0000
0100
0000
0001
0000
,
0010
0100
0001
1000
,
0010
1000
0100
0000
0001
0000
0001
0000
,
0100
0000
0100
0000
0010
0000
0001
0010
,
1000
0100
0001
0100
,
1000
0000
0010
0000
0100
0000
1000
0010
,
1000
0100
0001
0010
,
0001
0000
0100
0000
0001
0000
0010
0001
,
0100
0010
1000
0100
,
1000
0000
0010
0000
0100
0000
1000
0100
,
0001
0100
0010
0001
,
1000
0100
0010
0000
,
0100
0000
0001
1000
,
0100
0001
1000
0100
,
0001
0100
0001
0000
1000
0000
0010
0000
,
1000
0100
1000
0010
,
1000
0100
0001
0100
2000
0000
0000
0020
,
0000
3030
0000
0000
0200
0000
0000
0002
,
0000
0303
0000
0000
0200
0000
0000
0020
,
0000
0330
0000
0000
2000
0000
0000
0200
,
0000
3300
0000
0000
0010
0000
0010
0000
,
0001
0001
0100
1000
,
0010
1000
0100
0001
,
0010
0001
0010
0001
0000
0100
1000
0000
,
0010
1000
0100
1000
,
0010
1000
0010
1000
0000
0001
0010
0000
,
1000
0010
0001
1000
,
0100
1000
0100
1000
0000
0010
0001
0000
,
0100
0001
0010
0001
,
0001
0100
0001
0100
0000
0001
1000
0000
,
0100
0010
0100
0100
,
0001
1000
0001
0000
1001
0000
0010
0000
,
0100
0000
0001
0010
0001
0000
0100
0000
,
1000
0000
0010
1000
0100
0000
0001
0000
,
0010
0000
0001
0000
0100
0001
1000
0001
,
1000
0001
0220
0000
,
0000
0330
0000
0000
;

//---------------dance-single - Copied from----------------
#NOTES:
     dance-single:
     Copied from:
     Beginner:
     3:
     0.191,0.238,0.023,0.055,0.000:
0000
0000
0000
0000
,
0000
0000
0000
0000
,
0000
0000
0000
0000
,
0100
0000
0000
0000
,
0010
0000
0010
0000
,
0010
0000
0200
0300
,
0100
0100
0200
0000
,
0000
0300
0000
0000
,
1000
1000
1000
0000
,
0100
0000
0010
0000
,
0001
0000
0010
0010
,
0010
0000
1000
0000
,
0001
0000
0100
0100
,
0100
0100
0000
0001
,
0000
0010
0000
1000
,
0000
0100
0100
0000
,
0100
0000
0100
0000
,
0100
0000
0100
0000
,
0100
0000
0100
0000
,
0100
0000
0001
0000
,
1000
0000
0010
0000
,
0001
0000
0100
0000
,
0010
0000
1000
0000
,
0100
0000
0001
0001
,
0001
0001
0001
0000
,
0001
0000
1000
1000
,
1000
1000
1000
0000
,
1000
0000
0100
0000
,
0010
0000
0100
0000
,
1000
0000
0001
0000
,
0010
0000
1000
0000
,
0100
0000
1000
0000
,
0010
0000
0100
0100
,
0100
0000
0001
0000
,
0010
0000
0001
0001
,
0001
0000
1000
0000
,
0100
0000
1000
1000
,
1000
0000
0010
0000
,
0100
0000
0010
0010
,
0010
0000
1000
0000
,
0100
0000
0010
0000
,
0001
0000
0001
0000
,
0010
0000
0100
0000
,
1000
0000
0001
0000
,
1000
0000
0100
0100
,
0100
0000
0010
0000
,
0100
0000
0010
0010
,
0010
0000
0001
0000
,
0010
0000
0001
0001
,
0001
0000
1000
0000
,
0001
0000
1000
1000
,
1000
0000
1001
0000
,
1001
0000
0020
0000
,
0030
0000
1000
0000
,
1000
0000
1000
0000
,
1000
0000
0001
0000
,
0001
0000
0001
0000
,
0001
0000
2000
0000
,
3000
0000
0002
0000
,
0003
0000
0020
0000
,
0030
0000
0200
0000
,
0300
0000
0010
0000
,
0010
0000
1000
1000
,
1000
0000
0100
0000
,
0001
0000
0010
0010
,
0010
0000
0001
0000
,
1000
0000
0001
0001
,
0001
0000
0010
0000
,
0001
0000
1000
1000
,
1000
0000
0010
0000
,
1000
0000
0100
0100
,
0100
0000
1000
0000
,
0010
0000
0100
0000
,
0100
0000
0001
0000
,
0001
0000
0010
0000
,
0001
0000
1000
0000
,
0100
0000
1001
0000
;

//---------------dance-single - Copied from----------------
#NOTES:
     dance-single:
     Copied from:
     Hard:
     8:
     0.566,0.632,0.288,0.125,0.097:
0000
0000
0000
0000
,
0000
0000
0000
0000
,
1000
0100
1000
0100
1000
0100
1000
0100
,
0001
0100
0001
0100
0001
0100
0001
0100
,
0010
1000
0001
0010
,
1000
0001
1001
0010
,
1001
0101
1001
0100
,
0100
0000
1000
0000
0100
1000
0100
0000
,
0010
0000
0001
0000
0100
0000
0001
0100
,
0010
0000
0001
1000
0100
0001
0100
0000
,
0001
1000
0100
0000
0110
1001
0110
0000
,
0001
0000
1000
0100
0001
0100
1000
0000
,
0001
0010
1000
0000
0110
1001
0110
0000
,
0001
0000
0000
0000
1001
0000
0100
0001
1000
0001
0100
0000
0001
0010
0100
0000
,
1000
0001
0100
0001
0010
0000
0001
0000
1000
0000
0100
0000
0010
0000
0100
0001
,
0010
0001
0100
0000
1000
0000
0100
0000
0011
0000
0000
0000
0100
0000
0000
0000
,
0011
0100
0011
0100
,
0011
0000
0100
1000
0011
0000
0100
0000
,
0011
0100
0011
0100
,
0011
0000
0100
1000
0011
0000
0100
0000
,
1010
0100
0011
0100
,
1010
0100
0011
0100
,
1010
0100
0011
0100
,
0100
0000
0001
0000
1000
0000
0100
0000
1000
0000
0000
0100
0000
0000
0010
0000
,
0000
0001
0000
0000
0010
0000
0100
0000
1000
0000
0000
0100
0000
0000
0010
0000
,
0000
0001
0000
0000
0010
0000
0100
0000
0001
0000
0000
0010
0000
0000
0100
0000
,
0000
1000
0000
0000
0100
0000
0010
0000
0001
0000
0000
0010
0000
0000
0100
0000
,
0000
1000
0000
0000
0100
0000
0010
0000
1001
0000
0010
0000
0000
0000
1000
0000
,
0001
0100
0000
0001
1000
0100
0000
1000
,
0001
0100
0000
0010
0100
0001
0000
0010
,
0100
1000
0000
0010
0100
0001
0000
0010
,
0100
1000
0000
0000
0001
0100
0001
0100
,
1000
0100
1000
0100
0010
0100
0010
0100
,
0001
1000
0100
0000
1000
0010
1000
0010
,
0100
0001
0100
0001
0010
0100
0010
0100
,
1000
0001
0100
0000
0001
0010
0001
0010
,
0100
0010
0100
0010
0100
1000
0100
1000
,
0001
0010
0100
0000
0001
1000
0001
1000
,
0010
0100
0010
0100
0001
0010
0001
0010
,
0100
0000
1000
0000
0100
0000
1000
0000
0100
0000
0000
0001
0000
0000
0010
0000
,
0001
0000
0000
1000
0000
0000
0100
0000
1000
0000
0000
0010
0000
0000
0100
0000
,
0000
0000
0001
0000
0010
0000
0001
0000
1000
0000
0000
0010
0000
0000
1000
0000
,
0001
0000
0000
0100
0000
0000
0001
0000
0010
0000
0000
1000
0000
0000
0100
0000
,
0010
0100
0010
0000
1001
0000
0010
0000
,
0100
0000
0010
0000
1000
0000
0100
1000
,
0100
0001
0100
0001
0100
0000
0010
0001
,
1000
0010
1000
0000
0100
0000
1000
0010
,
0001
0010
1000
0100
0001
0000
0100
0001
,
0010
0001
0100
0000
1000
0000
0100
1000
,
0010
0100
0001
0100
0010
0000
1000
0100
,
0001
0100
1000
0000
0001
0000
0100
0010
,
0001
0010
0001
0100
0010
0000
0001
1000
,
0001
0100
0010
0001
1000
0000
1100
0000
,
0010
0100
0010
0000
1000
0020
0000
1030
,
0000
0010
0001
0010
1000
0200
0000
0310
,
0001
0000
0010
0000
0100
0002
0000
0013
,
0000
0001
0010
0100
0010
2000
0000
3001
,
0010
0000
0010
0000
1000
0001
1000
0001
,
1000
0001
0010
0000
0001
1000
0001
1000
,
0001
1000
0100
0000
0010
0100
0010
0100
,
0010
0100
1000
0000
0100
0010
0100
0010
,
0100
0010
0001
0000
1000
0100
1000
0100
,
0010
0001
0010
0001
1000
0100
0010
0001
,
1000
1001
0010
1001
,
0010
0001
0100
0020
0000
0000
0100
0130
,
0010
0001
1000
0100
0010
0000
1000
0000
,
1000
0010
0100
0002
0000
0000
0010
0013
,
0100
0001
1000
0001
0100
0000
1001
0000
,
0001
0010
0001
2000
0000
0000
0100
3100
,
0001
0100
0010
1000
0100
0000
0100
0000
,
0010
1000
0001
0020
0000
0000
0001
0031
,
0001
0010
0100
1000
0100
0000
1001
0000
,
0010
0001
0010
0000
1001
0000
0100
0000
,
0002
0000
0000
0023
0000
0000
0230
0000
1000
0000
0000
0000
1300
0000
0000
0000
,
2000
0000
0000
3200
0000
0000
0320
0000
0001
0000
0000
1000
0030
0000
0001
0000
,
0100
0000
0000
0010
0000
0000
0100
0000
1001
0000
0000
0000
0010
0000
0000
0000
,
0100
1001
2002
0000
,
0000
3003
0000
0000
;

//---------------dance-single - Copied from----------------
#NOTES:
     dance-single:
     Copied from:
     Challenge:
     10:
     0.701,0.870,0.397,0.241,0.222: // measure 1
0000
0000
0000
0000
,  // measure 2
0000
0000
0000
0000
,  // measure 3
0100
0000
1000
0100
1000
0000
0010
0000
0100
0000
0001
0010
0001
0000
0100
0000
,  // measure 4
0010
0000
1000
0100
0001
0000
0010
0000
0100
0000
0001
0010
1000
0000
0100
0000
,  // measure 5
2002
0000
0000
0000
,  // measure 6
0000
3003
2002
3003
,  // measure 7
1001
0100
1001
0010
1001
0000
0100
0000
,  // measure 8
0010
0000
0100
0000
0100
0010
0100
0001
,  // measure 9
1000
0100
1000
0100
0010
0001
0010
0001
,  // measure 10
1000
0000
0100
0010
0001
0100
0001
1000
,  // measure 11
0100
0010
1000
0100
1001
0110
1001
0100
,  // measure 12
0001
1000
0100
0010
0001
0010
0100
1000
,  // measure 13
0001
0100
0010
0100
0011
0110
1100
1000
,  // measure 14
0001
0000
0100
0000
0110
1000
0100
0010
0100
0001
0010
0010
1000
0001
0100
1000
,  // measure 15
0100
0001
1000
0010
0001
0010
0100
0001
1000
0100
0010
0001
0010
0100
0001
1000
,  // measure 16
0100
0010
0100
0001
0010
0001
0100
1000
0100
0000
0001
0000
0100
0000
0001
0000
,  // measure 17
0100
0001
0100
0001
0100
0001
0100
0001
,  // measure 18
0100
0001
0100
0001
0011
0100
0001
0100
,  // measure 19
0001
0100
0001
0100
0001
0100
0001
0100
,  // measure 20
0001
0100
0001
0100
1100
0001
0010
0000
,  // measure 21
0100
0001
0010
0000
0100
0001
0010
0000
,  // measure 22
0100
0001
0010
1000
0100
1000
0010
1000
,  // measure 23
0100
1000
0010
1000
0001
0010
0100
1000
,  // measure 24
0001
0000
0010
0000
0100
0000
1000
0000
1000
0100
0000
0100
0010
0000
0010
0001
,  // measure 25
0000
0001
0010
0000
0010
0000
0100
0000
0001
0010
0000
0010
0100
0000
0100
1000
,  // measure 26
0000
1000
0100
0000
0010
0000
0100
0000
0001
0100
0000
0100
1000
0000
1000
0010
,  // measure 27
0000
0010
0001
0000
0100
0000
1000
0000
1000
0100
0000
0100
0001
0000
0001
0010
,  // measure 28
0000
0010
0100
0000
0001
0000
1000
0000
0020
0000
0130
0000
1000
0000
0010
0000
,  // measure 29
0002
0013
0100
1000
0200
1300
0010
0100
,  // measure 30
0020
0031
0100
0001
0200
1300
0010
0100
,  // measure 31
0020
1030
0100
0010
0002
0013
1000
0010
,  // measure 32
0002
1003
0220
0300
0130
0001
0010
1000
,  // measure 33
0100
0001
0100
0010
1000
0100
0001
0010
,  // measure 34
0100
1000
0100
0001
1000
0100
0010
1000
,  // measure 35
0001
0100
0010
0100
0001
0010
0100
0001
,  // measure 36
1000
0100
0010
1000
0100
1000
0100
0001
,  // measure 37
0100
0010
0001
0100
0001
0010
1000
0100
,  // measure 38
0010
0001
1000
0100
0001
0010
1000
0001
,  // measure 39
0010
0100
0001
1000
0001
0100
0010
1000
,  // measure 40
0100
0000
0001
0000
1000
0000
0100
0000
0010
0001
0000
0011
0000
0000
0100
0000
,  // measure 41
1000
0010
0000
1010
0000
0000
0001
0000
0010
0100
0000
0110
0000
0000
1000
0000
,  // measure 42
0100
0000
0010
0000
0001
0000
0000
0000
0001
0100
0000
0101
0000
0000
0010
0000
,  // measure 43
1000
0010
0000
1010
0000
0000
1000
0000
0001
1000
0000
1001
0000
0000
0001
0000
,  // measure 44
0010
0000
0100
0000
1000
0000
0000
0000
1010
0000
0000
1001
0000
0000
0202
0000
,  // measure 45
0000
0000
0303
0000
1000
1000
0100
0010
,  // measure 46
0001
1000
0100
0100
0001
0001
1000
0010
,  // measure 47
1000
0001
0010
0010
0001
0001
1000
0100
,  // measure 48
0010
1000
0100
0100
0010
0010
0001
1000
,  // measure 49
0100
1000
0022
0033
1000
1000
0010
0001
,  // measure 50
1000
0100
0001
0001
0100
0100
0001
1000
,  // measure 51
0100
0010
0001
0001
0010
0010
1000
0100
,  // measure 52
0001
0010
0001
0001
0100
0100
1000
0100
,  // measure 53
0001
0010
0001
0100
1001
0000
1100
0000
,  // measure 54
0010
0001
0101
0000
1000
0001
0100
0010
,  // measure 55
0100
1000
0001
0100
0010
0001
0100
0010
,  // measure 56
1000
0100
1000
0000
0001
0100
0010
0001
,  // measure 57
1000
0100
1000
0010
0100
0001
0010
0001
,  // measure 58
1000
0100
1000
0000
0210
0000
0010
0000
,  // measure 59
0001
0310
0120
0100
,  // measure 60
1000
0130
2001
0001
,  // measure 61
0100
3001
1002
1000
,  // measure 62
0010
0000
1003
0000
0001
0010
0100
1000
,  // measure 63
0001
0010
0100
1000
0001
0010
0100
1000
,  // measure 64
0002
0003
1100
1010
,  // measure 65
1000
0010
0100
0001
0000
0001
0010
0001
,  // measure 66
1000
0100
1000
0000
1001
0000
0011
0000
,  // measure 67
0010
0001
0100
0001
0000
1000
0001
0010
,  // measure 68
0100
0001
1000
0000
0110
0000
0101
0000
,  // measure 69
1000
0010
0001
0010
0000
0001
1000
0100
,  // measure 70
1000
0010
0100
0000
0011
0000
1100
0000
,  // measure 71
1000
0100
0010
0001
0000
1000
0100
1000
,  // measure 72
0001
0010
0001
0000
1001
0000
0110
0000
,  // measure 73
1000
0000
0100
0000
0001
0000
0000
0000
1001
0000
0000
0000
0110
0000
0001
0010
,  // measure 74
0001
0000
0000
1001
0000
0000
0011
0000
1001
0000
0000
0000
0010
0000
1000
0100
,  // measure 75
1000
0000
0000
0110
0000
0000
1100
0000
0120
0000
0000
0032
0000
0000
2003
0000
,  // measure 76
0020
3000
0000
0230
0000
0000
2300
0000
3001
0000
0010
0000
0001
0000
1000
0000
,  // measure 77
0001
0010
0001
0000
0022
0000
0000
0000
,  // measure 78
0033
0000
0000
0000
;
