#TITLE:Have a good dream.;
#SUBTITLE:;
#ARTIST:private states;
#TITLETRANSLIT:;
#SUBTITLETRANSLIT:;
#ARTISTTRANSLIT:;
#GENRE:;
#CREDIT:;
#MENUCOLOR:;
#NEWMETERSYSTEM:NO;
#BANNER:Have a good dream.-bn.png;
#BACKGROUND:Have a good dream.-bg.png;
#LYRICSPATH:have a good dream.lrc;
#CDTITLE:MixMania CD Title.png;
#MUSIC:Have a good dream.mp3;
#OFFSET:-0.440;
#SAMPLESTART:42.877;
#SAMPLELENGTH:15.500;
#SELECTABLE:YES;
#LISTSORT:;
#BPMS:0.000=92.000,1.000=98.000,5.000=96.000,7.000=95.000,9.000=98.000,13.000=96.000,15.000=95.000,17.000=98.000,21.000=96.000,25.000=98.000,29.000=96.000,31.000=95.000,33.000=107.000,39.000=98.000,41.000=100.000,45.000=97.000,47.000=96.000,49.000=100.000,51.000=103.000,55.000=97.000,57.000=101.000,59.000=92.000,63.000=87.000,65.000=83.000,67.000=60.000,68.000=92.000,69.000=98.000,95.000=97.000,97.000=90.000,99.000=85.000,101.250=100.000,133.000=95.000,135.000=88.000,137.250=98.001,167.000=87.001,169.000=84.001,171.000=82.001,173.000=85.001,175.000=82.001,177.000=78.001,179.000=70.001,181.000=74.001;
#STOPS:;
#BGCHANGES:;
#ATTACKS:;

//---------------dance-single - Copied from Copied f----------------
#NOTES:
     dance-single:
     Copied from Copied f:
     Challenge:
     8:
     0.347,0.321,0.370,0.129,0.020:
0000
0000
0000
0000
0000
0000
0000
0001
,
0010
1000
0101
0000
0010
0100
1001
0000
,
0100
0010
1100
0000
0011
0000
0000
0100
,
0010
1000
0011
0000
0110
0000
1100
0000
,
0010
0100
0011
0000
1100
0000
0000
0001
,
0010
0100
1010
0000
0101
0000
1001
0000
,
0000
0000
0010
0100
0010
0000
0000
0000
0001
0000
1000
0000
0100
0000
0010
0000
,
0001
0100
0020
0000
0100
0000
0130
0000
,
0001
0010
1000
0100
0001
0100
1000
0100
,
0001
0100
0010
1000
0100
0010
0001
0000
,
1010
0102
0010
1003
,
0001
0010
1001
0000
1000
0010
0101
0000
,
0000
0100
0010
0100
1000
0001
0010
0000
,
1100
0010
0001
1000
0100
0010
0001
0000
,
0100
0010
1100
0000
0010
0100
0011
0000
,
1000
0000
0100
0000
0001
0000
0000
0000
0000
0000
0100
0010
0200
0000
0000
0000
,
0000
0000
0000
0300
,
0010
0100
0011
0000
1100
0000
0010
0100
,
0001
0010
0200
0000
0000
0000
1300
0000
,
0100
0010
0101
0000
1010
0000
0100
0010
,
1000
0100
0011
0000
1100
0000
1001
0000
,
0010
0100
0011
0000
1100
0000
0010
0100
,
0001
0010
1100
0000
0011
0000
1002
0000
,
0000
0000
0103
0010
0100
0000
0000
0000
0000
0000
0001
0000
0010
0000
0100
0000
,
1000
0100
1000
0100
0001
0100
2000
0000
,
3000
0011
1100
0110
,
0000
0001
0010
0100
1000
0010
0100
0000
,
0010
0101
1010
0110
,
0000
0100
0010
0000
0010
0100
0001
0000
,
0100
0001
0010
0100
1000
0010
0100
0000
,
0100
0010
1000
0100
0001
0100
1000
0000
,
0001
0010
0100
0000
0100
0010
0001
0000
,
0100
0000
0010
0000
2000
0000
0000
0000
0000
0000
3010
0100
0020
0000
0000
0000
,
0000
0000
1000
0130
0010
0001
0010
0100
,
1000
0010
1001
0000
0101
0000
1010
0100
,
0010
0001
0200
0000
1000
0000
0310
0000
,
0001
0010
1100
0000
0011
0000
0010
0100
,
0010
1000
0200
0000
1000
0000
0310
0000
,
1000
0100
0020
0000
0001
0000
0030
0100
,
0010
0100
2000
0000
0010
0000
3100
0000
,
0000
0000
0001
1000
0001
0000
0000
0000
1000
0000
0010
0000
0100
0000
0001
0000
,
0010
0100
1100
0000
0010
0000
0100
0000
,
0010
0100
1000
0000
0000
0010
1001
0100
,
0010
1000
0012
0000
0000
0000
0100
0000
,
0000
2000
0000
0000
,
3003
0220
0000
0000
,
0000
0000
0000
0000
,
0330
0000
0000
0000
;

//---------------dance-single - Copied from Copied f----------------
#NOTES:
     dance-single:
     Copied from Copied f:
     Easy:
     4:
     0.195,0.225,0.064,0.153,0.000:
0000
0000
0000
0000
,
0000
1000
0000
0001
,
0010
0001
0000
0100
,
1000
0010
0010
0100
,
0001
1000
1000
0000
,
0100
0010
1000
0100
,
0000
0002
0003
2000
,
3000
0110
0000
1001
,
0000
0100
0100
1000
,
1000
0010
0010
0001
,
0002
0013
0010
1000
,
0200
1300
0010
0001
,
0100
0010
1000
0200
,
0300
0010
0001
0020
,
0030
0001
1000
0001
,
1000
0200
0000
0310
,
0010
1000
0100
0001
,
1000
0100
0100
0010
,
0001
2000
0000
3001
,
0100
0010
0001
1000
,
0100
0010
1000
0100
,
0001
1000
1000
0000
,
0100
0010
0001
0010
,
0000
1001
0000
0010
,
0100
0110
0000
0000
,
0000
1000
0100
0001
,
0000
0010
0001
0100
,
1000
0100
0010
1000
,
0001
0100
0010
0001
,
0000
0010
1000
0001
,
0100
0001
0010
0001
,
0000
1000
0001
1000
,
0010
1000
0100
0001
,
1000
0001
2000
0002
,
3003
1001
0100
0010
,
0001
2000
0000
3002
,
0010
0013
0100
0001
,
1000
2002
3003
0110
,
0001
0100
0100
0000
,
0010
1000
0100
1000
,
0000
0100
0000
0010
,
0001
0020
0000
0000
,
1000
1030
0000
0100
,
1000
0002
0000
0010
,
0003
2000
0000
0010
,
3000
2002
0000
0000
,
0000
0000
0000
3003
;

//---------------dance-single - Copied from Copied f----------------
#NOTES:
     dance-single:
     Copied from Copied f:
     Beginner:
     1:
     0.127,0.150,0.048,0.096,0.000:
0000
0000
0000
0000
,
0000
0000
0000
0000
,
1000
1000
0000
0000
,
0010
0010
0000
0001
,
0000
0100
0000
0000
,
0010
0010
0000
1000
,
0000
0001
0000
1000
,
0000
0020
0000
0030
,
0000
0100
0000
0100
,
0000
0002
0003
0000
,
1000
2000
3000
0000
,
0100
0200
0300
0000
,
0000
0010
0000
0001
,
0000
1000
1000
1000
,
0000
0010
0000
0100
,
0000
0000
0000
0001
,
0000
1000
0000
0100
,
0100
0100
0100
0000
,
0010
0010
0000
0001
,
0000
0001
0001
0000
,
1000
1000
0000
0100
,
0000
0010
0010
0000
,
1000
1000
0000
0100
,
0000
1001
0000
0110
,
0000
2002
0000
3003
,
0000
1000
1000
1000
,
0000
0001
0001
0001
,
0000
0010
0000
0100
,
0000
0010
0010
0010
,
0000
0100
0000
0100
,
0000
1000
0000
0100
,
0000
0001
0000
0010
,
0000
0100
0000
1000
,
0000
0100
0000
0020
,
0030
0010
0010
0000
,
0001
0001
0000
0100
,
0000
0100
0100
0000
,
1000
1000
0000
0001
,
0000
0010
0010
0000
,
0001
0001
0001
0001
,
0000
1001
0000
0110
,
0000
2002
0000
3003
,
0000
0001
0000
1000
,
0000
0200
0000
0300
,
0000
0002
0000
0003
,
0000
0020
0000
0000
,
0000
0000
0000
0030
;

//---------------dance-single - Copied from Copied f----------------
#NOTES:
     dance-single:
     Copied from Copied f:
     Medium:
     5:
     0.243,0.263,0.024,0.113,0.000:
0000
0000
0000
0000
,
0000
0002
0000
1003
,
1000
0100
1000
0000
0010
0000
0000
0000
,
1000
0100
0010
0000
0001
0000
1000
0000
,
0100
0100
1000
0000
,
0010
0001
0020
0000
2030
0000
3100
0000
,
0000
1000
0100
0000
0000
0010
0001
0000
,
0010
0001
0100
1001
,
0000
0100
1000
0010
,
0001
0000
0200
0000
0000
0001
0301
0000
,
0010
0020
1000
0130
,
1000
0001
1000
0000
0100
0010
0100
0000
,
0000
1000
0100
0001
,
0010
0001
0100
0000
0001
0000
1000
0000
,
0100
0010
1000
0001
,
0100
0000
0010
0000
1000
0001
0100
0000
,
0010
0100
1000
0100
,
0010
0001
0100
0000
0010
0000
0000
0000
,
1000
0100
1000
0000
0010
0000
0100
0000
,
0001
1000
0010
0000
0100
0000
0000
0000
,
0001
0010
0100
0000
0100
0000
1000
0000
,
0100
1000
0100
0000
0100
0000
0000
0000
,
1000
0010
0100
0000
0001
0000
0100
0000
,
0000
0010
0001
0000
0000
1000
0100
0000
,
0000
0010
0100
0000
1000
0100
0001
0000
,
0000
0010
0001
0100
,
0000
1000
0100
0000
1000
0000
0010
0000
,
0100
0002
2003
3002
,
0013
0100
0010
0000
0100
1000
0100
0000
,
1000
0010
0001
0100
,
0001
1000
0010
0100
,
0001
0010
0100
0000
0010
0100
1000
0000
,
0100
0000
1000
0000
0010
0100
0010
0000
,
2000
3002
2003
3002
,
1003
0000
1001
0000
0010
0000
0001
0010
,
0100
0001
0010
0001
,
1000
0001
1000
0000
0010
0000
0100
0000
,
0001
0010
1000
0000
0100
0000
1000
0000
,
0010
1000
0100
0000
0100
0000
1000
0000
,
1000
0100
0010
0000
0010
0000
0001
0000
,
0000
0001
0010
0000
0000
0100
1000
0000
,
0100
1000
0100
0001
,
0001
0010
0001
0000
0000
0010
0100
0000
,
1000
0100
1000
0000
0010
0000
0100
0000
,
0001
0000
1000
0000
0001
0000
1000
0010
,
0100
2002
0000
0000
,
0000
0000
0000
3003
;

//---------------dance-single - Copied from Copied f----------------
#NOTES:
     dance-single:
     Copied from Copied f:
     Hard:
     7:
     0.324,0.301,0.080,0.185,0.000: // measure 1
0000
0000
0000
0000
,  // measure 2
0001
1000
0100
0000
0100
0000
1000
0000
,  // measure 3
1000
0001
0020
0000
0031
0000
0100
1000
,  // measure 4
0001
0010
2000
0000
3200
0000
0320
0000
,  // measure 5
0031
0010
0001
0000
0100
0000
0010
0001
,  // measure 6
1000
0100
1000
0000
0010
0000
0100
0000
,  // measure 7
0001
1000
0200
0000
0300
0010
0020
0000
,  // measure 8
0032
0000
2003
0000
3100
0010
1000
0000
,  // measure 9
0100
1000
0010
0100
0001
0010
0001
0000
,  // measure 10
0100
0001
1000
0000
0100
1000
0010
0000
,  // measure 11
0100
0010
1000
0001
,  // measure 12
0100
0001
0010
0000
0010
0100
1000
0000
,  // measure 13
0000
1000
0100
0000
0100
0010
0001
0000
,  // measure 14
0001
1000
0100
0000
0010
0100
1000
0000
,  // measure 15
1000
0100
0001
0000
0010
0001
0100
0000
,  // measure 16
0020
0000
2030
0000
3100
0001
0100
0000
,  // measure 17
0010
0000
1000
0000
0100
0001
1000
0000
,  // measure 18
0001
0100
0010
0000
1000
0000
0100
1000
,  // measure 19
0001
0100
0010
0000
0001
0000
0010
0000
,  // measure 20
0001
1000
0100
0000
1000
0000
0100
1000
,  // measure 21
0010
0100
0002
0000
0023
0000
0230
0000
,  // measure 22
1300
0100
0010
0000
0001
0000
1000
0100
,  // measure 23
0001
1000
0010
0000
0100
0000
1000
0000
,  // measure 24
0001
0100
0001
0000
1000
0100
1000
0010
,  // measure 25
0100
0001
1000
0000
0100
1000
0020
0000
,  // measure 26
0030
1001
0110
1001
,  // measure 27
1000
0100
1000
0010
1000
0001
0010
0000
,  // measure 28
0001
1001
0110
1001
,  // measure 29
0001
0100
0001
0010
0001
1000
0001
0000
,  // measure 30
1000
0100
0010
0001
0010
0001
0010
0000
,  // measure 31
0001
0010
0100
1000
0100
1000
0100
0000
,  // measure 32
1000
0001
1000
0000
0001
1000
0001
0000
,  // measure 33
0010
0001
0200
0000
0300
0001
1000
0000
,  // measure 34
0010
0010
0001
0001
1000
1000
0100
0100
,  // measure 35
1000
0001
1001
0000
0010
0000
0001
1000
,  // measure 36
0100
0010
1000
0000
0100
0000
1000
0000
,  // measure 37
0010
1000
0001
0000
0010
0000
0001
0100
,  // measure 38
0001
1000
0020
0000
0230
0000
0302
0000
,  // measure 39
1003
0001
0010
0000
1000
0000
0100
0010
,  // measure 40
0100
0001
1000
0000
0100
0000
0001
0000
,  // measure 41
0000
1000
0001
0000
0010
0001
0010
1000
,  // measure 42
0100
1000
0200
0000
1000
0000
1000
0000
,  // measure 43
0310
0100
0010
0000
0001
1000
0100
0001
,  // measure 44
0010
0001
0120
0000
1000
0000
0100
0000
,  // measure 45
0130
0210
0010
0001
,  // measure 46
0310
2002
0000
0000
,  // measure 47
0000
0000
0000
3003
;
