#TITLE:HYPE THE CORE;
#SUBTITLE:;
#ARTIST:DJ CHUCKY;
#TITLETRANSLIT:;
#SUBTITLETRANSLIT:;
#ARTISTTRANSLIT:;
#GENRE:;
#CREDIT:;
#MENUCOLOR:;
#NEWMETERSYSTEM:NO;
#BANNER:HYPE THE CORE-bn.png;
#BACKGROUND:HYPE THE CORE-bg.png;
#LYRICSPATH:;
#CDTITLE:MixMania CD Title.png;
#MUSIC:HYPE THE CORE.mp3;
#OFFSET:1.440;
#SAMPLESTART:16.220;
#SAMPLELENGTH:12.000;
#SELECTABLE:YES;
#LISTSORT:;
#BPMS:0.000=190.000;
#STOPS:;
#BGCHANGES:;
#ATTACKS:;

//---------------dance-single - ----------------
#NOTES:
     dance-single:
     :
     Easy:
     6:
     0.450,0.455,0.132,0.097,0.000:
0000
0000
0000
0000
,
0000
0000
0000
0000
,
0010
0100
0001
1000
,
0100
0000
0001
0100
0000
0001
0100
0000
,
0010
1000
0100
0010
,
1000
0000
0100
1000
0000
0100
1000
0000
,
0100
0010
0001
0100
,
0010
1000
0100
0000
,
1000
0100
0010
1000
,
0001
0100
0010
0000
,
1000
0000
0100
0000
0001
0000
1000
0010
,
0001
0100
0001
0000
,
0010
0000
0100
0000
1000
0000
0010
1000
,
0200
0000
0000
0301
,
0001
0000
0100
0000
0010
0000
1000
0100
,
0010
0001
0200
0300
,
1000
0000
0010
0000
0100
0000
0001
0010
,
1000
0100
0020
0030
,
0100
0000
1000
0000
0001
0000
0010
0001
,
0100
0010
2000
3000
,
0010
0000
0001
0000
0100
0000
1000
0010
,
0100
0000
0001
1000
0200
0000
0300
0000
,
0010
0000
0001
0000
1000
0000
0100
1000
,
0010
0100
0020
0030
,
0001
0000
1000
0000
0100
0000
0010
0001
,
0010
0001
0200
0310
,
1000
0000
0001
0000
0100
0000
0010
1000
,
0100
0001
2000
3000
,
0100
0000
0001
0000
1000
0000
0010
0001
,
2000
0000
0000
3001
,
1001
0000
0000
0000
0000
0000
0010
0100
,
0010
0000
0100
0010
0000
0100
0010
0000
,
0010
0000
0000
0000
,
0000
0000
1001
1001
,
0010
0000
0001
0000
0100
0000
0010
0001
,
0010
0000
0001
0010
0000
0001
0010
0000
,
0010
0000
0000
0000
,
0100
0010
1001
1001
,
0010
0001
0100
1000
,
0010
0000
1000
0010
0000
1000
0010
0000
,
0100
0000
0001
0000
,
0010
0000
1100
1100
,
0001
0010
0001
0100
,
0010
0000
0100
0001
0000
0100
0001
0000
,
0100
0000
0001
0000
,
0100
0001
1000
1001
,
0000
0001
0000
1000
0000
0100
0000
0010
,
0000
1000
0000
0001
0000
0100
0000
0001
,
0000
0010
0000
0001
0000
0100
0000
1000
,
0000
0010
0000
1000
0000
0010
0000
0001
,
0000
0100
0000
0001
0000
1000
0000
0010
,
0000
0100
0000
1000
0000
0001
0000
0100
,
0000
0001
0000
0100
0000
1000
0000
0010
,
1000
0000
0100
0000
0001
0000
0010
0001
,
0100
1000
0100
0010
,
0001
0000
0000
0001
0000
0000
1000
0000
,
0100
1000
0010
0001
,
0100
0000
0000
0100
0000
0000
0001
0000
,
1000
0000
0010
0000
0001
0000
1000
0100
,
1000
0000
0000
0010
0000
0000
1000
0000
,
0010
0001
0100
0001
,
1000
0000
0010
0000
0001
0010
0100
0000
,
0010
0010
0010
0010
,
0010
0010
0010
0010
,
0010
0010
0010
0010
,
0010
0010
0010
0010
,
0110
1000
0110
1000
,
0001
0010
1001
0000
,
1001
0010
1001
0010
,
0202
0000
0303
0000
,
1000
0100
0001
0100
,
1000
0000
0010
0000
0100
0010
0001
0000
,
0100
1000
0001
0010
,
0100
0000
1000
0000
0001
1000
0100
0000
,
1000
0001
0100
0010
,
1000
0000
0001
0000
0100
0010
0100
0000
,
1000
0001
0010
0100
,
1000
0000
0001
0000
1000
0100
0010
0000
,
1000
0001
0100
0010
,
1000
0000
0001
0000
0010
1000
0010
0000
,
0100
0001
1000
0100
,
0010
0000
0001
0000
0100
1000
0001
0000
,
1000
0001
0010
0100
,
0001
0000
1000
0000
0010
0001
0100
0000
,
0001
0100
1000
0001
,
1000
0000
0001
1000
0001
0000
0010
0000
,
1001
0000
0000
0000
;

//---------------dance-single - Copied from----------------
#NOTES:
     dance-single:
     Copied from:
     Beginner:
     2:
     0.223,0.265,0.000,0.053,0.000:
0000
0000
0000
0000
,
0000
0000
0000
0000
,
0100
0000
0000
0000
,
0010
0000
0010
0000
,
0100
0000
0000
0000
,
1000
0000
1000
1000
,
1000
0000
0000
0000
,
0010
0000
0000
0000
,
0100
0000
0000
0000
,
0001
0000
0000
0000
,
0010
0000
0010
0000
,
0001
0000
1000
0000
,
0100
0000
1000
0000
,
0020
0000
0030
0000
,
0010
0000
0001
0000
,
0001
0000
1000
0000
,
0100
0000
1000
0000
,
0010
0000
0100
0000
,
0001
0000
1000
0000
,
0100
0000
1000
0000
,
0010
0000
0001
0000
,
0100
0000
0200
0000
,
0300
0000
1000
0000
,
0001
0000
0010
0000
,
0010
0000
1000
0000
,
0001
0000
0010
0000
,
0001
0000
1000
0000
,
0010
0000
0100
0000
,
1000
0000
0001
0000
,
0020
0000
0030
0000
,
0100
0000
0000
0000
,
0010
0000
0010
0010
,
0000
0000
0001
0000
,
1000
0000
0001
0001
,
0000
0000
0010
0000
,
1000
0000
0100
0100
,
0000
0000
1000
0000
,
0010
0010
0010
0010
,
0010
0000
1000
0000
,
0001
0000
0100
0100
,
0100
0000
1000
0000
,
0001
0000
0000
0010
,
0010
0000
0100
0000
,
0001
0000
0100
0100
,
0100
0000
0001
0000
,
1000
1000
1000
1000
,
1000
0000
0100
0000
,
0010
0000
0001
0000
,
0001
0000
0100
0000
,
1000
0000
0010
0000
,
0100
0000
0001
0000
,
1000
0000
0001
0000
,
0010
0000
1000
0000
,
0200
0000
0300
0000
,
1000
0000
0100
0000
,
0001
0000
0001
0000
,
0010
0000
0001
0000
,
1000
0000
1000
0000
,
0100
0000
0010
0000
,
0100
0000
0100
0000
,
1000
0000
0001
0000
,
0010
0010
0020
0030
,
0010
0000
0010
0000
,
0010
0000
0010
0000
,
0010
0000
0010
0000
,
0010
0000
1000
0000
,
0100
0100
0100
0000
,
0001
0000
1000
0000
,
0010
0010
0010
0000
,
0002
0000
0003
0000
,
0100
0000
0001
0000
,
1000
0000
0010
0000
,
1000
0000
0001
0000
,
0100
0000
0010
0010
,
0010
0000
1000
0000
,
0001
0000
0100
0000
,
0010
0000
0001
0000
,
0100
0000
1000
1000
,
1000
0000
0100
0000
,
0001
0000
0010
0000
,
0001
0000
0100
0000
,
1000
0000
0100
0100
,
0100
0000
0001
0000
,
1000
0000
0100
0000
,
1000
0000
0010
0000
,
0100
0000
0001
0001
,
0001
0000
0000
0000
;

//---------------dance-single - Copied from----------------
#NOTES:
     dance-single:
     Copied from:
     Medium:
     7:
     0.603,0.606,0.458,0.220,0.000:
0000
0000
0000
0000
,
0000
0000
0022
0033
,
0100
0000
0001
0000
1000
0000
0010
1000
,
0100
0000
1000
0010
0000
0100
0001
0000
,
0010
0000
0001
0000
1000
0000
0010
0001
,
0100
0000
0001
0100
0000
0000
0110
0000
,
1000
0001
0100
0001
,
1000
0000
0010
1000
0001
0100
0010
0000
,
0001
1000
0010
0100
,
0001
0000
1000
0010
0100
0001
1000
0100
,
1000
0000
0010
0000
0100
0000
0001
0010
,
0001
0000
1000
0000
0010
0000
1000
0100
,
1000
0001
0100
0010
,
0022
0000
0033
1000
,
1001
0000
1000
0100
1000
0000
0001
0000
,
0100
0000
0010
0001
0010
0000
1001
0000
,
0001
0000
0100
0010
1000
0000
0001
0000
,
0100
0000
0010
0001
0010
0000
1100
0000
,
0001
0000
1000
0010
0100
0000
1000
0000
,
0001
0000
0010
0100
1000
0000
0101
0000
,
1000
0000
0001
0100
1000
0000
0001
0000
,
0100
0000
0100
0010
0002
0000
0103
0000
,
1000
0000
0001
0100
0010
0000
1000
0000
,
0100
0000
1000
0010
0001
0000
1010
0000
,
0100
0000
0001
1000
0010
0000
0100
0000
,
0001
0000
0100
0010
1000
0000
0011
0000
,
0100
0000
0001
1000
0010
0000
0001
0000
,
0100
0000
1000
0001
1000
0000
0110
0000
,
0001
0000
1000
0100
0001
0010
0100
1000
,
0200
0000
0010
0310
,
1002
0000
0000
0103
,
1000
0000
0100
1000
0001
0100
0010
0000
,
1000
0100
0000
1000
0000
0010
0000
0001
,
0000
0100
0000
0001
0100
0000
0110
0000
,
2001
0000
0000
3100
,
0010
0000
0001
0010
0001
0100
1000
0000
,
1000
0100
0000
0001
0000
0010
0000
0001
,
0100
0000
0010
0000
1000
0100
0001
0000
,
0011
0100
0010
1100
,
1010
0000
0100
0000
0001
0010
0011
0000
,
1001
0001
0110
1010
,
1000
1100
2020
3030
,
1001
0101
0010
0100
,
1100
0000
0101
0000
0010
0100
0110
0000
,
1100
0100
0001
0011
,
0101
1010
0200
0310
,
0001
0010
0001
0000
1000
0100
1000
0000
,
0010
0100
0010
0000
0001
0000
1000
0000
,
0001
0010
0001
0000
1000
0100
1000
0000
,
0010
0100
0010
0000
1000
0000
0001
0000
,
0010
0001
0010
0000
0100
1000
0100
0000
,
1000
0001
1000
0000
0001
0000
0010
0000
,
0001
1000
0001
0000
0010
0001
0010
0000
,
0200
0000
0010
0310
,
1001
0000
0100
0000
1000
0010
0001
0000
,
0101
0000
0001
0010
0000
0001
0100
0000
,
1001
0000
0100
0000
0010
0000
1000
0100
,
1000
0000
0010
1000
0000
0100
1000
0000
,
1001
0000
0010
0000
0001
0100
0001
0010
,
0001
0000
0100
0001
0000
0100
0010
0000
,
1001
0010
0100
0001
,
1000
0100
0010
0001
0010
0000
1001
0000
,
1002
1000
1000
1000
,
1000
1000
1000
1000
,
1000
1000
1000
1000
,
1000
1000
1003
1001
,
1001
0010
1100
0010
,
0101
0101
1100
0010
,
1100
0101
1001
0010
,
2002
0000
3003
0010
,
0001
1000
0001
1000
0000
0020
0000
0030
,
0100
0010
0100
0010
0000
0002
0000
0003
,
1000
0001
1000
0001
0000
0200
0000
0300
,
0010
0100
0010
0100
0000
1000
0001
0000
,
0001
0100
0001
0100
0000
2000
0000
3000
,
0010
1000
0010
1000
0000
0020
0000
0030
,
0001
0010
0001
0010
0000
0200
0000
0300
,
1000
0100
1000
0100
0000
0010
0100
0000
,
1000
0100
0010
0001
0000
2000
0000
3000
,
0001
0010
0100
1000
0000
2000
0000
3000
,
0001
0100
0010
1000
0000
0002
0000
0003
,
1000
0100
0010
0001
0000
1100
0000
0000
,
1000
0100
1000
0100
0000
0101
0000
0000
,
0001
0100
0001
0100
0000
0110
0000
0000
,
0010
0100
0010
0100
0000
1001
0000
0000
,
1000
0001
1000
0001
0010
0000
2000
0000
,
3100
0000
0000
0000
;

//---------------dance-single - Copied from Copied f----------------
#NOTES:
     dance-single:
     Copied from Copied f:
     Hard:
     10:
     0.819,0.833,0.722,0.132,0.000:
0000
0000
0000
0000
,
0000
0000
0220
0330
,
0001
0100
1000
0000
0100
0001
1000
0100
,
1100
0000
0010
0110
0000
0001
0100
0001
,
0010
0000
0001
1000
0100
1000
0010
0010
,
1100
0000
0010
1100
0000
0010
1001
0000
,
1001
0100
1000
0010
0001
0100
0001
0010
,
0001
0100
1000
0010
1000
0100
1000
0000
,
0001
0100
0010
0001
0100
0010
1000
0001
,
0100
0010
0001
0100
0010
1000
0001
0000
,
1001
0000
1100
0000
1010
0000
1010
0001
,
1001
0011
0101
0000
,
1001
0000
1010
0000
1001
0010
1100
0010
,
2002
0000
3003
0000
0001
0010
0001
0010
,
1001
0000
1000
0100
0001
0010
0100
0001
,
0100
0000
1000
0100
0010
0100
0001
0000
,
1001
0000
0010
0001
0100
0010
1000
0100
,
1000
0000
1000
0100
0001
0100
0010
0000
,
0110
0000
1000
0001
0100
0010
1000
0001
,
0100
0000
0001
1000
0100
0010
0001
0000
,
1100
0000
0001
0100
0010
1000
0100
0010
,
0100
0000
0100
1000
0001
0000
1000
0001
,
0011
0000
0100
1000
0010
0100
0001
0010
,
0001
0000
0100
0010
1000
0001
0100
0000
,
0011
0000
0100
0001
0100
0010
1000
0100
,
1000
0000
0100
0010
0001
0100
0001
0000
,
1001
0000
0010
0100
0001
1000
0100
0010
,
0001
0000
1000
0010
0001
0010
0100
0000
,
1100
0000
0010
0100
0001
1000
0100
1000
,
2200
0000
0000
0000
3300
0000
0010
0010
,
0101
0000
0010
0000
1000
0000
0100
1000
,
1100
0000
0010
0011
0000
0100
0110
0000
,
0100
1000
0000
0010
0000
0001
0000
0100
,
0000
0001
0000
0100
1010
0000
0101
0000
,
1001
0000
0010
0000
0001
0100
0010
0010
,
1010
0000
0100
0011
0000
0100
1010
0000
,
0001
1000
0010
0100
0001
0010
0001
0100
,
1010
0010
0011
0001
0101
0100
1100
1000
,
1001
0010
0100
0001
0100
1000
0100
0010
,
1000
0100
0001
0010
0001
0100
1001
0000
,
0010
0100
1000
0001
0010
0001
0100
0010
,
1000
0100
0010
0001
0100
0010
0011
0000
,
0001
0100
0010
1000
0100
1000
0001
0100
,
0010
0001
1000
0100
0010
0100
1010
0000
,
0100
1000
0001
0100
0010
0001
0100
0010
,
2000
0000
3200
0000
1300
1000
1010
0000
,
1001
1000
0001
0100
0001
0010
1000
0001
,
0010
0001
1000
0010
0001
0100
0001
0100
,
1000
0010
0001
0010
1000
0100
0001
1000
,
0100
0010
1000
0001
0100
0010
0001
0100
,
1000
0001
0100
1000
0010
0001
0010
1000
,
0100
0010
0001
1000
0010
0100
0001
0010
,
0001
1000
0100
0010
1000
0001
0010
0100
,
2002
0000
3003
0010
,
1001
0000
0100
0000
0001
0010
0001
0100
,
1001
0000
1001
0100
0000
0001
1000
0100
,
1100
0000
1000
0001
0010
1000
0001
1000
,
0110
0000
0110
0001
0000
1000
0001
0010
,
0011
0000
0100
0000
1000
0010
0001
0100
,
1001
0000
1001
0100
0000
0001
0100
0010
,
1100
0000
0001
0000
0100
0010
1000
0100
,
1001
0110
1001
0101
,
1001
1000
0001
1000
0001
0010
0100
1000
,
0001
1000
0001
1000
0001
1000
0100
0010
,
0001
1000
0001
1000
0001
0010
0100
1000
,
0001
1000
0001
1000
0001
1000
0010
0000
,
1001
0110
0011
1100
,
0110
1001
0220
0330
,
1100
0011
0101
0110
,
0022
0033
1001
0010
,
1000
0100
1000
0100
1000
0001
0010
0100
,
1000
0100
1000
0100
1000
0001
0010
0100
,
1000
0100
1000
0100
1000
0001
0010
0100
,
1000
0100
1000
0100
0010
0001
0011
0000
,
0001
0010
0001
0010
0001
1000
0100
0010
,
0001
0010
0001
0010
0001
1000
0100
0010
,
0001
0010
0001
0010
0001
1000
0100
0010
,
0001
0010
0001
0010
0001
1000
1100
0000
,
0110
0001
1000
0001
1000
0001
0010
0100
,
1000
0001
1000
0001
1000
0001
0010
0100
,
1000
0001
1000
0001
1000
0001
0010
0100
,
1000
0001
1000
0001
1000
0001
0110
0000
,
1000
0100
0010
0001
1000
0100
0010
0001
,
1000
0100
0010
0001
1000
0100
0010
0001
,
1000
0001
1000
0001
1000
0001
0010
0100
,
1000
0100
0010
0001
0020
0000
1030
0000
,
1001
0000
0000
0000
;

//---------------dance-single - Copied from Copied f----------------
#NOTES:
     dance-single:
     Copied from Copied f:
     Challenge:
     10:
     0.876,0.758,0.546,0.282,0.013: // measure 1
0000
0000
0000
0000
,  // measure 2
0000
0000
0220
0330
,  // measure 3
0010
1000
0100
0001
0010
0100
0010
0001
,  // measure 4
0020
0000
0130
2000
0000
3010
0002
0010
,  // measure 5
0013
0000
0100
0001
1000
0010
0001
1000
,  // measure 6
0200
0000
1300
2000
0000
3010
1010
0000
,  // measure 7
0101
1000
0001
0100
1000
0001
0100
0001
,  // measure 8
0010
0100
0001
0100
1000
0010
0001
0000
,  // measure 9
0010
0100
1000
0100
0010
0001
1000
0100
,  // measure 10
1000
0010
0001
0010
1000
0100
0010
0100
,  // measure 11
0011
0000
1100
0000
1001
0000
1100
0001
,  // measure 12
1010
0000
0101
0000
1001
0100
0010
0100
,  // measure 13
1001
0000
1100
0000
0100
0001
1000
0100
,  // measure 14
2002
0000
0000
0000
3003
0000
0000
0000
0010
0000
1000
0000
0001
1000
0001
1000
,  // measure 15
0100
0001
1000
0010
0100
1000
0001
0010
,  // measure 16
0100
1000
0001
0100
0010
0001
0100
0000
,  // measure 17
0011
1000
0100
0001
1000
0100
0001
0100
,  // measure 18
1000
0001
0100
1000
0001
1000
0010
0000
,  // measure 19
0110
0001
1000
0010
1000
0001
0100
1000
,  // measure 20
0001
0100
0010
0001
1000
0001
0010
0000
,  // measure 21
1010
0001
0100
0010
0100
1000
0001
1000
,  // measure 22
0100
0010
0001
1000
0010
0000
1000
0001
,  // measure 23
1001
0001
1000
0001
0100
1000
0010
1000
,  // measure 24
0001
1000
0001
0100
0010
0100
1000
0000
,  // measure 25
0101
0001
0010
1000
0100
1000
0010
0001
,  // measure 26
1000
0001
0010
1000
0100
0010
0001
0000
,  // measure 27
1001
0100
0001
0010
0100
1000
0001
0100
,  // measure 28
0001
1000
0001
0010
1000
0100
0001
0000
,  // measure 29
0011
0100
0010
0100
0001
1000
0010
0001
,  // measure 30
0220
0000
0000
0000
0330
0000
0001
1000
,  // measure 31
0011
0000
1000
0001
1000
0001
1000
0010
,  // measure 32
0002
0010
0013
0200
0001
0010
0320
1000
,  // measure 33
1030
0010
0000
0010
0000
0100
0001
0010
,  // measure 34
0000
0100
0001
1000
1100
0000
0101
0000
,  // measure 35
0001
0010
1000
0100
0001
0001
0100
0001
,  // measure 36
2000
0100
0100
3020
1000
1000
2030
0010
,  // measure 37
3010
0001
1000
0010
1000
0100
0001
1000
,  // measure 38
1100
0010
1100
0000
1001
0010
0101
0000
,  // measure 39
0101
1000
0001
0010
0001
1000
0010
0100
,  // measure 40
1000
0001
1000
0010
0100
0001
0110
0000
,  // measure 41
1001
0100
0001
0010
1000
0100
0010
1000
,  // measure 42
0100
0010
0100
0001
1000
0100
0011
0000
,  // measure 43
0110
1000
0010
1000
0100
0001
0010
1000
,  // measure 44
0001
1000
0100
0010
0001
0010
1100
0000
,  // measure 45
1001
0010
0100
0001
1000
0010
1000
0100
,  // measure 46
0002
1000
0203
0000
0310
0100
1001
0000
,  // measure 47
1100
0010
1000
0001
0010
1000
0100
0001
,  // measure 48
1000
0010
0001
0100
0010
1000
0010
0100
,  // measure 49
1000
0001
0100
0001
0010
1000
0010
0100
,  // measure 50
0001
1000
0001
0010
0001
1000
0100
0010
,  // measure 51
1000
0001
0100
1000
0100
0001
0100
1000
,  // measure 52
0100
0010
0100
0001
0100
1000
0010
0100
,  // measure 53
0010
0001
0100
1000
0010
0001
1000
0001
,  // measure 54
2002
0000
0000
0000
0000
0000
0000
0000
3003
0000
0000
0000
1000
0100
1000
0000
,  // measure 55
1100
0000
0001
0100
0010
1000
0100
1000
,  // measure 56
2000
0010
3010
0002
0100
0103
2000
0000
,  // measure 57
3010
0100
0001
0001
0100
1000
0100
0010
,  // measure 58
2000
0100
3100
0020
0001
0031
0200
0000
,  // measure 59
1300
0010
0001
0010
1000
0100
1000
0010
,  // measure 60
0200
1000
1300
0002
0010
0013
2000
0000
,  // measure 61
3100
0000
0010
0000
0010
0010
1000
1000
,  // measure 62
0101
0000
1100
0000
0101
0010
1001
0000
,  // measure 63
1001
0010
0001
1000
0001
0010
1000
0010
,  // measure 64
0001
0010
1000
0100
0010
1000
0100
0001
,  // measure 65
0100
0010
1000
0100
0010
0100
0001
0010
,  // measure 66
1000
0100
0001
0010
1000
0001
0100
0000
,  // measure 67
1001
0110
1010
0110
,  // measure 68
0011
1000
1010
0000
0120
0000
0130
0000
,  // measure 69
1010
1010
0101
0011
,  // measure 70
0021
0000
0031
0000
1001
0001
0100
0000
,  // measure 71
1000
1000
0010
1000
0001
0100
1000
0010
,  // measure 72
0001
1000
0010
0001
0010
0100
1000
0001
,  // measure 73
0010
1000
0001
1000
0100
0010
0001
1000
,  // measure 74
0001
1000
0010
1000
0001
0010
1100
0000
,  // measure 75
0001
0100
1000
0010
0001
1000
0010
0100
,  // measure 76
1000
0100
0001
1000
0100
0010
0100
1000
,  // measure 77
0010
0001
0100
1000
0010
0001
0010
1000
,  // measure 78
0100
1000
0100
0001
0010
1000
0110
0000
,  // measure 79
0001
0010
0100
1000
0001
1000
0100
0001
,  // measure 80
0010
0100
0001
0010
0100
0001
0100
1000
,  // measure 81
0001
1000
0010
0100
1000
0010
0100
1000
,  // measure 82
0100
1000
0001
0100
0010
1000
0101
0000
,  // measure 83
0010
0100
1000
0010
0001
1000
0010
0001
,  // measure 84
0010
1000
0100
0001
1000
0001
0010
0100
,  // measure 85
0010
0001
1000
0100
1000
0001
0010
0001
,  // measure 86
0100
1000
0010
1000
0010
0000
1100
0010
,  // measure 87
0101
0000
0000
0000
;
