#TITLE:GLOSSOLALIA;
#SUBTITLE:;
#ARTIST:ASAKI;
#TITLETRANSLIT:;
#SUBTITLETRANSLIT:;
#ARTISTTRANSLIT:;
#GENRE:;
#CREDIT:;
#MENUCOLOR:;
#NEWMETERSYSTEM:NO;
#BANNER:GLOSSOLALIA-bn.png;
#BACKGROUND:GLOSSOLALIA-bg.png;
#LYRICSPATH:;
#CDTITLE:MixMania CD Title.png;
#MUSIC:GLOSSOLALIA.mp3;
#OFFSET:0.060;
#SAMPLESTART:46.620;
#SAMPLELENGTH:11.860;
#SELECTABLE:YES;
#LISTSORT:;
#BPMS:0.000=128.000,9.000=121.020,23.000=135.000,24.000=269.960,406.000=260.000,418.000=270.000;
#STOPS:23.000=2.660
,192.000=0.900
,220.000=0.900
;
#BGCHANGES:;
#ATTACKS:;

//---------------dance-single - ----------------
#NOTES:
     dance-single:
     :
     Easy:
     6:
     0.372,0.601,0.078,0.110,0.000:
0000
0000
0000
0000
,
0000
0000
0000
0000
,
0000
0000
1000
0000
0001
0000
0100
0001
,
0010
0100
0001
1000
,
0010
1000
0100
0000
1000
0000
0001
0000
,
1000
0000
0001
1000
0010
0000
1001
0000
,
0100
0000
0001
0000
,
1000
0000
0100
1000
,
0100
0000
1000
0000
,
0010
0000
0001
0010
,
1000
0000
0100
0000
,
1000
0000
0001
1000
,
0010
0000
0100
0000
,
0001
0000
1000
0000
,
0001
0000
0010
0000
,
0001
0000
0010
0000
,
0001
0000
0010
0000
,
0001
0010
0001
0010
,
0100
0000
1000
0000
,
0100
0000
1000
0000
,
0100
0000
1000
0000
,
0100
1000
0001
0000
,
0100
0000
0010
0000
,
0001
0000
0100
0000
,
0001
0000
0010
0000
,
1000
0000
0100
0000
,
1000
1000
1000
0000
,
0010
1000
0001
0010
,
0000
0001
1000
0100
,
0000
1001
0000
0100
,
0010
0100
0000
1000
,
0010
0001
2000
0000
,
3002
0000
2003
0000
,
3002
0000
0203
0000
,
0300
0000
0100
0000
,
0001
0000
1000
0100
,
1000
0000
0001
0000
,
0100
0000
0001
0000
,
0001
0010
1000
0000
,
0100
0000
1000
0000
,
0001
0100
1000
0000
,
0010
0000
1000
0000
,
1000
0100
0010
0001
,
0010
0000
0100
0000
,
0001
0010
1000
0000
,
0100
0000
1000
0000
,
0100
1000
0010
0000
,
0100
0000
1001
0000
,
1001
0000
0100
0000
,
0010
0000
0001
0000
,
0100
0000
1000
0010
,
1000
0000
0100
0000
,
1000
0000
0001
0000
,
0100
0000
0010
0000
,
0100
0000
1000
0010
,
0001
0000
0001
0000
,
0100
0000
0010
0000
,
1000
0000
0100
0000
,
1000
0000
0010
0000
,
0100
0000
0000
0100
,
0000
0000
0100
0000
,
0001
0000
0000
0001
,
0000
0000
0001
0000
,
0010
0000
0000
0000
,
1000
0000
0100
0000
,
0001
0000
0010
0000
,
0001
0000
0100
0000
,
1000
0000
0000
0000
,
0001
0000
0000
0000
,
0010
0000
0001
0000
,
0100
0000
0001
0001
,
1000
1000
0100
0000
,
1000
0000
0010
0010
,
0001
0000
0010
0000
,
0001
0000
0100
0000
,
1000
0000
0100
0000
,
0001
0000
0010
0001
,
0010
1000
0100
0000
,
1000
0000
0010
0001
,
0010
0000
0100
0000
,
1000
0100
0010
0000
,
0001
0000
0100
0001
,
0010
0001
0100
1000
,
0100
0000
0010
0000
,
0100
0000
0001
0000
,
1000
0000
0100
0000
,
1001
0000
0000
0010
,
0000
0000
2002
0000
,
0000
0000
3003
0000
,
0100
0000
0010
0001
,
0010
0000
0100
1000
,
0001
0000
0010
0001
,
1000
0000
0100
1000
,
0002
0000
0000
0003
,
1000
0000
0100
0000
,
0001
0010
0100
1000
,
0100
0000
0001
0000
,
1000
0000
0001
0000
,
1100
0000
1000
0100
,
0001
0000
0100
0000
,
0001
1000
0100
0000
,
0010
0000
0001
0000
,
0001
0000
1000
0100
,
0001
0000
1000
0000
,
0001
0000
0001
0100
,
1000
0000
0100
0000
,
0010
1000
0100
0000
,
0010
0000
0100
0000
,
0001
1000
0100
0010
,
0001
0000
0010
0000
,
0001
0000
0100
0000
,
1000
0100
1000
0010
,
0001
0000
0010
0100
,
0001
0000
1000
0010
,
0001
0000
1000
0000
,
1000
0010
1000
0010
,
1000
0000
0100
0000
,
1000
0000
0010
1000
,
0100
0000
0010
0000
,
0100
0000
0001
0000
,
1000
0100
0001
0000
,
0010
1000
0010
0000
,
0100
0001
0100
0000
,
0020
0000
2030
0000
,
3100
0001
1000
0000
,
1001
0000
1000
0001
,
1000
0000
0220
0330
,
1000
0000
0010
0000
2002
0000
0000
3003
;

//---------------dance-single - Copied from----------------
#NOTES:
     dance-single:
     Copied from:
     Beginner:
     3:
     0.239,0.349,0.133,0.117,0.000:
0000
0000
0000
0000
,
0000
0000
0000
0000
,
0000
1000
0000
0100
,
0000
0001
0000
0010
,
0000
0001
0000
0100
,
0000
1000
0000
0010
,
1000
0000
0000
0000
,
0001
0000
0000
0000
,
0010
0000
0000
0000
,
0001
0000
0000
0000
,
1000
0000
0000
0000
,
0001
0000
0000
0000
,
0100
0000
0000
0000
,
0001
0000
0000
0000
,
1001
0000
0010
0000
,
0100
0000
0000
0000
,
0100
0000
0001
0000
,
0010
0000
0000
0000
,
0100
0000
0001
0000
,
1000
0000
0000
0000
,
1000
0000
0010
0000
,
0100
0000
0001
0000
,
1001
0000
0000
0000
,
1001
0000
0000
0000
,
1001
0000
0000
0000
,
1000
0000
0001
0000
,
2002
0000
0000
3003
0000
0000
0000
0000
,
0010
0000
0000
0000
,
1000
0000
0100
0000
,
0000
2002
3003
0000
,
0000
0000
0001
0000
,
1000
0000
0000
0000
,
1000
0000
0001
0000
,
0000
0000
0010
0000
,
0010
0000
1000
0000
,
0000
0000
0001
0000
,
1000
0000
0010
0000
,
0000
0000
0000
0000
,
0000
0000
0010
0000
,
0001
0000
1000
0000
,
0000
0000
0000
0000
,
1000
0000
0001
0000
,
0100
0000
1001
0000
,
0000
0000
1001
0000
,
1001
0000
0000
0000
,
1001
0000
1001
0000
,
0100
0000
0000
0000
,
0001
0000
0100
0000
,
0010
0000
1000
0000
,
0100
0000
0000
0000
,
0001
0000
0010
0000
,
0001
0000
0000
0000
,
1000
0000
0100
0000
,
0001
0000
0000
0000
,
0001
0000
0100
0000
,
1001
0000
0100
0000
,
1000
0000
0010
0000
,
1000
0000
0000
0000
,
0001
0000
0100
0000
,
0001
0000
0000
1000
,
0000
0000
0010
0000
,
0010
0000
0000
1000
,
0000
0000
0001
0000
,
1001
0000
1000
0000
,
0001
0000
0100
0000
,
0010
0000
0000
0000
,
1000
0000
0100
0000
,
0001
0000
0000
0010
,
0000
0000
0001
0000
,
1000
0000
0000
0100
,
0000
0000
1000
0000
,
0100
0100
0100
0000
,
0000
0000
0010
0010
,
0010
0000
0000
0000
,
1000
0000
0000
0000
,
0100
0000
0010
0000
,
0001
0000
2000
0000
,
3000
0000
0002
0000
,
0003
0000
0100
0100
,
0100
0000
0000
0000
,
0010
0010
0010
0000
,
0000
0000
0000
0000
,
0001
0000
0000
0000
,
0010
0000
0001
0000
,
2000
0000
0000
0000
,
0000
0000
3000
0000
,
1001
0000
0000
1001
,
0000
0000
2002
0000
,
0000
0000
3003
0000
,
0010
0000
0000
0000
,
0001
0000
0000
0000
,
1000
0000
0000
0000
,
0100
0000
0000
0000
,
1000
0000
0000
0000
,
0001
0000
0100
0000
,
0001
0000
0000
0000
,
1000
0000
0000
0000
,
0010
0000
0010
0000
,
0200
0000
0000
0300
,
0000
0000
0001
0000
,
0100
0000
0010
0000
,
1000
0000
0001
0000
,
0000
0000
1000
0000
,
0000
0000
0010
0000
,
0010
0000
2000
0000
,
3000
0000
0000
0000
,
0001
0000
0000
0000
,
0100
0000
1000
0000
,
0001
0000
0000
0000
,
0001
0000
1000
0000
,
0100
0000
1000
0000
,
0020
0000
0030
0000
,
0200
0000
0300
0000
,
1000
0000
0001
0000
,
0100
0000
0000
0000
,
0010
0000
0100
0000
,
0010
0000
0000
0000
,
1000
0000
0001
0000
,
0100
0000
0001
0000
,
0010
0000
0000
0000
,
0100
0000
0000
0000
,
0002
0000
0003
0000
,
2000
0000
3000
0000
,
1001
0000
0000
0000
,
1000
1000
1000
0000
,
1000
0000
0100
0100
,
0100
0000
0100
0000
,
0001
0001
0001
0000
;

//---------------dance-single - Copied from----------------
#NOTES:
     dance-single:
     Copied from:
     Medium:
     8:
     0.558,0.701,0.290,0.196,0.000:
0000
0000
0000
0000
,
0000
0000
0000
0000
,
0000
0000
1000
0000
0100
1000
0001
0010
,
0001
0000
0100
0001
1000
0010
0100
0000
,
1000
0000
0100
1000
0010
0000
0100
0001
,
0010
0000
0100
0001
0010
0100
1001
0000
,
0100
0000
0001
0000
1000
0000
0000
0100
,
0000
0100
0001
0010
,
0001
0000
0100
0000
0001
0000
0000
1000
,
0000
0001
0010
0100
,
0001
0000
1000
0000
0100
0000
0000
1000
,
0000
0100
1000
0100
,
0100
0000
0010
0000
0001
0000
0000
0001
,
0000
0001
0100
0010
,
1000
1000
0100
0100
,
0010
0010
0001
0001
,
0100
1000
0010
0001
,
1000
0001
0100
1000
,
0010
1000
0100
0001
,
0010
1000
0001
0100
,
1000
0001
1000
0010
,
0001
1000
0100
0001
,
1000
0010
1010
0000
,
1100
0000
0100
0001
,
0011
0000
0101
0000
,
0001
1000
0010
0100
,
0001
0100
0001
0100
0001
0000
1000
0000
,
0100
0000
0000
0100
0000
0000
0010
0000
,
0001
0010
0001
1000
,
0100
1001
0000
0010
,
0001
0010
0100
0001
,
0010
1000
0100
1000
,
0010
0100
0001
0001
,
1000
0001
0100
1000
,
1001
0000
0010
1000
,
0101
0000
1100
0000
,
0011
0000
1010
0000
,
1010
0000
0011
0000
,
1000
0001
0100
0000
,
0001
1000
0010
0000
,
0001
0010
1000
0000
,
1000
0100
0001
0100
,
2002
3003
1000
0100
,
0002
0000
0023
0000
,
0031
0100
2000
0000
,
3200
0000
1300
0010
,
0001
0100
0001
0010
,
1000
0001
0100
0010
,
0100
0000
1000
0000
0010
0000
0000
0010
,
0000
0001
0100
0001
,
0010
0000
1000
0000
0001
0000
0000
0001
,
0000
1000
0100
0001
,
0010
0000
0100
0000
1000
0000
0000
1000
,
0000
0100
0001
0010
,
0001
0000
1000
0000
0100
0000
0000
2002
,
0003
0000
0010
3002
,
0000
0100
0203
0000
,
1000
0000
0010
0000
,
0010
0010
0301
0010
,
1000
0000
0000
0001
0000
0000
0010
0000
,
0000
0001
0000
0000
0100
0000
1000
0000
,
0010
0000
0000
1000
0000
0000
0100
0000
,
0000
0001
0000
0000
0100
0000
0010
0000
,
1000
0100
0010
0001
,
1100
0000
0011
0000
,
1001
0000
0010
0100
,
0001
1000
0100
0010
,
1000
0001
1000
0000
,
0001
0010
0001
0000
,
0100
0010
0100
0000
,
0001
1000
0002
0000
,
1003
1000
1100
0000
,
1001
0000
0001
0001
,
0101
0000
1001
0000
,
1000
0100
0001
0010
,
0100
1000
0100
0010
,
1000
0000
0102
0000
,
1000
0000
0010
0000
,
0103
0000
1000
0001
,
0010
0000
1001
0000
,
0001
1000
0010
0000
,
1001
0000
1000
0100
,
0001
0100
1000
0010
,
0100
0000
0001
0000
,
1020
0100
0100
0001
,
0100
0100
1000
0130
,
1001
0000
1000
0100
0000
0010
0001
0000
,
0001
0100
0000
0000
0220
0000
0000
0000
,
0000
0000
0000
0330
,
1000
0000
0001
0000
0100
0000
0001
0010
,
0000
1000
0001
0010
,
0001
0000
0100
0000
0010
0000
0010
1000
,
0000
1000
0001
0100
,
0010
0001
0010
1000
,
0001
0010
0001
1000
,
0010
0000
0000
0001
0000
0000
0010
0000
,
0000
0100
1000
0001
,
0100
0000
0001
0000
0010
0001
0000
0100
,
0000
0010
1000
0100
,
0001
1000
0100
0010
,
1000
0000
0001
1000
,
0010
0001
0100
1000
,
0001
1000
0001
0010
,
1000
0010
0100
0001
,
1000
0010
2002
3003
,
1000
0100
0010
0001
,
0100
0001
0010
0100
,
0001
1000
0100
0010
,
1000
0000
0100
0000
0010
0100
0010
0100
,
0010
1000
0100
0010
,
0100
0000
0000
0001
0000
0000
0010
0000
,
2000
0100
0100
0100
,
0020
0000
0000
3030
,
1001
0100
0001
0010
,
0001
1000
0100
0100
,
0020
0001
0001
1000
,
0130
0001
0100
1000
,
0010
0001
0100
0001
,
1000
0100
0010
1000
,
0001
0100
0010
0001
,
0010
0100
1000
0001
,
0100
0001
0101
0000
,
0100
1000
1100
0000
,
1001
0010
0100
0000
,
1001
0001
0020
0100
,
0130
0000
1001
1000
,
0200
0310
2001
3000
,
0001
0000
0100
0000
2200
0000
0000
3300
;

//---------------dance-single - Copied from----------------
#NOTES:
     dance-single:
     Copied from:
     Hard:
     10:
     0.824,0.901,0.603,0.399,0.000:
0000
0000
0000
0000
,
0000
0000
0000
0000
,
0000
0000
0100
1000
0001
0000
0010
0001
,
0100
1000
0100
0001
0010
0001
0200
0000
,
0001
0001
0310
0000
1000
0000
0200
1000
,
1300
0000
0010
1000
0100
0001
1001
0000
,
1010
0000
1001
0000
0001
0000
0010
0001
,
0000
0001
0010
0000
0002
0000
0103
0000
,
0010
0000
1100
0000
1001
0000
0010
0100
,
0000
0100
1000
0000
0200
0000
0310
0000
,
0001
0000
1010
0000
0101
0000
1000
0001
,
0000
0001
0100
0000
2000
0000
3010
0000
,
0010
0000
0101
0000
0110
0000
1000
0100
,
0000
0100
0001
0000
0001
0000
0100
0000
,
1000
0100
1000
0100
1000
0000
1000
0100
,
0010
0001
0010
0001
0010
0000
0001
0010
,
0100
0010
0100
0010
0100
0000
0100
1000
,
0100
0010
0100
0010
0100
0010
0100
0000
,
0001
0000
0011
0000
1010
0000
0010
1000
,
0000
1000
0100
0000
2000
0000
3001
0000
,
0010
0000
1100
0000
0110
0000
0010
0001
,
0000
0001
1000
0000
1000
0001
0010
0000
,
1001
0011
0201
0010
,
1300
0000
1100
1010
,
1002
0010
0103
1000
,
2000
3002
0203
0302
,
0013
0001
0100
0001
0100
0000
1100
0000
,
0010
0000
0010
0001
0000
1000
0010
0000
,
0100
0001
1000
0000
0110
0000
0011
0000
,
0100
0000
1001
0010
0000
0001
0100
0000
,
1010
0000
1000
0000
0010
0000
0100
0001
,
1000
0000
0100
0000
0010
0001
0010
0100
,
0010
0100
1000
0010
1000
0001
0100
0001
,
1000
0100
0000
0000
1000
0000
0010
0000
,
0001
0010
0100
1000
0100
0000
0100
1000
,
0000
0100
0010
0000
0001
0000
0010
0000
,
1000
0000
0100
0000
0010
0000
0001
0100
,
0000
0010
1000
0000
0100
0000
1000
0000
,
0100
0001
0010
0000
0001
0000
1000
0100
,
0000
0010
0001
0000
0100
0000
0010
0000
,
1000
0001
0010
0000
0001
0000
0100
0010
,
0000
0010
0001
0000
0100
0000
1000
0000
,
1000
0100
0010
0001
1000
0000
1100
0000
,
1020
0130
2002
3003
,
0001
0011
0102
0013
,
2001
3010
0010
1000
,
0200
1000
0301
0010
,
0001
0000
0100
0010
0001
0010
1000
0001
,
0200
0300
0000
0000
1100
0000
0000
0000
0011
0000
0000
0000
0100
0000
1000
0000
,
0000
1000
0010
0000
0001
0000
0100
0000
,
0010
0000
0101
0000
0011
0000
0100
0001
,
0000
0010
1000
0000
0100
0000
1000
0000
,
0100
0000
1001
0000
0011
0000
0001
1000
,
0000
1000
0010
0000
0100
0000
0001
0000
,
0010
0000
1100
0000
0011
0000
0002
2000
,
0000
3003
0000
0000
0000
0000
0000
0000
0000
0000
0000
0000
0000
0000
0000
0000
0010
0000
0000
0000
0000
0000
0000
0000
0000
0000
0000
0000
0000
0000
0000
0000
0100
0000
0000
0000
0000
0000
0000
0000
0000
0000
0000
0000
0000
0000
0000
0000
0001
0000
0000
0000
0000
0000
0000
0000
1000
0000
0000
0000
0000
0000
0000
0000
,
0100
0000
0010
0001
1000
0000
0010
0000
,
0001
0000
0100
0000
0001
0000
0010
1000
,
0001
0000
0100
0001
1000
0000
0100
0000
,
0010
0001
0000
0001
0010
0000
0010
0100
,
0000
0100
1000
0000
1010
0000
0101
0000
,
1000
0100
0000
0100
0010
0000
0010
0001
,
0000
0001
0010
0000
0011
0000
1100
0000
,
1001
0001
0010
0001
,
0100
0010
1000
0100
,
1000
0010
1000
0000
0100
0001
0100
0000
,
0010
0001
0010
0000
1000
0010
1000
0000
,
1000
0001
0000
0001
0100
0000
0100
1000
,
0000
1000
0010
0000
1001
0000
0110
0000
,
1000
0010
0000
0010
0001
0000
0001
0100
,
0000
0100
1000
0000
0110
0000
1001
0000
,
1002
1003
1100
0010
,
2002
3003
0201
0310
,
0011
0100
2002
3003
,
1000
0001
0010
0001
,
1000
0010
0001
0000
1000
0000
0100
0000
,
0010
0000
0001
0000
1000
0100
0010
0000
,
0001
0010
0100
0000
1000
0001
0010
0000
,
0001
1000
0010
0000
1020
0000
0130
0000
,
0011
0100
2002
3003
,
0201
0310
1100
0010
,
2002
3003
0001
0010
,
0001
0000
0100
0010
1000
0000
0100
0000
,
0001
0010
1000
0100
,
0010
1000
0010
0001
0100
0010
1000
0100
,
0010
0100
0001
0010
0001
0000
1001
0000
,
0110
0000
0010
0100
0000
0001
0010
0000
,
0100
0001
2000
0000
0002
0000
0000
0000
,
0000
0000
0000
3003
,
1001
0000
0001
0000
0100
0000
0010
0001
,
0000
1000
0100
0010
0100
0000
0100
0000
,
1000
0000
0001
0000
0010
0000
0001
0100
,
0000
0010
0001
0100
0001
0000
0010
0000
,
1000
0000
0100
0000
0001
0000
0010
0001
,
0000
1000
0100
1000
0010
0000
0001
0000
,
0020
0000
0001
0032
0000
0100
0200
0000
,
0303
1000
0100
0010
,
0001
0000
0010
0000
0001
0100
0000
0101
,
0000
1000
0100
0010
,
1000
0001
0100
0001
0010
0000
1000
0000
,
0100
0001
0010
0001
,
0100
0010
0001
1000
0100
0000
1000
0000
,
0100
0010
1000
0100
,
0002
0023
0002
0033
,
0100
0000
0010
0000
0001
0010
0100
1000
,
0100
0001
0010
0100
,
0001
0000
1000
0000
0100
0000
0010
0001
,
0100
0100
1000
0010
,
0100
0000
0001
0000
0010
0100
0010
0000
,
1001
0000
1000
0100
0000
0100
0001
0000
,
0010
0000
0001
0000
0100
1000
0100
0000
,
0110
0000
0001
0100
0000
0100
0001
0000
,
1000
0100
1000
0100
0010
0100
0010
0100
,
0001
0000
0100
0000
1000
0100
1000
0100
,
0010
0001
1000
0010
,
0100
0001
0100
0001
0010
0001
0010
0001
,
0010
0100
0001
1000
,
0100
0000
0010
1000
0100
0000
0001
0000
,
0100
0000
0010
0001
0100
0000
0001
0000
,
1000
0100
0010
0100
,
0001
0010
0001
0000
0001
1000
0010
0000
,
0001
1000
0001
1000
0001
0000
1001
0000
,
1000
0001
1000
0001
1000
0000
1001
0000
,
0110
0000
0000
1000
0100
0000
0001
0000
,
0120
1030
0201
0310
,
2002
3003
1200
0310
,
2001
3010
0202
0303
,
1010
0000
0011
0000
2002
0000
0000
3003
;

//---------------dance-single - Copied from Copied f----------------
#NOTES:
     dance-single:
     Copied from Copied f:
     Challenge:
     10:
     0.888,0.951,0.626,0.313,0.023: // measure 1
0000
0000
0000
0000
,  // measure 2
0000
0000
0000
0000
,  // measure 3
0000
0000
0000
0000
1000
0000
0100
0000
0001
1000
0010
0000
0100
0000
1000
0000
,  // measure 4
0010
0001
0010
0000
1000
0000
0001
0000
0010
1000
0001
0000
0100
0000
1000
0000
,  // measure 5
0001
0010
0001
1000
0010
0000
1000
0000
0001
0000
0000
0000
0100
0010
0001
0000
,  // measure 6
1000
0001
1000
0001
0010
1000
1001
0000
,  // measure 7
0001
0000
1010
0000
1001
0000
0010
1000
,  // measure 8
0000
1000
0010
0001
2000
0000
3100
0001
,  // measure 9
0010
0000
0110
0000
0101
0000
0010
0100
,  // measure 10
0000
0100
1000
0001
0200
0000
1300
0010
,  // measure 11
0100
0000
0011
0000
1100
0000
1000
0100
,  // measure 12
0000
1000
0100
1000
0002
0000
0103
1000
,  // measure 13
0010
0000
1010
0000
0110
0000
1000
0010
,  // measure 14
0000
0010
1000
0000
0001
1000
0100
0000
,  // measure 15
1000
0010
1000
0010
0001
0100
0001
0100
,  // measure 16
0010
1000
0010
1000
0010
0000
0001
0010
,  // measure 17
0100
1000
0100
1000
0100
0010
0100
0010
,  // measure 18
0100
0001
0100
0001
0100
0000
1000
0100
,  // measure 19
0001
0000
0011
0000
1010
0000
0010
0001
,  // measure 20
0000
0001
0100
0000
1000
0001
0010
0000
,  // measure 21
0010
0000
0011
0000
1010
0000
0010
1000
,  // measure 22
0000
1000
0001
0000
0100
1000
0010
0000
,  // measure 23
1001
0110
1020
0100
,  // measure 24
0031
0100
0011
0101
,  // measure 25
1002
1000
0103
1001
,  // measure 26
1000
0000
0001
0100
1000
0000
1000
0001
,  // measure 27
0010
0001
0100
0001
0100
0000
0011
0000
,  // measure 28
1000
0000
0100
1000
0000
0001
0010
0000
,  // measure 29
0010
1000
0001
0000
1001
0000
1010
0000
,  // measure 30
0001
0000
0201
0300
1000
0010
0100
0000
,  // measure 31
0011
0000
0010
1000
0100
0000
0001
0010
,  // measure 32
0100
0000
1001
0000
0100
0010
0001
0010
,  // measure 33
0001
0010
0100
1000
0100
0010
0001
0100
,  // measure 34
1000
0100
0000
0000
1000
0001
0010
0000
,  // measure 35
1000
0010
0100
0001
0010
0000
0100
0001
,  // measure 36
0000
0001
0010
0000
1000
0000
0010
0001
,  // measure 37
0100
0010
1000
0000
0010
0000
0010
0100
,  // measure 38
0000
0100
0001
0000
0010
0000
0100
1000
,  // measure 39
0100
0001
0010
0000
1000
0000
0001
0100
,  // measure 40
0000
0010
1000
0000
0100
0000
0010
0001
,  // measure 41
1000
0001
0010
0000
0001
0000
0100
0010
,  // measure 42
0000
0010
0001
0000
0010
0000
0001
0000
,  // measure 43
0001
0010
0100
1000
0001
0000
0110
0000
,  // measure 44
0021
1030
1002
1003
,  // measure 45
0010
0110
2100
3001
,  // measure 46
2001
3010
1000
0001
,  // measure 47
0020
0001
0130
0010
,  // measure 48
1000
0000
0001
0100
1000
0100
0001
1000
,  // measure 49
0020
0030
0000
0000
0110
0000
0000
0000
1100
0000
0000
0000
0100
0000
0010
0000
,  // measure 50
0000
0010
0100
0000
1000
0001
0100
1000
,  // measure 51
0100
0000
0011
0000
1100
0000
0010
1000
,  // measure 52
0000
0010
0001
0000
0001
0010
0100
0010
,  // measure 53
0100
0000
1001
0000
0011
0000
0001
0100
,  // measure 54
0000
0100
1000
0000
0100
0000
0100
1000
,  // measure 55
0010
0000
1001
0000
1100
0000
2000
0002
,  // measure 56
0000
3003
0000
0000
0000
0000
0000
0000
0000
0000
0000
0000
0000
0000
0000
0000
0010
0000
0000
0000
0000
0000
0000
0000
0000
0000
0000
0000
0000
0000
0000
0000
1000
0000
0000
0000
0000
0000
0000
0000
0000
0000
0000
0000
0000
0000
0000
0000
0001
0000
0000
0000
0000
0000
0000
0000
0010
0000
0000
0000
0000
0000
0000
0000
,  // measure 57
0100
0001
0010
1000
0100
0000
0100
0000
,  // measure 58
1000
0000
0010
0000
0100
0000
0001
0010
,  // measure 59
0100
1000
0100
0001
0010
0000
1000
0000
,  // measure 60
0100
1000
0000
1000
0100
0000
0100
0010
,  // measure 61
0000
0010
0001
0000
0011
0000
1001
0000
,  // measure 62
0001
0010
0000
0010
0100
0000
0100
1000
,  // measure 63
0000
1000
0100
0000
1100
0000
1001
0000
,  // measure 64
1001
0100
1000
0100
,  // measure 65
0100
0010
0001
0010
,  // measure 66
1000
0001
1000
0001
0100
1000
0100
0000
,  // measure 67
0010
0001
0010
0001
0100
0010
1000
0000
,  // measure 68
0001
1000
0000
1000
0010
0000
0010
0001
,  // measure 69
0000
0001
0100
0000
0110
0000
1001
0000
,  // measure 70
0001
0100
0000
0100
1000
0000
1000
0010
,  // measure 71
0000
0010
0001
0000
1001
0000
0110
0000
,  // measure 72
0120
0031
0101
0010
,  // measure 73
2001
3100
1200
0301
,  // measure 74
1001
1000
1002
0103
,  // measure 75
1000
0001
1000
0001
,  // measure 76
1000
0100
0010
0000
0001
0000
0100
0000
,  // measure 77
0010
0000
1000
0000
0001
0100
0010
0000
,  // measure 78
1000
0010
0100
0000
0001
1000
0010
1000
,  // measure 79
0100
1000
0100
0000
0102
0000
1003
0000
,  // measure 80
0101
1000
2001
3010
,  // measure 81
1020
0031
1010
0100
,  // measure 82
1002
0103
0001
0010
,  // measure 83
0001
1000
0100
0010
1000
0000
0100
0010
,  // measure 84
0001
0001
0100
0100
,  // measure 85
0010
0001
0010
1000
0001
0100
1000
0001
,  // measure 86
0100
0010
1000
0010
0100
0000
1000
0001
,  // measure 87
0110
0000
1000
0100
0000
0001
0010
0000
,  // measure 88
0010
0001
2000
0000
0000
0002
0000
0000
,  // measure 89
0000
0000
0000
3003
,  // measure 90
0110
0000
1000
0000
0001
0000
0010
0001
,  // measure 91
0000
1000
0100
0010
0001
1000
0001
0010
,  // measure 92
1000
0000
1000
0000
0010
0000
1000
0100
,  // measure 93
0000
0010
0001
0100
0001
1000
0100
0001
,  // measure 94
0010
0000
1000
0000
0100
0000
0010
0001
,  // measure 95
0000
1000
0010
0100
0010
1000
0001
0000
,  // measure 96
0020
0000
0001
2030
0000
0010
0020
0000
,  // measure 97
3030
1000
0001
0010
,  // measure 98
1000
0000
0010
0000
1000
0100
0000
0220
,  // measure 99
0000
0330
0010
0000
1000
0000
0010
0000
,  // measure 100
0001
0100
0010
1000
0100
0000
1000
0000
,  // measure 101
0001
0010
0001
0100
,  // measure 102
1000
0010
0100
0001
0010
0000
0001
0000
,  // measure 103
0001
0000
0010
0100
1000
0000
0001
0000
,  // measure 104
0020
0032
0200
0303
,  // measure 105
1000
0000
0001
0000
1000
0010
0100
0001
,  // measure 106
1000
0000
0010
1000
0010
0000
0100
0000
,  // measure 107
0001
0000
0100
0001
0100
0000
0010
1000
,  // measure 108
0100
0000
0010
0001
0100
0000
0010
1000
,  // measure 109
0100
0000
0001
1000
0010
0001
0010
0000
,  // measure 110
1001
0000
0001
0100
0000
0001
0010
0000
,  // measure 111
0100
0000
0010
0000
0100
0001
0100
0000
,  // measure 112
1010
0000
0001
0100
0000
0001
0100
0000
,  // measure 113
1000
0100
1000
0100
0010
0100
0010
0100
,  // measure 114
1000
0001
0100
0000
0010
0100
0001
0100
,  // measure 115
0010
0000
0001
0100
1000
0000
0010
0000
,  // measure 116
0100
1000
0100
1000
0010
1000
0100
1000
,  // measure 117
0010
0000
0001
1000
0100
0000
0001
0000
,  // measure 118
0100
0000
0010
1000
0100
0000
1001
0000
,  // measure 119
0100
0000
0010
0001
0100
0000
1001
0000
,  // measure 120
1000
0100
0010
0100
,  // measure 121
1000
0001
0100
0001
1000
0001
0100
0000
,  // measure 122
1000
0001
1000
0001
1000
0000
0110
0000
,  // measure 123
0001
1000
0001
1000
0001
0000
0110
0000
,  // measure 124
1001
0000
0001
0010
1000
0000
0100
0000
,  // measure 125
0210
1300
1200
0301
,  // measure 126
1002
0013
1200
0301
,  // measure 127
0102
0013
1002
0013
,  // measure 128
0011
0000
0110
0000
2200
0000
0000
3300
;
