#TITLE:Casino Park;
#SUBTITLE:;
#ARTIST:Jun Senoue;
#TITLETRANSLIT:;
#SUBTITLETRANSLIT:;
#ARTISTTRANSLIT:;
#GENRE:;
#CREDIT:;
#MENUCOLOR:;
#NEWMETERSYSTEM:NO;
#BANNER:Casino Park-bn.png;
#BACKGROUND:Casino Park-bg.png;
#LYRICSPATH:;
#CDTITLE:MixMania CD Title.png;
#MUSIC:Casino Park.mp3;
#OFFSET:-0.020;
#SAMPLESTART:13.560;
#SAMPLELENGTH:13.500;
#SELECTABLE:YES;
#LISTSORT:;
#BPMS:0.000=146.020;
#STOPS:147.000=0.420
;
#BGCHANGES:;
#ATTACKS:;

//---------------dance-single - ----------------
#NOTES:
     dance-single:
     :
     Easy:
     4:
     0.303,0.324,0.046,0.201,0.000:
0000
0000
0000
0000
,
0000
0000
0000
0000
,
0000
0000
0000
0000
,
0000
0000
0000
0010
,
0200
0301
0010
1000
,
0100
1000
0001
0010
,
0000
1000
0001
0010
,
0001
1000
0100
1000
,
0100
0010
0001
1000
,
0100
1000
0010
0100
,
0001
0010
0001
0100
,
1000
0200
0000
0000
,
0300
1000
0100
0010
,
0001
1000
0001
0100
,
0010
1000
0001
0010
,
0100
2000
0000
0000
,
3000
0001
0010
0001
,
1000
0100
0010
1000
,
0100
0001
0010
1000
,
0100
0020
0000
0000
,
0030
0100
1000
0100
,
0001
0010
1000
0001
,
0100
0010
0010
1000
,
0100
0002
0000
0000
,
0003
0010
0001
0010
,
1000
0200
0000
2300
,
0000
3010
0100
0001
,
1000
0020
0000
0032
,
0000
0013
0001
0100
,
0010
0020
0000
0230
,
0000
0301
1000
0010
,
1000
0200
0000
2300
,
0000
3002
0000
0010
,
0013
0100
0010
0001
,
1000
0100
1000
0001
,
0010
0100
0001
1000
,
0010
0001
0100
1001
,
0100
1000
0010
0001
,
0100
0001
0010
0001
,
1000
0001
0100
0010
,
0200
0000
0000
0300
,
1000
0010
0001
0010
,
1000
0100
1000
0001
,
0010
0001
0100
0010
,
0020
0000
0000
0030
,
1000
0001
1000
0001
,
0010
0001
0100
0001
,
1000
0010
0100
0001
,
2000
0000
0100
3000
,
0020
0000
0100
0000
,
1000
0000
0130
0000
,
0200
0000
0010
0000
,
0001
0001
0010
0310
,
0001
0100
0010
1000
,
0100
0010
0001
0100
,
0001
0010
1000
0100
,
0001
0010
0100
1000
,
0100
0001
1000
0100
,
0010
1000
0001
0100
,
0010
0001
1000
0100
,
0001
0010
1000
0001
,
1000
0100
1000
0001
,
0100
0010
1000
0100
,
0001
0010
0001
0100
,
0002
0000
2003
0000
,
3200
0000
0000
0300
,
0001
0001
1000
1000
,
0001
1000
0001
1001
,
1000
0100
0010
0001
,
1000
0100
0020
0030
,
0001
0010
0100
1000
,
0001
0010
0200
0300
,
1000
0001
1000
0001
,
0010
0001
0100
0000
,
0001
0011
0000
1010
,
0000
2002
3003
0000
,
1010
0000
0000
0000
;

//---------------dance-single - Copied from----------------
#NOTES:
     dance-single:
     Copied from:
     Beginner:
     1:
     0.153,0.236,0.039,0.085,0.000:
0000
0000
0000
0000
,
0000
0000
0000
0000
,
0000
0000
0000
0000
,
0000
0000
0000
0000
,
0010
0010
0000
0100
,
0000
0010
0000
0100
,
0000
1000
0000
0001
,
0000
1000
0000
0010
,
0010
0010
0000
0001
,
0000
0100
0000
1000
,
0000
1000
0000
0010
,
0000
0100
0000
0000
,
0000
0001
0000
0010
,
0000
1000
0000
0100
,
0000
1000
0000
0010
,
0000
0001
0000
0000
,
0000
0010
0000
0100
,
0000
1000
0000
0001
,
0000
0100
0000
0010
,
0000
0001
0000
0000
,
0000
0010
0000
0001
,
0000
0100
0000
0010
,
0000
1000
0000
0100
,
0000
1000
0000
0000
,
0000
2000
0000
0000
,
0000
0000
0000
3000
,
0000
0002
0000
0000
,
0000
0000
0000
0003
,
0000
0020
0000
0000
,
0000
0000
0000
0030
,
0000
0002
0000
0000
,
0000
0003
0000
0001
,
0000
1000
0000
0000
,
0000
0100
0000
0010
,
0000
0001
0000
0010
,
0000
1000
0000
0100
,
0000
0010
0000
2002
,
3003
0000
0010
0000
,
0100
0000
0010
0000
,
0001
0000
0100
0000
,
0010
0000
0000
0000
,
1000
0000
0100
0000
,
0010
0000
0001
0000
,
1000
0000
0100
0000
,
0010
0000
0000
0000
,
0001
0000
0010
0000
,
0100
0000
1000
0000
,
0001
0000
0010
0000
,
0100
0000
0000
0000
,
0002
0000
0003
0000
,
2000
0000
3000
0000
,
0200
0000
0300
0000
,
0020
0000
0030
0000
,
0001
0000
1000
0000
,
0001
0000
0010
0000
,
0100
0000
1000
0000
,
0100
0000
1000
1000
,
1000
0000
0100
0000
,
0001
0000
0010
0000
,
0100
0000
1000
0000
,
0001
0000
0100
0000
,
0010
0000
0001
0000
,
1000
0000
0100
0000
,
0010
0000
1000
0000
,
1000
0000
0100
0000
,
0020
0000
0000
0030
,
0000
1001
0000
1001
,
0000
1001
0000
0010
,
0010
0000
0100
0000
,
0010
0000
0001
0000
,
1000
0000
0010
0000
,
1000
0000
0100
0000
,
1000
0000
0010
0000
,
0001
0000
0010
0000
,
0000
0001
0000
1000
,
0000
1001
0000
0000
,
0010
0000
0000
0000
;

//---------------dance-single - Copied from----------------
#NOTES:
     dance-single:
     Copied from:
     Medium:
     6:
     0.374,0.383,0.101,0.062,0.000:
0000
0000
0000
0000
,
0000
0000
0000
0000
,
0000
0000
0000
0000
,
0000
0000
0000
0000
,
1000
0100
1000
0000
0100
0000
0001
0000
,
0010
0001
0100
0000
0001
0000
1000
0100
,
0000
0010
0001
0100
,
0001
0010
1000
0000
0100
0000
0010
0100
,
0000
0000
1000
0000
0100
0010
0000
0010
,
0001
0000
0100
0001
0000
0000
0010
0000
,
0001
0000
0100
0000
0001
1000
0000
0100
,
1000
1010
0000
0100
,
0100
0000
1000
0000
0010
0001
0000
0100
,
0010
0000
1000
0100
0000
1000
0001
0000
,
0010
0000
0001
0000
0100
0001
0000
1000
,
0010
1001
0000
0010
,
0010
0000
0001
0000
0001
0010
0000
0010
,
0100
0000
0100
1000
0000
0100
0001
0000
,
1000
0000
0010
0000
1000
0010
0000
0100
,
0001
1001
0000
1000
,
1000
0000
0100
0000
1000
0100
0000
0010
,
0001
0000
0100
0010
0000
0001
1000
0000
,
0100
0000
0001
0000
0010
0001
0000
1000
,
0100
1001
0000
0001
,
0001
0000
1000
0000
0010
0100
0000
0100
,
0010
0000
0100
0000
0000
0001
0000
0000
,
0010
0000
0100
0000
0001
1000
0000
1000
,
0001
0000
0010
0000
0000
1000
0000
0000
,
0000
0000
1000
0000
0001
0100
0000
0100
,
0001
0000
1000
0000
0000
0010
0000
0000
,
0100
0000
0010
0000
1000
0100
0000
0010
,
0001
0200
0000
0320
,
0000
0230
0000
0001
,
0301
0000
0010
0000
0001
1000
0000
0100
,
1000
0000
1000
0100
0000
0010
0001
0000
,
0100
0000
0001
0000
1000
0010
0000
0100
,
0001
0100
0020
1030
,
0100
0000
0001
0010
0000
0100
1000
0000
,
1000
0100
0000
0010
0001
0000
1000
0000
,
0001
0000
0010
0100
0000
0010
0100
0000
,
1001
0000
0001
1000
,
0010
0000
1000
0100
0000
1000
0001
0000
,
1000
0100
0000
0010
0001
0000
0100
0000
,
1000
0000
0001
0010
0000
0001
1000
0000
,
1001
0000
0010
0100
,
0001
0000
0010
0100
0000
0010
0001
0000
,
0010
1000
0000
0100
0010
0000
0100
0000
,
0001
0000
0100
0001
0000
0100
1000
0000
,
1001
0000
0010
1000
,
0100
0000
1000
0001
0000
0010
0001
0000
,
0200
0000
0000
0302
0000
0000
0003
0000
,
1000
0000
0001
0010
0000
0100
1000
0000
,
0010
0100
0010
0000
0100
0000
0010
0000
,
1000
0000
0100
0001
0000
0001
0010
0000
,
1000
0000
0000
0100
0000
0000
0001
0000
,
1000
0000
0100
1000
0000
0010
1000
0000
,
0100
0000
0010
0000
0001
0010
0001
0000
,
0100
0000
0001
0010
0000
0100
1000
0000
,
0010
0000
1000
0100
0010
0000
0001
0000
,
1000
0000
0010
0001
0000
1000
0100
0000
,
0010
0000
1000
0001
0100
0000
0010
0000
,
1000
0000
0001
0010
0000
1000
0100
0000
,
0010
0000
1000
0010
0001
0000
0010
0000
,
0001
0000
0100
0001
0000
0001
0010
0000
,
1000
0000
0001
0000
,
0010
0001
0100
0010
,
1000
0011
1000
0011
,
1000
0000
0011
0000
1000
0000
0001
0100
,
0010
0000
1000
0000
0100
0000
1000
0010
,
0001
0000
0100
0000
0001
0010
0000
0000
,
0001
0000
1000
0010
0001
0000
0100
0000
,
0001
1000
0001
0000
0010
0100
0000
0000
,
1000
0001
1000
0000
0010
0000
0100
0000
,
0001
1000
0001
0000
0100
0000
0010
0000
,
1000
0100
0010
0001
0000
0000
1100
0000
,
0000
0000
0202
0000
0000
0303
0000
0000
,
0110
0000
0000
0000
;

//---------------dance-single - Copied from Copied from----------------
#NOTES:
     dance-single:
     Copied from Copied from:
     Hard:
     7:
     0.497,0.471,0.077,0.511,0.004: // measure 1
0000
0000
0000
0000
,  // measure 2
0000
0000
0000
0000
,  // measure 3
0000
0000
0000
0000
,  // measure 4
0000
0000
0000
0000
,  // measure 5
0001
0010
0001
0100
0001
1000
0100
0000
,  // measure 6
1000
0000
0010
1000
0100
0000
0001
0010
,  // measure 7
0000
0000
0001
1000
0100
1000
0010
0000
,  // measure 8
0100
0000
0001
1000
0100
0000
0010
0001
,  // measure 9
0000
0000
0200
0000
0301
0020
0000
0130
,  // measure 10
2000
0000
3100
0020
0000
0031
1000
0100
,  // measure 11
0010
0000
2000
0000
3001
0200
0000
1300
,  // measure 12
0200
0310
0000
1000
,  // measure 13
0001
0100
0020
0000
0031
2000
0000
3100
,  // measure 14
0020
0000
1030
0002
0000
0103
0010
0000
,  // measure 15
1000
0000
0100
0000
0001
0020
0000
0130
,  // measure 16
2000
0000
3100
0000
0010
0000
1000
0001
,  // measure 17
0100
0000
2000
0000
3001
0200
0000
0310
,  // measure 18
0002
0000
1003
0002
0000
0103
0010
1000
,  // measure 19
0001
0000
0200
0000
0310
0200
0000
0301
,  // measure 20
2000
0000
3010
0000
0100
0000
0001
1000
,  // measure 21
0100
0000
0020
0000
0031
2000
0000
3100
,  // measure 22
0020
0000
0031
0200
0000
0301
1000
0010
,  // measure 23
1000
0000
0200
0000
0310
2000
0000
3001
,  // measure 24
0200
0000
1300
0000
0100
0000
0001
1000
,  // measure 25
0001
0000
0100
0001
0010
0001
0000
0100
,  // measure 26
0001
2000
0010
0001
,  // measure 27
3100
0000
0001
1000
0100
1000
0000
0010
,  // measure 28
0100
0002
0100
0010
,  // measure 29
1003
0000
0100
0001
1000
0010
0000
0100
,  // measure 30
0001
0020
0001
1000
,  // measure 31
0031
0000
0100
0001
1000
0010
0000
0100
,  // measure 32
0001
0200
0000
0320
,  // measure 33
0000
0000
0230
0000
1000
0300
1000
1000
,  // measure 34
0100
0000
0002
0000
1003
2000
0000
3001
,  // measure 35
0002
0000
1003
2000
0000
3001
0001
0100
,  // measure 36
0001
0000
0020
0000
0130
2000
0000
3100
,  // measure 37
0002
1003
0010
0102
,  // measure 38
0023
0000
1030
0200
0000
0301
0020
0000
,  // measure 39
1030
0200
0000
0301
0010
1000
0001
0000
,  // measure 40
0200
0000
0310
2000
0000
3010
0002
0000
,  // measure 41
0103
0000
1000
0000
0001
0100
0010
0000
,  // measure 42
2000
0000
3100
0200
0000
0310
0020
0000
,  // measure 43
0031
0002
0000
0103
1000
0100
0010
0000
,  // measure 44
2000
0000
3001
0002
0000
0013
0200
0000
,  // measure 45
0310
0000
1000
0000
0001
0010
0100
0000
,  // measure 46
2000
0000
3100
0020
0000
0130
0002
0000
,  // measure 47
1003
0200
0000
0310
1000
0001
0100
0000
,  // measure 48
2000
0000
3100
0002
0000
0013
2000
0000
,  // measure 49
3010
0000
1000
0000
0100
0010
0100
0000
,  // measure 50
1000
0100
0000
0001
0000
1000
1001
0001
,  // measure 51
0000
1000
0000
0100
0000
0010
0011
0001
,  // measure 52
0000
0100
0000
1000
0000
0010
0110
0100
,  // measure 53
0001
0000
0000
0000
0001
0000
0000
1000
0000
0000
0001
0000
0010
0000
0000
0000
,  // measure 54
0100
1000
0100
0010
0000
0001
0100
0000
,  // measure 55
1000
0000
0010
1000
0100
0000
1000
0000
,  // measure 56
1000
0100
0001
0010
0000
0001
0100
0000
,  // measure 57
0001
0000
1000
0000
0100
1000
0100
1000
,  // measure 58
0100
0010
0001
0010
0000
0100
0001
0000
,  // measure 59
1000
0000
0010
1000
0100
0000
1000
0000
,  // measure 60
0001
0000
0100
1000
0000
1000
0100
0000
,  // measure 61
0010
0000
1000
0001
0010
0000
0001
0000
,  // measure 62
0100
0000
0001
1000
0000
0010
1000
0000
,  // measure 63
0100
0000
1000
0100
0010
0000
0001
0000
,  // measure 64
1000
0010
0001
0010
0000
0100
0001
0000
,  // measure 65
2000
0000
3200
0000
,  // measure 66
0302
0000
1000
0000
1000
0000
0010
0003
,  // measure 67
1000
1001
0001
1001
,  // measure 68
1000
0000
1001
0000
0010
0000
0001
1000
,  // measure 69
0100
1000
0010
0100
0001
0000
0010
0000
,  // measure 70
0001
1000
0100
0010
0100
0001
0000
0000
,  // measure 71
1000
0100
0010
0001
0010
0000
0100
0000
,  // measure 72
0001
1000
0010
1000
0100
1000
0000
0000
,  // measure 73
1000
0100
0010
0001
0010
0000
1000
0000
,  // measure 74
0001
0010
0100
1000
0100
0000
0001
0000
,  // measure 75
0001
0100
0010
1000
0000
0000
1001
0000
,  // measure 76
0010
0000
1200
0000
0001
0300
1000
0000
,  // measure 77
1001
0000
0000
0000
;
