#TITLE:CaptivAte ~sabaki~;
#SUBTITLE:;
#ARTIST:DJ YOSHITAKA feat. A/I;
#TITLETRANSLIT:;
#SUBTITLETRANSLIT:;
#ARTISTTRANSLIT:;
#GENRE:;
#CREDIT:;
#MENUCOLOR:;
#NEWMETERSYSTEM:NO;
#BANNER:CaptivAte ~sabaki~-bn.png;
#BACKGROUND:CaptivAte ~sabaki~-bg.png;
#LYRICSPATH:;
#CDTITLE:MixMania CD Title.png;
#MUSIC:CaptivAte ~sabaki~.mp3;
#OFFSET:-0.420;
#SAMPLESTART:24.400;
#SAMPLELENGTH:12.000;
#SELECTABLE:YES;
#LISTSORT:;
#BPMS:0.000=180.000;
#STOPS:;
#BGCHANGES:;
#ATTACKS:;

//---------------dance-single - ----------------
#NOTES:
     dance-single:
     :
     Easy:
     3:
     0.315,0.361,0.093,0.296,0.000:
0000
0000
0000
0000
,
0010
0000
0000
1000
,
0100
0000
0001
0000
,
0010
0001
0100
0010
,
0000
1000
0001
0000
,
1000
0000
0000
0010
,
0100
0000
0001
0000
,
1000
0010
0000
0010
,
0001
0000
0200
0000
,
0310
1000
0100
0000
,
0100
0001
0010
0000
,
0200
0000
1000
0000
,
1000
0000
0010
0300
,
1001
0100
0010
0000
,
0001
1000
0010
0000
,
2000
0000
3001
0000
,
0002
0000
0013
0000
,
1100
0010
0020
0030
,
1001
1000
0001
0000
,
0100
0000
0010
0001
,
0100
0000
0010
0000
,
0100
0000
0100
0010
,
2001
0000
0010
0000
,
0001
0001
0001
3000
,
0010
1000
0001
1000
,
0010
0001
0100
0010
,
1001
0000
1000
0000
,
0001
0000
0010
0100
,
1000
0000
0010
0000
,
0001
0000
0010
0100
,
1002
0000
0010
0000
,
1000
1000
1000
0003
,
0100
0001
1000
0100
,
0020
0030
0010
1000
,
0110
0000
1000
0001
,
0020
0000
2030
0000
,
3100
0001
1000
0100
,
0000
0010
0020
0000
,
0031
0100
1000
0100
,
2000
0000
3200
0000
,
1300
0001
0000
0010
,
0001
0000
0100
0000
,
2002
0000
0000
3003
,
0100
1000
0001
0100
,
0002
0000
0000
0003
0000
0000
1000
0000
,
0200
0000
0000
0300
0000
0000
0001
0000
,
0200
0000
0000
0300
0000
0000
0100
0000
,
2000
0000
0000
3000
0000
0000
0001
0000
,
0200
0000
0000
0300
0000
0000
0100
0000
,
0020
0000
0000
0030
1000
0000
0001
0000
,
0020
0000
0200
0330
,
1000
0001
0010
1000
,
0200
0000
0000
0300
0000
0000
0100
0000
,
2000
0000
0000
3000
0000
0000
0010
0000
,
0002
0000
0000
0003
0000
0000
0001
0000
,
2000
0000
0000
3000
0000
0000
0010
0000
,
0200
0000
0000
0300
0000
0000
0001
0000
,
1000
0000
0010
1000
,
0020
0000
0032
0000
,
0013
1000
0010
0000
,
0100
1000
0001
0000
,
0001
0100
0001
0000
,
0001
0010
1000
0000
,
0100
0001
1000
0000
,
1000
0001
0100
0000
,
1000
0001
1000
0000
,
0100
0001
0010
0000
,
1001
0000
1000
0000
,
0100
0000
0001
0100
,
0001
0000
0100
0000
,
0010
0000
0001
0000
,
0001
1000
0001
0000
,
0010
1000
0100
0000
,
0010
0100
1000
0000
,
0100
0001
0100
0000
,
1002
0000
0000
0000
,
0200
0000
0000
0000
,
0000
0000
0000
0000
,
0303
0000
0000
0000
;

//---------------dance-single - Copied from----------------
#NOTES:
     dance-single:
     Copied from:
     Beginner:
     2:
     0.178,0.216,0.046,0.056,0.000:
0000
0000
0000
0000
,
1001
0000
0000
0000
,
0010
0000
0010
0000
,
0010
0000
0000
0100
,
0000
0000
1000
0000
,
0001
0000
0000
0000
,
1000
0000
1000
0000
,
1000
0000
0000
0000
,
0100
0000
0000
0000
,
1001
0000
0000
0000
,
0110
0000
0000
0000
,
1001
0000
0000
0000
,
0000
0000
0100
0100
,
0100
0000
0000
0000
,
1000
0000
0000
0000
,
0001
0000
0000
0000
,
0010
0000
0010
0000
,
0002
0000
0003
0000
,
1000
0000
0100
0000
,
1000
0000
0100
0000
,
0010
0000
0001
0000
,
0010
0000
0001
0000
,
1000
0000
0000
0000
,
0000
0000
0000
0000
,
0010
0000
0000
0000
,
0000
0000
0000
0000
,
0010
0000
0100
0000
,
0001
0000
0010
0000
,
1000
0000
0100
0000
,
1000
0000
0010
0000
,
0100
0000
0000
0000
,
0000
0000
0000
0000
,
0001
0000
0000
0000
,
0000
0000
0100
0100
,
0100
0000
0000
1000
,
1000
0000
0010
0000
,
0001
0000
0000
0010
,
0000
0000
0100
0000
,
0001
0000
0000
0010
,
0010
0000
1000
0000
,
0100
0100
0000
1000
,
1000
0000
0000
0000
,
1001
0000
0000
0000
,
1000
0000
0001
0000
,
0010
0000
0100
0000
,
0001
0000
1000
0000
,
0010
0000
0100
0000
,
1000
0000
0100
0000
,
0010
0000
0001
0000
,
1000
0000
0100
0000
,
0020
0000
0030
0000
,
0100
0000
1000
0000
,
0001
0000
0100
0100
,
0100
0000
1000
0000
,
0010
0000
1000
1000
,
1000
0000
0100
0000
,
0001
0000
0010
0010
,
0010
0000
0001
0000
,
2000
0000
3000
0000
,
0010
0000
0001
0000
,
0010
0000
0100
0000
,
0001
0000
1000
0000
,
0100
0000
1000
0000
,
0001
0000
0010
0000
,
0100
0000
0001
0000
,
1000
0000
0100
0000
,
0010
0000
0001
0001
,
0001
0000
0010
0000
,
0001
0000
0100
0000
,
1000
0000
0000
0100
,
0100
0000
0010
0000
,
0001
0000
0000
0000
,
1000
0000
0100
0000
,
0002
0000
0003
0000
,
2000
0000
3000
0000
,
0200
0000
0000
0000
,
0000
0000
0000
0000
,
0000
0000
0000
0000
,
0300
0000
0000
0000
;

//---------------dance-single - Copied from----------------
#NOTES:
     dance-single:
     Copied from:
     Medium:
     7:
     0.481,0.469,0.167,0.157,0.037: // measure 1
0000
0000
0000
0000
,  // measure 2
0100
1000
0001
0010
,  // measure 3
1001
0000
0110
0000
,  // measure 4
1000
0100
0001
0010
,  // measure 5
0000
0101
0010
1000
,  // measure 6
1100
1000
0010
0001
,  // measure 7
1001
0000
0110
0000
,  // measure 8
0001
0010
0000
0100
,  // measure 9
2000
0000
0000
3010
,  // measure 10
1001
0000
0100
0000
1000
0100
0000
0010
,  // measure 11
0000
0001
0100
0000
0010
0000
1000
0000
,  // measure 12
0200
0000
0010
0000
,  // measure 13
0010
0000
1300
0100
,  // measure 14
0001
0000
1000
0000
0100
1000
0000
0010
,  // measure 15
0000
0100
0001
0000
0010
0000
0001
0000
,  // measure 16
0100
0000
0100
1000
0010
0000
0100
0000
,  // measure 17
0001
0000
1000
0000
0002
0000
2000
3003
,  // measure 18
0110
0000
1000
0001
,  // measure 19
0100
0000
0010
0000
0001
0010
1000
0000
,  // measure 20
0100
0000
1000
0000
0001
1000
0010
1000
,  // measure 21
0100
1000
0010
0001
,  // measure 22
0100
0000
0001
0000
1000
0001
0010
0100
,  // measure 23
1000
0100
1000
0001
,  // measure 24
1000
0100
0010
1000
,  // measure 25
0001
0000
0000
0001
0000
0000
0001
0000
1000
0000
0000
1000
0000
0000
1000
0000
,  // measure 26
0001
0000
0000
0001
0000
0000
0001
0000
1000
0000
0000
1000
0000
0000
1000
0000
,  // measure 27
0001
0000
1000
0000
0001
0100
1000
0000
,  // measure 28
0010
0000
1000
0000
0100
0001
0010
0001
,  // measure 29
0100
0000
1000
0000
0010
1000
0100
0000
,  // measure 30
1000
0000
0001
0000
1000
0100
0010
0001
,  // measure 31
0100
0000
0001
1000
0010
0000
0001
0000
,  // measure 32
0001
0010
0100
1000
,  // measure 33
1000
0000
0000
1000
0000
0000
1000
0000
0001
0000
0000
0001
0000
0000
0001
0000
,  // measure 34
1000
0000
0010
0000
0100
1000
0100
0001
,  // measure 35
0010
0000
0100
0000
0001
1000
0100
0000
,  // measure 36
1100
0010
0011
0001
,  // measure 37
1000
0100
0001
0010
,  // measure 38
0000
0000
0011
0000
0100
0000
0001
1000
,  // measure 39
0010
0100
1000
0100
,  // measure 40
1001
0001
0110
1000
,  // measure 41
0100
0000
0001
0010
1000
0000
0010
0000
,  // measure 42
0101
0000
0010
0000
1000
0100
0001
0000
,  // measure 43
2002
0000
3003
0000
0010
0100
0010
0000
,  // measure 44
0010
0000
1000
0000
0001
0100
0001
0000
,  // measure 45
1000
0000
0010
0001
0000
0001
0100
0000
,  // measure 46
0010
0000
1000
0100
0000
1000
0010
0000
,  // measure 47
0100
0000
0001
0100
0000
0010
1000
0000
,  // measure 48
0100
0000
1000
0001
0000
0100
0010
0000
,  // measure 49
0001
0000
0010
0100
0000
0100
1000
0000
,  // measure 50
0010
0000
1000
0001
0000
0001
0100
0000
,  // measure 51
0010
0000
0000
1000
0000
0000
0100
0000
0001
0000
0000
0000
0100
0000
0000
0000
,  // measure 52
1001
0000
0100
1000
0000
1000
0100
0000
,  // measure 53
0010
0000
0001
0100
0000
0010
1000
0000
,  // measure 54
0100
0000
1000
0100
0000
0010
0001
0000
,  // measure 55
0100
0000
0001
1000
0000
0010
0100
0000
,  // measure 56
2000
0000
3000
0020
0000
0030
0002
0000
,  // measure 57
2003
0000
3000
0020
0000
0030
1000
0001
,  // measure 58
1000
0000
0000
0020
0000
0030
0200
0000
,  // measure 59
0301
0000
0000
0010
0000
0000
2000
0000
0000
0000
3000
0000
0001
0000
0000
0000
,  // measure 60
0110
0000
1000
0000
0001
0100
0000
0010
,  // measure 61
0000
1000
0000
0100
0000
1000
0100
0000
,  // measure 62
0010
0000
0001
0000
1000
0100
0000
0001
,  // measure 63
0000
1000
0000
0010
0000
0100
0001
0000
,  // measure 64
1000
0000
0001
0000
0100
0010
0000
1000
,  // measure 65
0000
0100
0000
0001
0000
0010
0001
0000
,  // measure 66
0100
0000
0010
0000
0001
0010
0000
0001
,  // measure 67
0000
1000
0000
0100
0000
0000
0001
0000
,  // measure 68
0100
1000
0010
0100
,  // measure 69
0001
1000
0010
0100
,  // measure 70
0002
0000
1003
0010
,  // measure 71
1000
0000
0100
0000
0001
0000
0001
0010
,  // measure 72
0100
0000
1000
0000
0001
0000
0010
1000
,  // measure 73
0100
1000
0010
0001
,  // measure 74
0100
0001
0100
0000
0010
1000
0010
0000
,  // measure 75
1000
0100
1000
0000
0001
0000
0100
0000
,  // measure 76
2010
0000
0000
0000
,  // measure 77
0002
0000
0000
0000
,  // measure 78
0000
0000
0000
0000
,  // measure 79
3003
0000
0000
0000
;

//---------------dance-single - Copied from----------------
#NOTES:
     dance-single:
     Copied from:
     Hard:
     8:
     0.530,0.577,0.176,0.083,0.056:
0000
0000
0000
0000
,
1001
0010
0001
0010
,
1100
0010
0101
1000
,
0010
0100
0001
0010
,
0000
0000
0000
1000
0100
0000
0000
0000
1000
0000
0000
0000
0010
0000
0000
0000
,
1001
0010
0001
0100
,
0011
0100
1010
0100
,
1000
0100
0001
0010
,
2002
0000
3003
0010
,
1001
0000
1000
0000
0100
1000
0000
0010
,
0000
0100
0101
0000
1000
0000
0010
0000
,
0200
0000
1000
0000
,
0001
0000
0000
0000
1300
0000
0010
1000
,
0100
0000
1000
0000
0001
0100
0000
0010
,
0000
1000
1001
0000
1000
0000
0100
0000
,
0010
0000
1000
0010
1000
0000
0100
0000
,
1000
0100
0001
0010
0001
0100
0001
1000
,
2002
0000
0000
3003
0010
0000
1001
0000
,
0100
0000
0100
0000
0001
1000
0001
0010
,
0100
0000
0001
0000
1000
0001
1000
0000
,
0010
0000
1000
0000
0010
0001
0010
0001
,
0100
0000
1000
0000
0010
0100
0010
0100
,
0010
0000
1000
0100
0000
0001
0000
0010
,
0000
0001
0000
0100
0000
1000
0000
0100
,
0010
0000
0000
0001
0000
0000
1000
0000
0100
0000
0000
0010
0000
0000
1000
0000
,
0001
0000
0000
0100
0000
0000
0010
0000
1000
0000
0000
0010
0000
0000
0001
0000
,
0100
1000
0100
0001
,
0010
0000
0001
0000
1000
0100
1000
0001
,
1000
0000
0010
0000
0100
0001
1000
0000
,
0010
0000
0100
0000
1000
0100
1000
0100
,
0010
0001
0100
1000
,
0001
0010
0100
0000
0001
0000
0100
0000
,
1000
0000
0000
0100
0000
0000
0010
0000
1000
0000
0000
0100
0000
0000
0010
0000
,
0001
0000
1000
0000
0001
0000
0100
0010
,
0100
0000
0001
0000
1000
0100
0001
0000
,
1000
0010
0100
0001
,
1000
0010
0001
0100
0001
0010
0001
0000
,
0000
0000
0100
0000
1001
0000
0010
1000
,
0100
1000
0100
0011
,
0101
1000
1010
1000
,
0100
0000
1000
0010
0100
0000
1000
0000
,
0002
0000
1000
0010
,
0103
0000
1001
0000
1000
0010
0100
0000
,
0001
0000
1000
0100
0001
0000
0010
0000
,
0001
0000
0100
0001
0010
0000
0100
0000
,
1000
0010
1000
0100
0000
1000
0100
0000
,
0010
0000
0001
1000
0100
0000
0010
0000
,
0100
0000
0001
1000
0000
0010
1000
0100
,
0001
0000
0010
0001
0000
0100
0001
0000
,
1000
0000
0001
1000
0000
0100
1000
0000
,
0010
0000
0000
0100
0000
0000
0010
0000
1000
0000
0000
0100
0000
0000
1000
0000
,
0001
0000
0100
0000
0010
0000
1000
0100
,
0001
0000
0100
0001
0000
0010
0001
1000
,
0100
0000
1000
0010
0000
0100
0001
0000
,
0010
0000
0001
0100
1000
0010
1000
0000
,
0100
0000
1000
0100
0000
0010
0001
0000
,
0100
0000
0001
0010
0000
0100
1000
0000
,
1001
0000
1000
0010
0100
0000
0001
0000
,
0001
0000
0000
0010
0000
0000
0100
0000
0001
0000
0000
0010
0000
0000
0100
0000
,
1000
0000
0100
0000
0001
1000
0000
0100
,
0000
1000
0000
0010
0001
0010
0001
0000
,
0100
0000
0001
0000
1000
0010
0000
0100
,
0000
0001
0000
0010
0100
1000
0100
0000
,
0100
0000
1000
0000
0010
0100
0000
1000
,
0000
0001
0000
0010
0100
0001
1000
0000
,
0100
0000
0001
0000
1000
0100
0000
0010
,
0000
1000
0000
0010
0100
0010
0001
0000
,
0100
0000
0001
1000
0000
0100
1000
0010
,
0001
0000
0100
0001
0000
0010
0001
1000
,
0200
0000
0000
0000
1000
0000
0300
0000
0010
0000
0000
0100
0000
0000
0001
0000
,
0010
0000
0100
0000
0010
0001
0010
0001
,
1000
0000
0100
0010
0000
0001
1000
0100
,
1000
0000
0010
1000
0000
0100
0001
0000
,
1000
0100
0001
0100
1000
0010
0001
0010
,
1000
0100
0001
0100
1000
0010
0001
0000
,
1200
0000
0000
0000
,
0020
0000
0000
0000
,
0000
0000
0000
0000
,
0330
0000
0000
0000
;

//---------------dance-single - Copied from----------------
#NOTES:
     dance-single:
     Copied from:
     Challenge:
     9:
     0.612,0.649,0.167,0.083,0.083:
0000
0000
0000
0000
,
1001
0100
0010
1100
,
0011
1000
0101
0000
,
0011
0100
0001
0110
,
0000
0000
0000
0100
0001
0000
0000
0000
0010
0000
0000
0100
0000
0000
1000
0000
,
0011
0100
0010
0011
,
0101
0010
1100
0000
,
1001
0010
0000
0100
,
2002
0000
3003
0010
,
0101
0000
0010
0000
1000
0100
0000
1000
,
0000
0010
1000
0000
0100
0000
1000
0000
,
0010
0000
0001
0100
0001
0000
0010
1000
,
0010
0000
1000
0100
1000
0100
1000
0010
,
1000
0000
0100
0000
0001
0010
0000
0001
,
0100
0000
0001
0010
0100
0000
0000
0000
1000
0000
0100
1000
0010
0000
0100
0000
,
0001
0100
0010
1000
0100
1000
0010
0100
,
0001
1000
0100
0010
0100
0010
0001
0100
,
1001
0100
2002
3003
,
0010
0001
0100
0001
0000
1000
0000
0100
,
1000
0000
0010
0000
1000
0100
1000
0010
,
0001
0000
0100
0001
0000
0010
0001
0100
,
0001
0000
1000
0000
0010
1000
0100
0010
,
0001
0100
0001
1000
0000
0010
1000
0000
,
0100
0000
1000
0100
0000
1000
0010
1000
,
0100
0000
0000
0001
0000
0000
0010
0000
1000
0000
0000
0100
0000
0000
1000
0000
,
0010
0000
0000
0100
0000
0000
0001
0000
1000
0000
0000
0100
0000
0000
0001
0000
,
0010
0010
1000
0001
0000
0100
0001
0000
,
1000
0010
1000
0100
0000
0001
0100
1000
,
0010
0000
1000
0100
0000
0010
0001
1000
,
0001
0000
0100
0001
0000
0010
0001
1000
,
0100
1000
0010
1000
0000
0100
0000
0001
,
0010
0000
0000
0001
0000
0000
0100
0000
1000
0000
0000
0100
0000
0000
0001
0000
,
0010
0000
0000
0010
0000
0000
0001
0000
0100
0000
0000
1000
0000
0000
0010
0000
,
0001
0000
1001
0000
0010
0100
0001
0100
,
0010
0000
1000
0100
0000
1000
0001
0010
,
0001
0000
0100
0001
1000
0000
0010
1000
,
0100
1000
0010
0100
0001
0010
0001
0000
,
0100
0000
0001
1000
0010
1000
0100
0001
,
0100
0000
0010
1000
0000
0100
0001
0010
,
0001
0000
1000
0100
0000
0010
0100
0010
,
0001
0000
1000
0010
0000
0100
0001
0010
,
0001
0000
1000
0000
0100
0010
0100
0000
,
2001
0000
3100
0000
0010
0001
0010
0100
,
1000
0000
1000
0100
0000
1000
0010
0001
,
0100
0000
0001
0010
0000
1000
0001
0100
,
0010
0000
1000
0001
0000
0001
0100
0010
,
1000
0000
0100
1000
0000
1000
0100
1000
,
0010
0000
0100
0001
0000
1000
0001
0010
,
0100
0000
0001
1000
0000
1000
0001
1000
,
0010
0000
1000
0100
0000
0010
0001
0010
,
0100
0000
0000
0100
0000
0000
1000
0000
0001
0000
0000
0010
0000
0000
0100
0000
,
0001
0000
1000
0100
0000
1000
0010
0100
,
0001
0000
0001
1000
0000
0001
0010
0001
,
0100
0000
0001
0010
0000
0100
1000
0100
,
0001
0000
0010
1000
0000
0010
0100
1000
,
0001
0000
0100
0010
0000
0010
1000
0100
,
0001
0000
0100
0010
0000
0100
0001
0010
,
0100
0000
0100
0001
0000
0010
0001
0100
,
1000
0000
0000
1000
0000
0000
0001
0000
0100
0000
0000
0010
0000
0000
0100
0000
,
0010
0000
1000
0000
0001
0100
0001
1000
,
0000
0010
1000
0100
1000
0010
0001
0000
,
0100
0000
0001
1000
0010
1000
0000
0100
,
1000
0100
0010
0001
1000
0001
0010
0000
,
0100
0000
0001
0100
0001
0010
0000
0100
,
1000
0010
0100
0001
1000
0010
0100
0000
,
1000
0000
0010
0100
1000
0100
0000
0010
,
0001
1000
0001
1000
0100
1000
0010
0001
,
0100
0000
0001
1000
0000
1000
0001
1000
,
0010
0000
0100
0001
0000
0010
0001
0010
,
2000
0000
0000
0000
3200
0000
0000
0000
0310
0000
0000
0001
0000
0000
1000
0000
,
0100
0000
1000
0000
0001
0100
1000
0100
,
0001
0000
1000
0010
0000
0001
0010
0100
,
0001
0000
0100
0010
0000
1000
0100
0010
,
0001
0000
0100
0000
1000
0000
0100
0000
0010
0000
0100
0000
1000
0000
0001
0100
,
0010
1000
0100
1000
0010
0100
0010
0000
,
0102
0000
0000
0000
,
0020
0000
0000
0000
,
0000
0000
0000
0000
,
0033
0000
0000
0000
;
