#TITLE:Bingo Highway;
#SUBTITLE:;
#ARTIST:Keiichi Sugiyama;
#TITLETRANSLIT:;
#SUBTITLETRANSLIT:;
#ARTISTTRANSLIT:;
#GENRE:;
#CREDIT:;
#MENUCOLOR:;
#NEWMETERSYSTEM:NO;
#BANNER:Bingo Highway-bn.png;
#BACKGROUND:Bingo Highway-bg.png;
#LYRICSPATH:;
#CDTITLE:MixMania CD Title.png;
#MUSIC:Bingo Highway.mp3;
#OFFSET:-0.160;
#SAMPLESTART:13.540;
#SAMPLELENGTH:12.000;
#SELECTABLE:YES;
#LISTSORT:;
#BPMS:0.000=161.000;
#STOPS:;
#BGCHANGES:;
#ATTACKS:;

//---------------dance-single - ----------------
#NOTES:
     dance-single:
     :
     Easy:
     3:
     0.258,0.298,0.000,0.118,0.000:
0000
0000
0000
0000
,
0000
0000
0000
0000
,
0000
0000
0000
0000
,
1000
0100
0001
0000
,
0001
0010
0100
0001
,
1000
0000
0100
0000
,
1000
0000
0010
0000
,
0001
0000
0100
0000
,
0001
0010
0200
0300
,
1000
0100
0001
0000
,
0001
0010
0100
0000
,
1000
0010
0001
0000
,
0001
0100
0010
0000
,
1000
0000
0100
0000
,
1000
0000
0010
0000
,
0001
0000
0100
0000
,
0020
0030
1000
0100
,
0001
0001
1000
0000
,
1000
1000
0010
0000
,
0010
0100
0001
0000
,
0001
0100
1000
0000
,
1000
0010
0100
0000
,
0100
0010
0001
0000
,
0001
0100
1000
0000
,
0200
0000
2000
3300
,
0010
0000
0100
0000
,
0010
1000
0001
0100
,
0001
0000
1000
0000
,
0010
0000
0100
0000
,
1000
0100
0010
0001
,
0001
0000
0010
0000
,
1000
0000
0100
0000
,
1000
0000
0001
1000
,
0010
0000
0100
0000
,
0001
1000
0100
0000
,
0010
0010
0001
0001
,
0010
0000
0100
0000
,
0001
1000
0100
1000
,
0020
0030
0200
0300
,
0001
0010
0100
0000
,
0020
0000
0200
0330
,
0010
0000
1000
0000
,
0001
0000
1000
0100
,
0001
0000
0010
0000
,
0001
1000
0100
1000
,
0010
0000
0001
0000
,
1000
0000
0100
0100
,
1000
0000
0010
0000
,
0001
0000
0010
0000
,
0100
1000
0100
0001
,
0010
0000
0001
0000
,
0001
0010
0100
1000
,
0100
0000
1000
0000
,
1000
0000
0001
0000
,
0010
0001
0100
1000
,
0100
0000
1000
0000
,
0020
0000
0032
0000
,
1003
0100
1000
0010
,
0100
0000
0001
0000
,
0001
0000
1000
0001
,
0010
0000
0100
0000
,
0010
0000
1000
0100
,
0010
0000
0001
0000
,
1000
0000
1000
0010
,
0200
0000
0002
0303
,
0010
0000
0100
0001
,
1000
0000
0100
0000
,
0010
0000
0001
0100
,
1000
0000
0010
0000
,
0100
0000
1000
0100
,
0001
0000
0010
0000
,
1000
0000
0001
0000
,
0001
1000
0020
0000
,
0030
0000
0000
0000
;

//---------------dance-single - Copied from----------------
#NOTES:
     dance-single:
     Copied from:
     Medium:
     5:
     0.426,0.429,0.045,0.145,0.000:
0000
0000
0000
0000
,
0000
0000
0000
0000
,
0000
0000
0000
0000
,
1000
0000
0100
0000
0001
0000
0010
0001
,
0100
0001
1000
0100
,
1000
0000
1000
0000
0100
0000
0010
0001
,
1000
0100
1000
0001
,
1000
0100
0010
0001
,
1000
0100
0001
0000
0001
0010
0000
1000
,
1000
0100
0001
1000
,
0010
0000
0100
0000
0001
0000
0010
0001
,
0100
1000
0010
0100
,
1000
0000
0100
0000
0001
1000
0100
1000
,
0010
0100
0001
1000
,
0010
0000
0001
0000
0100
0000
0002
1000
,
2003
0000
0100
0000
0100
0000
0010
3000
,
0100
0001
1000
0100
,
0001
0001
0010
0010
,
0100
1000
0100
0000
1000
0000
0100
0000
,
0010
0010
0001
0001
,
1000
0100
1000
0000
0010
0000
0100
0000
,
1000
1000
0100
0100
,
0010
0001
0010
0000
0100
0000
0001
0000
,
0010
0010
0100
0100
,
0001
0100
0001
1000
0100
0000
1000
0000
,
0010
1000
0100
0001
,
0010
0001
0100
1000
,
0020
0230
0302
2003
,
3200
2300
3020
2030
,
3100
0100
0001
0001
,
0010
1000
0100
0000
0001
0000
0010
0000
,
0100
0001
1000
0100
,
0100
1000
0010
0000
0100
0000
0001
0000
,
0010
0100
1000
0001
,
0010
0001
0100
1000
,
0010
0100
0001
1000
,
0100
0010
1000
0100
,
1000
0100
1000
0100
0001
0000
0010
0000
,
0001
0001
0100
0010
,
1000
0100
0001
0000
0010
0001
0100
0000
,
0020
0000
0200
0330
,
1001
1000
0100
0010
,
0001
0100
0001
1000
,
0100
0010
0100
1000
,
0100
0000
0010
0000
0001
0100
1000
0010
,
0100
0001
1000
0100
,
0010
0001
0100
0010
,
1000
0100
0001
0010
,
0001
0100
0010
1000
0100
0000
1000
0000
,
1100
1000
0001
0100
,
0010
0001
0100
0010
,
0100
0001
0010
1000
,
0100
0000
0001
0000
1000
0000
0100
0010
,
0001
0100
0001
0010
,
0100
1000
0001
0100
,
0010
0001
1000
0100
,
0010
1000
0202
0303
,
0010
0100
1000
0100
,
0001
0010
0001
0100
,
1000
0000
0100
0000
0001
0010
0001
0000
,
0100
1000
0100
0000
0010
0000
0100
0000
,
0010
1000
0100
0001
,
0100
1000
0100
0010
,
1000
0000
0100
0000
0001
1000
0001
0000
,
0100
0010
0001
0000
0010
0000
0100
0000
,
1001
0100
0001
0010
,
0001
1000
0100
1000
,
0010
0000
1000
0000
0100
0001
0010
0000
,
0100
1000
0001
0000
1000
0000
0100
0000
,
0011
0100
0001
1000
,
0100
0000
1000
0000
0010
1000
0010
0001
,
0010
0100
0001
1000
,
0200
1000
0002
0303
;

//---------------dance-single - Copied from----------------
#NOTES:
     dance-single:
     Copied from:
     Hard:
     8:
     0.538,0.529,0.118,0.100,0.032: // measure 1
0000
0000
0000
0000
,  // measure 2
0000
0000
0000
0000
,  // measure 3
0000
0000
0000
0000
0000
0000
0100
0010
,  // measure 4
0100
0000
0001
0000
0100
1000
0100
0001
,  // measure 5
0010
0000
0000
0000
0001
0000
0000
0000
0100
0000
0000
0001
0000
0001
0010
0000
,  // measure 6
0100
0000
1000
0000
0100
0001
0010
0000
,  // measure 7
0100
0000
1000
0000
0010
1000
0100
1000
,  // measure 8
0010
0000
0100
0000
0001
0010
0100
0000
,  // measure 9
2001
0000
0000
0001
0000
0000
0001
0000
0000
0000
0001
0000
0000
0000
0001
0000
,  // measure 10
3001
0010
0100
0000
1000
0100
0001
0000
,  // measure 11
1000
0010
0001
0100
0001
0000
0010
0000
,  // measure 12
0100
0000
0001
0100
1000
0000
0010
1000
,  // measure 13
0100
0010
0001
0000
0100
0000
1001
0000
,  // measure 14
0100
0000
0001
0010
0100
0000
0001
1000
,  // measure 15
0100
0010
1000
0100
0001
0000
0010
0000
,  // measure 16
0001
0100
0010
1000
,  // measure 17
0001
0010
0100
1000
0100
0010
1000
0100
,  // measure 18
0010
0000
1000
0100
0010
0000
0001
0100
,  // measure 19
0010
0000
0001
1000
0100
0000
0010
0100
,  // measure 20
0001
0000
1000
0010
0100
0000
0001
0100
,  // measure 21
0001
0000
0010
1000
0100
0010
0001
0100
,  // measure 22
0010
1000
0010
0001
0100
0000
0001
0010
,  // measure 23
0100
0000
1000
0100
1000
0000
0100
0010
,  // measure 24
1000
0000
0001
0010
0100
0000
1000
0010
,  // measure 25
0100
0001
0010
0001
0100
1000
0010
1000
,  // measure 26
0100
0000
0100
1000
0010
0100
0001
0010
,  // measure 27
1000
0000
0001
0100
0010
0000
1001
0000
,  // measure 28
0001
0100
0010
1000
,  // measure 29
0100
1000
0100
0010
0001
0010
0100
0000
,  // measure 30
0001
0100
0010
1000
0001
0100
0010
1000
,  // measure 31
1000
0000
0100
0000
0001
0010
0001
0000
,  // measure 32
1001
0100
1000
0000
1001
0000
0110
0000
,  // measure 33
1000
0100
0010
0001
0100
0001
0010
0000
,  // measure 34
0100
0000
0100
0001
0010
0000
0010
0001
,  // measure 35
1000
0000
0100
0000
1000
0010
0001
0000
,  // measure 36
0100
0001
0010
0100
1000
0010
0100
0001
,  // measure 37
1000
0100
0010
1000
,  // measure 38
0100
0000
0100
1000
0010
0000
0010
0001
,  // measure 39
0100
0100
0001
0001
0010
0010
0100
0000
,  // measure 40
1000
0100
0001
0010
0001
0100
1000
0000
,  // measure 41
0022
0000
0000
0033
,  // measure 42
1000
0100
0001
0010
0001
0000
0100
0000
,  // measure 43
1000
0010
1000
0100
0001
0000
0010
0000
,  // measure 44
0100
0001
0010
0100
1000
0000
0010
0000
,  // measure 45
0010
0001
0100
0001
0100
1000
0010
0100
,  // measure 46
0001
0000
1000
0000
0100
0000
0010
0001
,  // measure 47
0100
0000
0010
0000
1000
0000
0001
0100
,  // measure 48
1000
0010
0001
1000
,  // measure 49
0100
0000
0000
0000
0001
0000
0000
0000
1000
0000
0000
0001
0000
0000
0100
0010
,  // measure 50
0100
0000
1000
0000
0001
0010
0001
0000
,  // measure 51
0100
0000
1000
0000
0100
0010
1000
0000
,  // measure 52
0100
0000
0010
0000
0001
0010
0100
0000
,  // measure 53
0001
0000
1000
0000
0100
1000
0010
0001
,  // measure 54
0100
0000
0001
0000
0010
0000
0001
0010
,  // measure 55
0100
0000
0001
0000
1000
0000
0100
1000
,  // measure 56
0001
0000
0100
0000
0001
0000
0010
0001
,  // measure 57
0100
1000
0010
1000
0100
1000
0010
0000
,  // measure 58
1002
0000
0100
0000
1000
1000
1000
0000
,  // measure 59
0100
0000
0010
0000
0100
0000
0010
0010
,  // measure 60
0010
1000
0100
1000
,  // measure 61
0010
0000
0100
0000
0010
0010
0103
0000
,  // measure 62
2001
0000
0001
0000
0010
0000
0001
0001
,  // measure 63
0001
0100
3010
1001
,  // measure 64
1002
1000
0100
0010
,  // measure 65
0100
0000
0000
0000
1000
0000
0000
0000
0010
0000
0000
0010
0003
0000
0001
0000
,  // measure 66
1001
0000
1000
0000
0100
0000
0010
0001
,  // measure 67
0100
0000
0100
0000
0010
1000
0100
0010
,  // measure 68
1000
0010
0100
0001
,  // measure 69
0010
0000
0000
0000
0100
0000
0000
0000
0001
0000
0000
1000
0000
0000
0010
0000
,  // measure 70
0001
1000
0100
0010
,  // measure 71
1000
0000
0001
0000
0020
0001
0032
0100
,  // measure 72
0203
0010
0010
1300
,  // measure 73
0012
0000
1000
0100
0020
0000
0003
0031
;

//---------------dance-single - Copied from----------------
#NOTES:
     dance-single:
     Copied from:
     Beginner:
     1:
     0.140,0.232,0.073,0.064,0.000:
0000
0000
0000
0000
,
0000
0000
0000
0000
,
0000
0000
0000
0000
,
0000
0000
0000
0000
,
0000
0000
0000
0000
,
1001
0000
0000
0000
,
1001
0000
0000
0000
,
1001
0000
0000
0000
,
0200
0000
0300
0000
,
0010
0000
0100
0000
,
0100
0000
0000
0000
,
1000
0000
0100
0000
,
0001
0000
0000
0000
,
1001
0000
0000
0000
,
0010
0000
0000
0001
,
0001
0000
0000
0000
,
2002
0000
3003
0000
,
1000
0000
0100
0000
,
1000
0000
0000
0000
,
0001
0000
0100
0000
,
0010
0000
0000
0000
,
0100
0000
1000
0000
,
0001
0000
0000
0000
,
0001
0000
0100
0000
,
0020
0000
0030
0000
,
1000
0000
0100
0000
,
0010
0000
0000
0000
,
0001
0000
0001
0000
,
1000
0000
0000
0000
,
0010
0000
1000
0000
,
0001
0000
0000
0000
,
0010
0000
0001
0000
,
1000
0000
0100
0000
,
0010
0000
0010
0000
,
1000
0000
0000
0000
,
0001
0000
0010
0000
,
1000
0000
0000
0000
,
0100
0000
0100
0000
,
0001
0000
0010
0000
,
0001
0000
1000
0000
,
0002
0000
0003
0000
,
1001
0000
0000
0000
,
0100
0000
0000
0000
,
0010
0000
0000
0000
,
0100
0000
0000
0000
,
1001
0000
0000
0000
,
1000
0000
0000
0000
,
0001
0000
0000
0000
,
0010
0000
0000
0000
,
0110
0000
0000
0000
,
1000
0000
0000
0000
,
0100
0000
0000
0000
,
0001
0000
0000
0000
,
0010
0000
0000
0000
,
0100
0000
0000
0000
,
0001
0000
0000
0000
,
2000
0000
3000
0000
,
0010
0000
0001
0000
,
0100
0000
0000
0000
,
0010
0000
1000
0000
,
0100
0000
0000
0000
,
1000
0000
0100
0000
,
0001
0000
0000
0000
,
0001
0000
0010
0000
,
1000
0000
0000
0000
,
0001
0000
0100
0000
,
1000
0000
0000
0000
,
1000
0000
0010
0000
,
0001
0000
0000
0000
,
0001
0000
0100
0000
,
0010
0000
0000
0000
,
1000
0000
0010
0000
,
0200
0000
0000
0000
,
0300
0000
0000
0000
;
