#TITLE:Bingo Highway;
#SUBTITLE:(from OST remix);
#ARTIST:Keiichi Sugiyama;
#TITLETRANSLIT:;
#SUBTITLETRANSLIT:;
#ARTISTTRANSLIT:;
#GENRE:;
#CREDIT:;
#MENUCOLOR:;
#NEWMETERSYSTEM:NO;
#BANNER:Bingo Highway (from OST remix)-bn.png;
#BACKGROUND:Bingo Highway (from OST remix)-bg.png;
#LYRICSPATH:;
#CDTITLE:MixMania CD Title.png;
#MUSIC:Bingo Highway (from OST remix).mp3;
#OFFSET:1.320;
#SAMPLESTART:25.500;
#SAMPLELENGTH:12.000;
#SELECTABLE:YES;
#LISTSORT:;
#BPMS:0.000=161.040;
#STOPS:;
#BGCHANGES:;
#ATTACKS:;

//---------------dance-single - ----------------
#NOTES:
     dance-single:
     :
     Challenge:
     9:
     0.583,0.629,0.184,0.193,0.101: // measure 1
0000
0000
0000
0000
,  // measure 2
2001
0000
0000
0010
0000
0000
3001
0010
0001
0100
1000
0100
,  // measure 3
0010
0100
0001
0000
1000
0100
0001
0000
,  // measure 4
0010
0001
0100
0000
1000
0100
0010
0000
,  // measure 5
0001
0100
0001
0000
0010
1000
0010
0000
,  // measure 6
0100
0001
0100
0000
0010
1000
0100
0010
,  // measure 7
0001
0100
0001
0000
0010
0001
0010
0000
,  // measure 8
1000
0100
1000
0000
0010
0100
0010
0000
,  // measure 9
0001
1000
0100
0000
1000
0010
0001
0000
,  // measure 10
0100
0001
0010
0000
0001
0100
0010
0001
,  // measure 11
0010
1000
0100
1000
0010
0100
0001
0010
,  // measure 12
0001
0100
0001
0010
0011
0000
0101
0000
,  // measure 13
1000
0010
0100
0001
0100
1000
0010
0100
,  // measure 14
1000
0100
0010
1000
1100
0000
1010
0000
,  // measure 15
1000
0100
0001
0100
1000
0010
0001
0100
,  // measure 16
0001
0010
0001
0100
0101
0000
0011
0000
,  // measure 17
0100
0001
1000
0100
1000
0000
1000
0010
,  // measure 18
0000
0010
0001
0000
0100
0001
0010
0000
,  // measure 19
0100
0001
0100
1000
0100
0000
0010
1000
,  // measure 20
0000
1000
0100
0000
0100
0010
0000
0002
,  // measure 21
0000
2000
0000
0000
0000
0000
3003
0000
,  // measure 22
0100
0000
1000
0000
0010
0001
0100
0000
,  // measure 23
0100
0001
0010
1000
0100
1000
0010
0100
,  // measure 24
0000
0100
1000
0000
1000
0010
0000
0200
,  // measure 25
0000
0002
0000
0000
0000
0000
0303
0001
,  // measure 26
0010
0100
1000
0010
0100
0001
1000
0100
,  // measure 27
0010
1000
1000
0100
1000
0000
1000
0100
,  // measure 28
0000
0010
0001
0000
0010
1000
0000
2000
,  // measure 29
0000
0200
0000
0000
0000
0000
3300
0000
,  // measure 30
1000
0100
0001
0010
0001
0100
0010
1000
,  // measure 31
0100
0000
0001
0000
0011
0000
0100
1000
,  // measure 32
0000
1000
0010
0000
0100
0001
0000
0020
,  // measure 33
0000
2000
0000
0000
0000
0000
3030
0100
,  // measure 34
0100
1000
0100
0001
0010
0001
0001
0010
,  // measure 35
0100
1000
0000
1000
0100
0000
0010
0000
0001
0000
0010
0000
0100
0000
1000
0000
,  // measure 36
0100
0001
0100
0010
1000
0100
1000
0010
,  // measure 37
0100
1000
0001
0000
0010
0000
0010
0000
1000
0001
0010
0000
0100
0000
0100
0000
,  // measure 38
1000
0100
0010
0001
0001
0000
0100
0000
,  // measure 39
0020
0000
2030
0000
3100
0100
0010
0001
,  // measure 40
1000
0100
0010
0001
0100
1000
0010
0000
,  // measure 41
0010
0001
0100
1000
0001
0010
0001
0100
,  // measure 42
0012
0000
1000
0000
0010
0100
0103
0000
,  // measure 43
1001
1000
0100
0100
0010
0010
0001
0001
,  // measure 44
1000
0000
0100
0000
0010
0001
0010
0000
,  // measure 45
0100
0000
1000
0001
0010
0000
0100
0000
,  // measure 46
0001
1000
0100
1000
0010
1000
0001
0000
,  // measure 47
0100
0001
0010
0000
0100
1000
0010
0000
,  // measure 48
0100
0001
1000
0100
1000
0010
0100
0001
,  // measure 49
0220
0000
0000
0330
,  // measure 50
0001
1000
0100
1000
0010
0000
0100
0000
,  // measure 51
0001
0000
0001
0010
0000
0010
1000
0000
1000
0100
0000
0100
0001
0000
0001
0000
,  // measure 52
1000
0100
0010
1000
0001
0000
0010
0000
,  // measure 53
1000
0100
1000
0001
0100
0010
0001
0100
0010
1000
0100
1000
,  // measure 54
0100
1010
0101
0011
,  // measure 55
1000
0100
0001
1000
0001
0010
1000
0100
,  // measure 56
0010
0001
0010
0001
1000
0100
1000
0100
,  // measure 57
0010
0000
0001
0010
0001
1000
0100
0000
,  // measure 58
1100
0110
0011
1001
,  // measure 59
1000
0100
0001
0001
1000
0100
0001
0001
,  // measure 60
2000
0000
0002
3003
,  // measure 61
0001
0001
0001
0001
0010
0010
0010
0010
,  // measure 62
0200
0001
1000
0301
,  // measure 63
1000
0000
0001
0100
0000
0100
0000
0000
0010
0000
0100
1000
0000
1000
0000
0000
,  // measure 64
0100
0000
0100
0000
0100
0001
0100
0001
,  // measure 65
0010
1000
1000
0010
0010
1000
1000
0010
,  // measure 66
1001
0000
0110
0000
0001
0010
0100
1000
,  // measure 67
0100
0100
0100
1000
0100
0000
0010
0010
,  // measure 68
0000
0001
0001
0000
0100
0010
0000
2000
,  // measure 69
0000
0200
0000
0000
0000
0000
3300
0000
,  // measure 70
0001
0000
1000
0000
0100
0010
0001
0000
,  // measure 71
1001
0000
0001
0001
0001
0000
0100
0100
,  // measure 72
0000
1000
1000
0000
0100
0100
0000
0020
,  // measure 73
0000
0002
0000
0000
0000
0000
0033
0000
,  // measure 74
0100
0100
0010
0010
,  // measure 75
2002
0000
0000
0000
,  // measure 76
3003
0000
0000
0000
;
