#TITLE:April Fool no Uta;
#SUBTITLE:;
#ARTIST:AKIRA YAMAOKA;
#TITLETRANSLIT:;
#SUBTITLETRANSLIT:;
#ARTISTTRANSLIT:;
#GENRE:;
#CREDIT:;
#MENUCOLOR:;
#NEWMETERSYSTEM:NO;
#BANNER:April Fool no Uta-bn.png;
#BACKGROUND:April Fool no Uta-bg.png;
#LYRICSPATH:;
#CDTITLE:MixMania CD Title.png;
#MUSIC:April Fool no Uta.mp3;
#OFFSET:0.100;
#SAMPLESTART:41.400;
#SAMPLELENGTH:12.000;
#SELECTABLE:YES;
#LISTSORT:;
#BPMS:0.000=179.000;
#STOPS:;
#BGCHANGES:;
#ATTACKS:;

//---------------dance-single - ----------------
#NOTES:
     dance-single:
     :
     Easy:
     5:
     0.314,0.361,0.033,0.058,0.000:
0000
0000
0000
0000
,
0000
0000
0000
0000
,
0000
0000
0000
0000
,
0001
0100
0001
1000
,
0100
1000
0010
0100
,
0001
0010
0001
1000
,
0100
0000
1000
0000
0010
0000
1000
0010
,
0001
0100
0001
0010
,
0100
1000
0000
0000
,
0001
0010
1000
0001
,
0100
0000
1000
0000
0001
0100
0001
0000
,
1000
0010
0100
0001
,
1000
0010
0200
0300
,
0001
1000
0001
1000
,
0010
1000
0100
0000
,
1000
0001
0100
0010
,
0001
0010
1000
0000
,
0100
1000
0100
1000
,
0001
0010
0001
0000
,
0100
0001
0010
0100
,
0001
1000
0100
0000
,
0010
0100
1000
0100
,
0001
0000
0010
0001
0000
0000
0000
0000
,
0100
0001
0010
1000
,
0100
1000
0100
0000
,
1000
0001
0010
0100
,
0001
0000
1000
0010
0000
0000
0000
0000
,
0100
0000
0001
0000
1000
0000
0000
0001
,
0000
0000
0010
0000
0001
0000
0000
0100
,
0000
0000
1000
0000
0000
0001
0000
0000
,
1000
0000
0000
0001
0000
0000
0000
0000
,
0010
0001
0100
0000
,
0010
1000
0000
0100
0000
0000
0000
0000
,
1000
0100
0010
0001
,
0100
0000
0010
0000
,
0001
0010
0100
0000
,
0001
1000
0000
0010
0000
0000
0000
0000
,
0100
1000
0010
0001
,
0100
0000
0010
0000
,
0001
1000
0010
0000
,
1000
0100
0000
0010
0000
0000
0000
0000
,
0001
1000
0100
0010
,
0001
0000
1000
0000
,
0001
0010
1000
0000
,
0001
0010
0000
0100
0000
0000
0000
0000
,
0001
1000
0001
1000
,
0100
0000
0010
0000
,
2002
0000
0000
0000
,
0000
0000
0000
0000
,
0000
0000
0000
0000
,
3003
0000
0000
0100
,
0010
0100
1000
0100
,
0001
0010
0001
0100
,
0010
1000
0001
1000
,
0100
0010
1000
0001
,
0020
0000
1000
0000
,
0001
0000
1000
0000
,
0031
0000
0000
1000
0000
0000
0001
0000
,
0000
1000
0000
0000
0001
0000
0010
0000
,
1000
0100
1000
0010
,
0001
0100
0001
1000
,
0010
0001
1000
0001
,
0100
0010
1000
0001
,
0200
0000
1000
0000
,
0001
0000
1000
0000
,
0301
0000
0000
1000
0000
0000
0001
0000
,
0000
1000
0000
0000
1001
0000
0110
0000
,
1000
0100
0001
0000
,
0010
0001
0000
1000
0000
0000
0000
0000
,
0010
0100
1000
0001
,
0010
0000
0100
0000
,
1000
0010
0001
0000
,
0100
0010
0000
1000
0000
0000
0000
0000
,
0001
0010
0001
1000
,
0100
0000
0010
1000
,
0100
0001
0100
0000
,
0010
0100
0000
0010
0000
0000
0000
0000
,
0100
1000
0001
1000
,
0010
0000
0100
0000
,
0100
1000
0001
0000
,
0010
0001
0000
1000
0000
0000
0000
0000
,
1000
0100
0010
0001
,
1000
0000
0001
0000
,
2002
0000
0000
0000
,
0000
0000
0000
0000
,
0000
0000
0000
0000
,
0000
0000
0000
3003
0000
0000
0100
0010
;

//---------------dance-single - Copied from----------------
#NOTES:
     dance-single:
     Copied from:
     Beginner:
     2:
     0.211,0.253,0.058,0.150,0.000:
0000
0000
0000
0000
,
0000
0000
0000
0000
,
0000
0000
0000
0000
,
1000
0000
0001
0000
,
1000
0000
0010
0010
,
0010
0000
0001
0000
,
0100
0000
0001
0000
,
1000
0000
0100
0000
,
0010
0000
0002
0000
,
0003
0000
1000
0000
,
0100
0000
0010
0000
,
1000
0000
0100
0000
,
0020
0000
0030
0000
,
1001
0000
0100
0000
,
2002
0000
3003
0000
,
0010
0000
0001
0000
,
1000
0000
0001
0000
,
0010
0000
0100
0000
,
2002
0000
3003
0000
,
0010
0000
0100
0000
,
0001
0000
0001
0000
,
1000
1000
1000
0000
,
0010
0000
0100
0000
,
0001
0001
0001
0000
,
1000
0000
0010
0000
,
0100
0100
0100
0000
,
0001
0000
1000
0000
,
0000
0010
0010
0000
,
0000
0001
0001
0000
,
0000
0000
2000
0000
0000
3000
0000
0000
,
0002
0000
0000
0003
0000
0000
0000
0000
,
0010
0010
0010
0000
,
0100
0000
0100
0000
,
1000
0000
0001
0000
,
1000
1000
0000
0000
,
1000
1000
1000
0000
,
0001
0000
0100
0000
,
0010
0000
1000
0000
,
0010
0010
0000
0000
,
0001
0001
0001
0000
,
1000
0000
0010
0000
,
1000
0000
0100
0000
,
0100
0100
0000
0000
,
0100
0100
0100
0000
,
0010
0000
0001
0000
,
1000
0000
0001
0000
,
0001
0001
0000
0000
,
2002
0000
0000
0000
,
0000
0000
0000
0000
,
3003
0000
0000
0000
,
0000
0000
0000
0000
,
0010
0000
0010
0000
,
0010
0000
1000
0000
,
1000
0000
0001
0000
,
0001
0000
0010
0000
,
0200
0000
0000
0000
,
0000
0000
0300
0000
,
0010
0000
0000
0000
,
0010
0000
1000
0000
,
1000
0000
0100
0000
,
0001
0000
0010
0000
,
0001
0000
1000
0000
,
0001
0000
1000
0000
,
0002
0000
0000
0000
,
0000
0000
0003
0000
,
2000
0000
0000
3000
0000
0000
0020
0000
,
0000
0030
0000
0000
1001
0000
0000
0000
,
0100
0100
0100
0000
,
1000
0000
0001
0000
,
0010
0000
0001
0000
,
0010
0010
0000
0000
,
1000
1000
1000
0000
,
0001
0000
0100
0000
,
0010
0000
1000
0000
,
0100
0100
0000
0000
,
0001
0001
0001
0000
,
0010
0000
0001
0000
,
1000
0000
0001
0000
,
1000
1000
0000
0000
,
0010
0010
0010
0000
,
0001
0000
1000
0000
,
0100
0000
0001
0000
,
0010
0010
0000
0000
,
0220
0000
0000
0000
,
0000
0000
0000
0000
,
0000
0000
0000
0000
,
0330
0000
0000
2002
0000
0000
0000
3003
;

//---------------dance-single - Copied from----------------
#NOTES:
     dance-single:
     Copied from:
     Medium:
     6:
     0.410,0.397,0.050,0.100,0.000:
0000
0000
0000
0000
,
0000
0000
0000
0000
,
0000
0000
0000
0000
,
1000
1100
1000
1100
,
1000
1100
1000
0100
,
0001
0010
0001
0100
,
0001
0000
1000
0000
0001
0010
0100
1000
,
0100
1000
0001
0100
,
0010
1000
0000
0001
0000
0100
0000
0000
,
0010
1000
0001
0100
,
0010
0000
0001
0000
1000
0100
0010
0001
,
0100
0001
0010
1000
,
0001
0100
0001
0000
,
0100
0001
1000
0100
,
1000
0100
1000
0100
0000
0000
0000
0000
,
0100
0010
0001
0100
,
0001
0010
0000
0001
0000
0000
0000
0000
,
0100
0010
0100
0010
,
0001
1000
0001
1000
0000
0000
0000
0000
,
0010
0001
0010
0100
,
1000
0000
0000
0100
0000
0000
0010
0000
,
1001
0010
0100
0001
,
1000
0000
0010
1000
0000
0000
0000
0000
,
0100
0000
0010
0000
0001
0010
0000
0001
,
0000
1000
0100
0010
,
1000
0001
1000
0010
,
0100
0000
0010
1000
0000
0000
0001
0000
,
1000
0100
0010
0000
0001
0000
0000
0100
,
0000
0001
1000
0000
0010
0000
0000
0100
,
0000
0000
1000
0000
0000
0100
0000
0000
,
0001
0000
0000
0010
0000
0000
0000
0000
,
1001
0100
0010
1000
,
0001
0100
0000
1000
0000
0000
0100
0000
,
0010
1000
0001
0100
,
0010
1000
0000
0000
0010
1000
0000
0000
,
0010
1000
0100
0001
,
1000
0100
0000
1000
0000
0000
0010
0000
,
0100
0001
0010
0100
,
0001
1000
0000
0000
1000
0001
0000
0000
,
0100
0010
0001
1000
,
0100
0010
0000
1000
0000
0000
0100
0000
,
0010
1000
0001
0100
,
0001
0010
0000
0000
0010
0100
0000
0000
,
1000
0100
0001
0100
,
0001
1000
0000
0001
0000
0000
1000
0000
,
0100
0001
1000
0001
,
1000
0100
0000
0000
0100
0001
0000
0000
,
0020
0100
0100
0100
,
1000
1000
1000
1000
,
0100
0100
0100
0100
,
1000
1000
0130
0010
,
0100
0000
0001
1000
0100
0000
1000
0000
,
0010
0001
0100
0001
,
0010
0000
0001
0100
1000
0000
0010
0000
,
0100
0001
1000
0010
,
2000
0000
0000
3002
0000
0000
0023
0000
,
0000
0001
0001
0001
,
0230
0000
0000
2300
0000
0000
3020
0000
,
0000
0230
0000
0000
0010
0000
0310
0000
,
0100
0000
0001
1000
0001
0000
1000
0000
,
0100
0010
1000
0001
,
0100
0000
0010
0100
1000
0000
0100
0000
,
0001
1000
0100
0010
,
0002
0000
0000
2003
0000
0000
3002
0000
,
0000
0000
0100
0000
0100
0000
0100
0003
,
0100
0010
0000
0010
0100
0000
0100
0010
,
0000
0010
0100
0000
0001
0000
1000
0000
,
0100
1000
0001
0010
,
0001
1000
0000
0100
0000
0000
1000
0000
,
0010
0001
0100
0001
,
0010
0001
0000
0000
1000
0100
0000
0000
,
1000
0001
1000
0100
,
0001
1000
0000
0100
0000
0000
1000
0000
,
0010
0001
0010
1000
,
0010
0100
0000
0000
0001
1000
0000
0000
,
0010
0100
0001
1000
,
0100
1000
0000
0001
0000
0000
0010
0000
,
0100
0001
0010
1000
,
1000
0001
0000
0000
0001
0010
0000
0000
,
0100
0001
0010
1000
,
0010
0100
0000
0010
0000
0000
1000
0000
,
0100
0001
1000
0001
,
1000
0100
0000
0000
0010
0001
0000
0000
,
0120
0000
0100
0000
,
1000
0000
0100
0000
,
1000
0000
0100
0000
,
1000
0000
0030
0100
0000
0000
0100
1000
;

//---------------dance-single - Copied from----------------
#NOTES:
     dance-single:
     Copied from:
     Hard:
     8:
     0.530,0.542,0.341,0.025,0.000:
0000
0000
0000
0000
,
0000
0000
0000
0000
,
0000
0000
0000
0000
,
0010
1001
0100
1001
,
0010
0000
1001
0000
0001
0100
0001
0100
,
1000
0100
0010
1000
0000
0001
0000
0100
,
0010
0001
1000
0100
0001
0000
0100
0000
,
0100
0001
0100
0010
0000
1000
0000
0100
,
0000
0001
0010
0001
0010
0000
0001
0000
,
0100
1000
0100
0010
0000
0100
0000
0001
,
1000
0100
0001
1000
0000
0100
0000
0001
,
0010
0000
0010
0001
0000
0001
0100
0010
,
1000
0010
1000
0000
0001
0000
0010
0000
,
1001
0100
0001
1000
,
0100
1000
0010
0100
0000
0000
0001
0000
,
0100
0001
0010
0001
0100
0000
1000
0000
,
0010
1000
0000
0100
0000
1000
0001
0000
,
0100
0001
0010
1000
,
0100
1000
0010
0001
0000
0000
0010
0000
,
0001
1000
0100
0010
,
1000
0001
1000
0100
0000
0000
0010
0000
,
0100
0000
1000
0100
0001
0000
0010
0000
,
0001
0010
0001
1000
0000
0000
0100
0000
,
0010
0000
0001
1000
0100
1000
0000
0010
,
0000
0100
0100
0100
,
1000
0000
0001
1000
0100
0000
1000
0000
,
0010
0000
0001
1000
0000
0000
0001
0000
,
1000
0100
0010
0000
0001
0000
0000
0010
,
0000
0001
0010
0000
0100
0000
0000
1000
,
0000
0001
1000
0000
1000
0001
0000
0001
,
0010
0000
0010
1000
0000
0000
0000
0000
,
1001
0110
1001
0100
,
1000
0100
0000
0001
0000
0000
0010
0000
,
0001
0010
0100
0001
1000
0000
0100
1000
,
0010
0100
0000
0000
0010
0100
0000
0000
,
1001
0110
1001
1000
,
0100
0010
0000
0001
0000
0000
1000
0000
,
0001
0100
1000
0100
0001
0000
0010
0001
,
1000
0100
0000
0000
1000
0001
0000
0000
,
0110
0000
1001
0000
0110
0000
0001
1000
,
0010
0001
0000
1000
0000
0000
0001
0000
,
1000
0000
0100
0010
1000
0000
0001
0000
,
0100
0010
0000
0000
1000
0001
0000
0000
,
0110
0000
1001
0000
0110
0000
0100
0010
,
0001
1000
0000
0010
0000
0000
1000
0000
,
0100
0010
0001
0010
0100
0000
0001
1000
,
0100
1000
0000
0000
0010
1000
0000
0000
,
2001
0010
0001
0010
,
0001
0000
0010
0000
0001
0001
0001
0000
,
0010
0001
0010
0001
,
0010
0000
0001
0000
3010
1000
0001
0000
,
1001
0000
0010
0100
0001
0000
1001
0000
,
0100
0010
1000
0000
1001
0000
0110
0000
,
1001
0000
0100
1000
0001
0000
1001
0000
,
0100
0001
0010
0000
1001
0000
0110
0000
,
1000
0000
0100
0010
0001
0000
0110
0000
,
0100
1000
0001
0100
0001
0000
0000
0000
,
1001
0000
0000
0110
0000
0000
1001
0000
,
0000
0101
0000
0000
1100
0000
1010
0000
,
1000
0000
0100
0001
0010
0000
1000
0000
,
0001
0100
0010
1000
0100
0000
1000
0000
,
1001
0000
0100
0010
0100
0000
1001
0000
,
0100
0010
0001
0010
1000
0000
0100
0000
,
1000
0000
1000
0010
0000
0010
0001
0000
,
0100
0001
0010
0000
1000
0000
0100
0010
,
0001
0010
0000
0100
1000
0000
1000
0100
,
0000
0010
0001
0000
1100
0000
0011
0000
,
1001
0100
0010
0001
,
0010
0001
0000
1000
0000
0000
0100
0000
,
1000
0010
1000
0100
0001
0000
0001
0100
,
0001
0010
0000
0000
1000
0100
0000
0000
,
1001
0000
0010
0000
0001
0000
0100
0001
,
0010
1000
0000
0100
1000
0000
0100
0000
,
1000
0010
0100
0001
0010
0000
0100
0010
,
1000
0100
0000
0000
0100
0010
0000
0000
,
0001
0000
1000
0100
0010
0000
0001
0100
,
0010
1000
0000
0100
1000
0000
0010
0001
,
0100
0010
1000
0100
0001
0000
1000
0100
,
0010
0001
0000
0000
0100
0001
0000
0000
,
1001
0000
0010
0100
0001
0000
1000
0000
,
0100
0010
1000
0100
1000
0000
0001
0000
,
1000
0100
0010
0001
0010
0000
0100
0001
,
0010
1000
0000
0000
0100
0010
0000
0000
,
2200
0000
0000
0000
,
0000
0000
0000
0000
,
0000
0000
0000
0000
,
0000
3300
0000
1001
0000
0100
0010
0100
;

//---------------dance-single - Copied from Copied from----------------
#NOTES:
     dance-single:
     Copied from Copied from:
     Challenge:
     9:
     0.610,0.616,0.507,0.091,0.000: // measure 1
0000
0000
0000
0000
,  // measure 2
0000
0000
0000
0000
,  // measure 3
0000
0000
0000
0000
,  // measure 4
0010
1001
0100
1001
,  // measure 5
0010
0000
1001
0000
0001
0100
0001
1000
,  // measure 6
0100
0010
1000
0100
0001
0010
0100
0001
,  // measure 7
1000
0100
0010
1000
0001
0010
0100
1000
,  // measure 8
0100
0001
1000
0100
,  // measure 9
0010
1000
0000
0100
0000
0001
0000
0010
,  // measure 10
0001
0100
0001
0100
0000
1000
0000
0100
,  // measure 11
0010
1000
0100
0010
0000
0001
0100
1000
,  // measure 12
0010
0100
0001
1000
0100
0010
0001
0010
,  // measure 13
0100
1000
0001
0100
1000
0010
1000
0001
,  // measure 14
0100
0101
0100
0101
,  // measure 15
1000
0010
1000
0010
0000
0000
0100
0000
,  // measure 16
0001
1000
0100
0001
1000
0100
0010
0001
,  // measure 17
0010
0100
0000
1000
0000
0001
0100
0000
,  // measure 18
1000
1100
1000
1100
,  // measure 19
1000
0100
0010
0001
0000
0000
0100
0000
,  // measure 20
0001
0010
0100
1000
0100
1000
0001
0010
,  // measure 21
0100
0001
0100
0010
0000
0010
1000
0100
,  // measure 22
1000
0100
0010
0001
,  // measure 23
1000
0001
0100
0010
0000
0001
0100
0000
,  // measure 24
0010
0000
1000
0001
1000
0001
0000
0010
,  // measure 25
0000
0100
0001
0100
,  // measure 26
0001
0000
0010
0001
0100
0000
1000
0000
,  // measure 27
0100
0000
0001
1000
0000
0100
1000
0000
,  // measure 28
0100
0010
1000
0000
0001
0000
0100
0001
,  // measure 29
0000
1000
0010
0100
0001
0000
0010
0001
,  // measure 30
0000
0001
0100
0000
0100
0010
0000
0010
,  // measure 31
1000
0000
1000
0200
0000
0300
0000
0000
,  // measure 32
1001
0000
0110
0000
0011
0000
0100
0001
,  // measure 33
0010
0100
1000
0100
1000
0000
0100
0000
,  // measure 34
0010
1000
0100
0010
0001
0000
0100
0001
,  // measure 35
0010
1000
0001
0000
0100
0010
0001
0000
,  // measure 36
1010
0011
0110
1000
,  // measure 37
0100
1000
0001
0100
0010
0000
1000
0000
,  // measure 38
0001
0100
0001
0100
0010
1000
0100
1000
,  // measure 39
0100
0010
0001
0000
1000
0100
0010
0000
,  // measure 40
1001
0000
1100
0000
0110
0000
1000
0100
,  // measure 41
0010
0001
0010
0100
0001
0000
0100
0000
,  // measure 42
0001
0010
1000
0001
0100
0000
0010
0100
,  // measure 43
0001
0100
1000
0000
0001
1000
0001
0000
,  // measure 44
0110
0011
1100
1000
,  // measure 45
0001
0100
1000
0100
0010
0000
1000
0000
,  // measure 46
0100
0010
1000
0001
0100
0010
0001
0010
,  // measure 47
0100
1000
0001
0000
0010
0100
0010
0000
,  // measure 48
2002
0000
0000
0000
,  // measure 49
0000
0000
0000
0003
,  // measure 50
0010
0010
0010
0010
,  // measure 51
0010
0000
0010
0000
0010
0010
3010
0000
,  // measure 52
1001
0000
1000
0100
0001
0000
0110
0000
,  // measure 53
0011
1000
0100
0010
1000
0000
0100
0000
,  // measure 54
1001
0000
0100
0010
0001
0000
1010
0000
,  // measure 55
1100
0001
0100
0010
0001
0000
0110
0000
,  // measure 56
1001
0000
0001
0010
0001
0000
1100
0000
,  // measure 57
0010
0100
0001
1000
0100
0000
0010
0000
,  // measure 58
0101
0000
0000
1100
0000
0000
0101
0000
,  // measure 59
0000
0110
0000
0000
1001
0000
1001
0000
,  // measure 60
0110
0000
0001
1000
0100
0000
0011
0000
,  // measure 61
0110
1000
0100
0001
0010
0000
0011
0000
,  // measure 62
0110
0000
0001
0010
0100
0000
1001
0000
,  // measure 63
0110
1000
0001
1000
0010
0000
0011
0000
,  // measure 64
0210
0000
0300
1002
0000
0003
0021
0000
,  // measure 65
0000
0000
0030
0000
0001
0010
1000
0000
,  // measure 66
0010
0010
0000
0001
0001
0000
1000
1000
,  // measure 67
0000
0100
0100
0000
0010
0000
0100
0000
,  // measure 68
1001
0000
0011
0000
1010
0000
0100
0001
,  // measure 69
1000
0100
0001
0000
0100
0000
1000
0001
,  // measure 70
0100
0000
0010
0001
0100
0000
1000
0001
,  // measure 71
0010
0100
1000
0000
1000
0100
0010
0000
,  // measure 72
1001
0110
0011
0100
,  // measure 73
0001
1000
0001
0100
0010
0000
0001
0000
,  // measure 74
1000
0100
0001
0000
0001
0010
0100
0000
,  // measure 75
1000
0100
0001
0000
1000
0100
0001
0000
,  // measure 76
1100
0000
0010
0100
0001
0000
0101
0000
,  // measure 77
0110
1000
0000
1000
0000
0010
1001
0000
,  // measure 78
0100
0010
0001
0100
0010
0000
1000
0100
,  // measure 79
1000
0100
0010
0100
0001
0010
0001
0000
,  // measure 80
1001
0110
1001
0010
,  // measure 81
1000
0001
0100
0010
1000
0000
0001
0000
,  // measure 82
0100
0010
0001
1000
0100
0000
1000
0100
,  // measure 83
0001
1000
0001
0100
0010
1000
0010
0000
,  // measure 84
2002
0003
0020
0000
,  // measure 85
0000
0000
0000
0000
,  // measure 86
0000
0000
0000
0000
,  // measure 87
3030
0000
0000
1002
0000
0013
1000
0020
,  // measure 88
0000
0030
0000
0000
0000
0000
0000
0000
;
