#TITLE:Always;
#SUBTITLE:;
#ARTIST:Shoichiro Hirata feat. RayZY;
#TITLETRANSLIT:;
#SUBTITLETRANSLIT:;
#ARTISTTRANSLIT:;
#GENRE:;
#CREDIT:;
#MENUCOLOR:;
#NEWMETERSYSTEM:NO;
#BANNER:Always-bn.png;
#BACKGROUND:Always-bg.png;
#LYRICSPATH:;
#CDTITLE:MixMania CD Title.png;
#MUSIC:Always.mp3;
#OFFSET:0.560;
#SAMPLESTART:63.020;
#SAMPLELENGTH:15.580;
#SELECTABLE:YES;
#LISTSORT:;
#BPMS:0.000=130.000;
#STOPS:;
#BGCHANGES:;
#ATTACKS:;

//---------------dance-single - ----------------
#NOTES:
     dance-single:
     :
     Easy:
     2:
     0.207,0.228,0.034,0.077,0.000: // measure 1
0000
0000
0000
0000
,  // measure 2
0000
0000
0000
0000
,  // measure 3
0000
0000
0000
0000
,  // measure 4
1000
0000
0100
0100
,  // measure 5
0000
0001
0010
0000
,  // measure 6
1000
0000
2000
0000
,  // measure 7
3002
0000
1003
0000
,  // measure 8
0100
0001
0010
0000
,  // measure 9
1000
0000
0001
0000
,  // measure 10
0001
0100
1000
0000
,  // measure 11
0010
0000
1000
0000
,  // measure 12
1000
0100
0001
0000
,  // measure 13
0100
0000
0001
0000
,  // measure 14
0010
0001
1000
0000
,  // measure 15
0100
0000
0010
0000
,  // measure 16
0010
1000
0100
0001
,  // measure 17
1000
0000
0100
0000
,  // measure 18
0010
0001
0001
0000
,  // measure 19
1000
0000
0100
0000
,  // measure 20
0010
0100
0010
0000
,  // measure 21
1100
0000
1100
0000
,  // measure 22
0100
0001
0010
0000
,  // measure 23
0100
0000
0010
0000
,  // measure 24
0001
0010
0001
0000
,  // measure 25
0011
0000
0011
0000
,  // measure 26
2000
0000
0100
3100
,  // measure 27
0002
0000
0100
0103
,  // measure 28
0010
0010
0100
0000
,  // measure 29
0100
0100
1000
0000
,  // measure 30
1000
1000
0001
0000
,  // measure 31
0010
0001
0001
0000
,  // measure 32
0002
0000
0023
0000
,  // measure 33
0230
0000
1000
0000
,  // measure 34
0301
0000
1000
0000
,  // measure 35
0100
1000
0010
0100
,  // measure 36
1000
1000
1000
0000
,  // measure 37
0001
0001
0001
0000
,  // measure 38
1000
0010
0001
0100
,  // measure 39
0100
0000
1000
0000
,  // measure 40
0010
0000
1000
0010
,  // measure 41
1000
0000
0001
0100
,  // measure 42
1000
0000
0010
0010
,  // measure 43
1000
0100
1000
0000
,  // measure 44
0001
1000
0001
0000
,  // measure 45
1000
0001
1000
0000
,  // measure 46
0010
1000
0100
0001
,  // measure 47
0010
0000
0001
0100
,  // measure 48
0001
0000
0010
0001
,  // measure 49
1000
0010
0100
0000
,  // measure 50
1000
1000
0100
1000
,  // measure 51
0020
0000
2030
0000
,  // measure 52
3001
0000
0010
0001
,  // measure 53
0010
1000
0100
0000
,  // measure 54
0100
1000
0010
0100
,  // measure 55
0001
0000
0010
0000
,  // measure 56
0010
0000
1000
0100
,  // measure 57
1000
0001
0010
0000
,  // measure 58
0001
0000
0010
0000
,  // measure 59
1000
0000
1000
0001
,  // measure 60
1000
0000
0000
0000
;

//---------------dance-single - Copied from----------------
#NOTES:
     dance-single:
     Copied from:
     Medium:
     5:
     0.255,0.278,0.017,0.146,0.000:
0000
0000
0000
0000
,
0000
0000
0000
0000
,
0000
0000
0000
0000
,
0001
0000
0100
0000
0001
0010
0001
0000
,
0100
0000
1000
0000
,
0010
1000
0100
0000
,
1000
0000
0100
0000
,
0001
0010
0100
0001
,
2000
0000
0000
0100
3100
0000
0000
0000
,
0010
0001
0100
0000
,
0010
0000
1000
0100
0001
0000
0000
0000
,
0010
0000
0001
0010
0001
0000
1000
0000
,
0100
1000
1000
0000
,
0100
0000
1000
0010
0001
0000
0000
0000
,
1000
0000
0001
0000
,
0010
0000
0001
0000
0010
0000
1000
0010
,
0100
0000
0110
0000
,
1000
0100
0100
0000
,
0001
0010
1000
0000
,
1000
0000
0100
0001
0010
0000
0001
0000
,
0010
0001
1000
0000
,
0010
0100
1000
0000
,
1000
0000
0100
0010
0001
0000
0000
0000
,
0010
1000
0001
0100
,
0010
0000
0100
0000
,
1000
0000
0001
0010
0001
0000
0100
0000
,
2000
0000
0200
3300
,
0001
0001
1000
0000
,
1000
1000
0001
1000
,
0010
0000
0010
0100
0001
0000
0000
0000
,
0001
0000
0001
1000
0100
0000
0000
0000
,
2000
0000
3020
0000
,
0230
0000
0001
0001
,
0301
0000
1000
0000
0100
0000
1000
0010
,
0100
0001
0100
0000
0002
0000
2003
0000
,
3100
0000
0000
0100
0000
0000
0100
0000
,
1000
0000
0000
1000
0000
0000
1000
0000
,
0001
0000
0000
0001
0000
0000
0001
0000
,
0020
0032
2003
3200
,
1300
0000
0000
0000
0010
0000
0000
1000
,
0000
0000
1000
0100
,
0001
0000
0010
0010
,
0001
0001
0100
0100
0010
0000
1000
0000
,
0001
0000
0000
0001
0000
0000
0010
0000
,
0100
0000
0000
0100
0000
0000
1000
0000
,
0010
0000
0000
0010
0000
0000
1000
0000
,
0001
0000
0100
0000
1000
0000
0000
1000
,
0100
0000
0000
0000
1000
0000
0000
0010
,
0000
0001
0000
0001
,
0010
0000
0000
0010
0000
0000
1000
0000
,
0100
0000
1000
0000
0100
0000
0100
1000
,
0010
0000
0100
0001
,
1000
0000
0000
1000
0000
0000
0001
0000
,
1000
0000
0100
0000
1000
0100
0001
0000
,
0000
0010
0001
0000
,
0100
1000
0020
0000
,
0032
0000
0203
0000
,
0301
1000
0010
0100
,
0200
0300
0002
0003
,
1100
0000
0000
0000
;

//---------------dance-single - Copied from----------------
#NOTES:
     dance-single:
     Copied from:
     Hard:
     6:
     0.339,0.354,0.043,0.111,0.060:
0000
0000
0000
0000
,
0000
0000
0000
0000
,
0000
0000
0000
0000
0000
0000
0010
0001
,
0010
0000
0001
0000
1000
0100
1000
0000
,
0010
0000
0000
0000
1000
0000
0100
0001
,
0010
0100
0002
0000
,
2003
0000
0100
0000
3100
0000
0010
1000
,
0100
0000
0001
0010
0001
0000
0100
0000
,
1000
0000
0010
1000
0010
0000
0100
0000
,
0001
1000
0100
0000
0010
0000
0001
0000
,
0200
0000
0001
0001
0302
0000
0010
0010
,
0013
0000
0100
1000
0001
0000
0100
0000
,
0010
0100
0001
1000
,
0010
1000
0100
0000
0010
0000
0100
0010
,
0200
0000
1000
1000
2300
0000
0010
0010
,
3010
0000
0100
0000
0001
0000
0010
0001
,
0100
0001
1001
0000
,
0010
0000
1000
0100
1000
0000
0010
0000
,
0100
0000
0100
1000
0100
0000
0001
0010
,
0001
0000
0100
0000
0010
0000
0100
0001
,
1000
0000
0001
0100
0002
0000
0000
0000
,
0103
0010
1000
0000
0100
0000
1000
0000
,
0001
0000
0001
1000
0100
0000
1000
0000
,
0001
0100
1000
0000
0010
0001
0010
0001
,
0010
0000
1000
0000
,
0100
0000
0010
0001
1000
0000
0010
1000
,
0100
0000
0001
0010
0000
0010
0000
0000
,
0000
0010
0100
1000
0100
0000
0000
0010
,
0001
0000
0001
1000
0000
1000
0010
0010
,
0000
0100
0001
0000
0002
0000
0003
0000
,
0000
0010
1000
0000
2000
0000
3000
0000
,
1000
0000
0000
1000
0000
0000
0100
0000
0001
0000
0000
0001
0000
0000
0001
0000
,
0000
0000
0000
0010
0010
0000
0100
0000
,
2002
0000
0000
0000
,
0000
3003
1000
1000
,
0010
0000
0000
0001
0000
0000
0001
0000
0000
0000
0000
0000
0010
0000
0000
0000
,
0100
0000
0000
1000
0000
0000
1000
0000
0000
0000
0000
0000
0100
0000
1000
0000
,
0100
0000
0000
0010
0000
0000
0001
0000
0000
0000
0100
0000
0000
0000
0010
0000
,
0000
0000
1000
0000
0100
0000
0000
0000
0010
0000
0000
0010
0000
0000
0010
0000
,
0000
0000
0000
0000
0000
0000
0010
0000
0001
0000
0000
1000
0000
0000
0100
0000
,
0000
0000
0000
0001
0001
0000
0010
0010
,
0000
0000
0000
0100
1000
0000
0010
0000
,
0100
1000
0100
0000
1100
0000
0001
0010
,
0001
0000
0000
0010
0000
0000
0001
0000
0000
0000
0000
0000
0100
0000
1000
0000
,
0100
0000
0000
1000
0000
0000
0100
0000
0000
0000
0000
0000
0010
0000
0100
0000
,
0010
0000
0000
0100
0000
0000
0010
0000
0000
0000
0000
0000
0000
0000
0002
0000
,
0000
0000
0010
0000
0013
0000
0000
0000
0100
0000
0000
0010
0000
0000
1000
0000
,
1000
0000
0000
0000
0000
0000
0100
0000
0001
0000
0000
0010
0000
0000
1000
0000
,
0000
0100
0001
0001
0000
0000
0010
0000
,
1001
0000
0000
0100
0000
0000
1000
0100
,
0001
0000
0001
0000
1000
0010
0100
0010
,
1000
0000
0000
0000
0100
0000
0010
0010
,
0001
0000
0001
0010
0000
0000
0100
1000
,
0100
0000
1000
0000
0001
0010
1000
0000
,
0100
0000
0000
0000
0001
0000
1000
0010
,
0100
0000
0000
0000
0000
0000
0000
0000
1000
0000
0000
0010
0000
0000
0001
0000
,
0100
0000
0000
0010
0000
0000
1000
0000
0100
0000
0000
0000
0001
0000
0001
0000
,
0100
0000
1000
1000
0100
0000
0020
0000
,
0001
0000
0100
0001
0001
0000
0030
0000
,
0110
0000
0000
0000
;

//---------------dance-single - Copied from----------------
#NOTES:
     dance-single:
     Copied from:
     Beginner:
     1:
     0.145,0.202,0.120,0.069,0.000:
0000
0000
0000
0000
,
0000
0000
0000
0000
,
0000
0000
0000
0000
,
1000
0000
0100
0100
,
0000
0000
0001
0000
,
0010
0000
0100
0000
,
0001
0000
1000
0000
,
1000
0000
0000
0200
,
0000
0300
0100
0000
,
1001
0000
0000
0000
,
1001
0000
0010
0000
,
1001
0000
0000
0000
,
0110
0000
0110
0000
,
1001
0000
0000
0000
,
1001
0000
0100
0000
,
1001
0000
0000
0000
,
0110
0000
0000
0000
,
1001
0000
0000
0000
,
1000
0000
0001
0000
,
1001
0000
0000
0000
,
0001
0000
1000
0000
,
1001
0000
0000
0000
,
0010
0000
0100
0000
,
1001
0000
0000
0000
,
0100
0000
0000
0000
,
1000
0000
0000
0000
,
0100
0000
0000
0000
,
0001
0000
0001
0000
,
0010
0000
0010
0000
,
0100
0000
0100
0000
,
0001
0000
0001
0000
,
0020
0000
0030
0000
,
0002
0000
0003
0000
,
2002
0000
0000
0000
,
3003
0000
1000
1000
,
1000
0000
0000
0010
,
0010
0000
0000
0100
,
0100
0000
0000
0000
,
0001
0000
1000
0000
,
0100
0000
0001
0000
,
0001
0000
0010
0000
,
0000
0000
1000
1000
,
1000
0000
0100
0000
,
0010
0010
0010
0000
,
0100
0100
0100
0000
,
1000
1000
1000
0000
,
0020
0000
0030
0000
,
0100
0000
0010
0000
,
0100
0000
1000
0000
,
0200
0000
0300
0000
,
0001
0001
0001
0000
,
0010
0000
0000
0000
,
0001
0000
0000
0100
,
0100
0000
0010
0010
,
0000
0000
0001
0000
,
1000
0000
0100
0000
,
0100
0000
0001
0000
,
0010
0000
0000
2000
,
0000
3000
1000
0000
,
0010
0000
0000
0000
;

//---------------dance-single - Copied from----------------
#NOTES:
     dance-single:
     Copied from:
     Challenge:
     8:
     0.491,0.510,0.189,0.189,0.133:
0000
0000
0000
0000
,
0000
0000
0000
0000
,
0000
0000
0000
0000
0000
0000
1000
1000
,
1000
0000
0100
0001
0010
0001
0100
0000
,
0010
0000
0001
0100
1000
0000
0100
0000
,
1000
0000
0000
0000
0010
0000
1000
0000
0001
0000
0000
0010
0000
0000
0001
0000
,
1000
0000
0000
0100
0000
0000
1000
0000
0010
0000
0000
0000
0100
0000
0001
0000
,
1000
0000
0100
1000
0010
0000
0200
0000
,
1000
0000
1000
0001
0301
0000
0010
0000
,
0001
1000
0100
1000
0010
0000
0100
0001
,
2000
0000
0010
0010
3020
0000
0100
0001
,
0130
0000
0010
1000
0100
0000
0001
0000
,
0010
0001
1000
0100
2000
0000
3020
0000
,
1030
0100
1000
0010
0001
0000
0100
1000
,
0010
0000
0100
0001
1000
0000
0001
0010
,
1000
0100
0010
1000
0010
0001
0100
1000
,
0100
0000
1000
0010
2000
0000
0100
3000
,
0001
0000
0010
0001
0000
0010
0001
0000
1000
0000
0000
0000
0100
0000
0010
0000
,
0100
0000
1000
0100
0000
1000
0100
0000
0001
0000
0000
0000
0010
0000
1000
0000
,
0001
0000
0010
0100
0000
0010
0100
0000
1000
0000
0000
0000
0010
0000
0001
0000
,
0010
0000
1000
0010
0000
1000
0010
0000
0000
0000
0001
0100
0000
0001
0100
0000
,
0010
0000
0010
0001
0000
0010
0001
0000
0100
0000
0000
0000
0010
0000
1000
0000
,
0001
0000
0100
0001
0000
0100
0001
0000
0010
0000
0000
0000
0100
0000
1000
0000
,
0001
0100
0001
0010
0002
0010
0013
0100
,
1000
0000
0100
1000
0010
0000
0100
0000
,
1000
0020
0001
0000
0130
0000
0001
1000
,
0010
0000
0100
1000
0000
0001
1000
0000
,
0100
1000
0001
0010
0001
0000
0010
0100
,
1000
0010
0100
2000
0100
0001
0001
3010
,
0000
0100
0010
1000
0100
1000
0001
0000
,
0001
1000
0100
1000
0010
0100
0000
0001
,
1100
0000
0000
0010
0000
0000
0100
0000
0011
0000
0000
1000
0000
0000
0010
0000
,
0001
0000
0100
0010
1000
0100
1000
0010
,
0100
0100
0010
0010
,
1000
0100
0001
0010
0200
0000
0300
0000
,
1100
0000
0000
0110
0000
0000
0011
0000
0000
0000
0000
0000
0001
0000
0010
0000
,
0101
0000
0000
0110
0000
0000
1010
0000
0100
0000
0000
0000
0001
0000
1000
0000
,
0020
0000
0000
0032
0000
0000
0203
0000
0010
0000
0310
0000
1000
0000
0100
0000
,
0001
0000
0010
0000
0001
0000
1000
0000
0100
0000
0000
0010
0000
0000
0010
0000
,
1001
0000
0000
0000
0100
0000
1000
0000
0100
0000
0000
0010
0000
0000
0100
0000
,
0100
0000
0001
1000
0001
0010
0001
0100
,
1000
0000
0000
0001
0010
0100
1000
0100
,
0010
0001
0010
0100
1000
0000
0001
0010
,
0011
0000
0000
0110
0000
0000
0011
0000
0000
0000
0000
0000
0100
0000
1000
0000
,
1100
0000
0000
0110
0000
0000
1100
0000
0001
0000
1000
0000
0010
0000
0000
0000
,
0200
0000
0000
2300
0000
0000
3020
0000
0100
0000
0031
0000
0001
0000
0010
0000
,
0000
0000
0010
0000
0001
0000
1000
0000
0100
0000
0000
0010
0000
0000
0100
0000
,
0110
0000
0000
0000
0001
0000
1000
0000
0010
0000
0000
0100
0000
0000
0001
0000
,
0010
1000
0100
1000
0010
0000
1001
0010
,
0010
0000
0001
0010
0001
1000
0100
1000
,
0002
0000
0103
0000
2000
0010
3010
0001
,
0101
0000
0010
0100
0010
1000
0001
0100
,
0010
0000
1000
0100
1000
0001
0010
0100
,
1000
0100
0010
0100
0001
1000
0100
0000
,
0001
0000
0010
0000
1000
0100
0001
0000
,
1010
0000
0000
0000
0100
0000
0000
0000
1000
0000
0000
0010
0000
0000
0100
0000
,
0001
0000
0000
0100
0000
0000
0010
0000
1000
0000
0000
0000
0010
0000
0100
0000
,
1000
0001
0010
0100
1000
0000
0022
0000
,
0000
0000
0003
0000
0030
0000
0001
0010
0001
0000
0000
0000
1100
0000
0000
0000
,
2002
0000
3003
0000
;
