#TITLE:ACHTERBAHN;
#SUBTITLE:;
#ARTIST:Blümchen;
#TITLETRANSLIT:;
#SUBTITLETRANSLIT:;
#ARTISTTRANSLIT:;
#GENRE:;
#CREDIT:;
#MENUCOLOR:;
#NEWMETERSYSTEM:NO;
#BANNER:ACHTERBAHN-bn.png;
#BACKGROUND:ACHTERBAHN-bg.png;
#LYRICSPATH:;
#CDTITLE:MixMania CD Title.png;
#MUSIC:ACHTERBAHN.mp3;
#OFFSET:0.600;
#SAMPLESTART:25.280;
#SAMPLELENGTH:11.980;
#SELECTABLE:YES;
#LISTSORT:;
#BPMS:0.000=190.000;
#STOPS:;
#BGCHANGES:;
#ATTACKS:;

//---------------dance-single - ----------------
#NOTES:
     dance-single:
     :
     Easy:
     4:
     0.315,0.342,0.015,0.126,0.000:
0000
0000
0000
0000
,
0000
0000
0000
0000
,
0000
0000
0000
0000
,
0002
0000
0203
0000
,
0320
0000
0030
0100
,
1001
0000
0000
0000
,
0010
0001
0100
0010
,
0010
0000
0100
1000
,
0010
0000
0010
0001
,
0010
0000
0000
0000
,
1000
0001
1000
0100
,
0010
0000
0000
0000
,
0100
0010
1000
0001
,
0010
0000
0000
0000
,
0100
0001
1000
0010
,
0100
0000
0100
0010
,
0010
0000
0001
0000
,
0100
0000
0000
0000
,
0001
0100
1000
0100
,
1000
0000
0000
1000
,
0100
0000
0001
0100
,
0001
0000
0010
0001
,
0010
0000
1000
0010
,
0100
0100
0010
1000
,
0100
0000
0001
0001
,
1000
0000
0100
1000
,
0010
0001
0100
0000
,
0010
1000
0001
0010
,
0010
0000
0100
1000
,
0001
0000
0100
0010
,
1000
0000
0100
0010
,
0001
1000
0001
0010
,
1000
0000
0001
1000
,
0010
1000
0100
1000
,
0010
0000
0010
0001
,
2000
0000
3002
0000
,
2003
0000
0000
0100
,
3100
0000
0010
0000
,
0100
0000
0001
0000
,
1000
0000
0100
0000
,
1000
0000
0010
0010
,
0100
0000
0001
0000
,
1000
0000
0001
0000
,
0010
0000
0001
0000
,
2002
0000
3003
0000
,
0100
0001
1000
0100
,
1000
0000
0001
0001
,
0010
0001
1000
0100
,
1000
0000
0100
0100
,
1000
0100
0001
0010
,
0001
0000
0001
0000
,
0010
1000
0100
0001
,
1000
0000
0100
0001
,
0010
1000
0001
1000
,
0100
0010
0001
0000
,
0010
1000
0100
0001
,
0010
0001
0100
0000
,
1000
0010
1000
0100
,
0001
0100
1000
0010
,
0200
0000
0020
0000
,
0000
0330
0100
0100
,
0001
0000
0100
0010
,
1000
0000
0100
0010
,
0001
1000
0100
0010
,
0001
0000
0001
1000
,
0010
0000
0001
1000
,
0100
0010
1000
0000
,
0010
1000
0010
0001
,
0001
0000
0010
0100
,
0100
0000
1000
0100
,
0001
0000
0001
0010
,
0100
1000
0100
0010
,
0001
0000
1000
0001
,
1000
0001
0010
0010
,
0001
0000
0100
1000
,
0002
0000
2003
0000
,
3020
0000
0030
0100
,
0100
0000
0000
0000
,
1000
0100
1000
0010
,
0001
0000
0001
0010
,
0100
0000
0100
0001
,
1000
0000
0000
0000
,
0100
0010
0001
0010
,
0100
0000
0000
0000
,
0001
1000
0001
0010
,
0100
0000
0000
0000
,
1000
0100
0010
0100
,
0001
0000
0001
0010
,
1000
0000
0010
0000
,
0100
0000
0000
0000
,
1000
0001
0100
0001
,
0010
0000
0000
1000
,
1000
0000
0100
1000
,
0010
0000
0100
0001
,
0010
0000
0001
0100
,
0010
0000
1000
0100
,
1000
0000
0100
0010
,
0001
0001
0100
0010
,
1000
0000
1000
0010
,
0200
0000
0302
0000
,
0023
0000
0030
1000
,
0200
0000
0000
0000
,
0000
0000
0000
0300
;

//---------------dance-single - Copied from----------------
#NOTES:
     dance-single:
     Copied from:
     Beginner:
     2:
     0.229,0.266,0.000,0.037,0.000:
0000
0000
0000
0000
,
0000
0000
0000
0000
,
0000
0000
0000
0000
,
0100
0000
0100
0000
,
0100
0000
0000
1000
,
1000
0000
0000
0000
,
0001
0001
0001
0000
,
0010
0000
0100
0100
,
0100
0000
0000
0000
,
1000
0000
0000
0000
,
0001
0001
0001
0000
,
0100
0000
0000
0000
,
1000
1000
1000
0000
,
0010
0000
0000
0000
,
0100
0100
0100
0000
,
0001
0000
0010
0010
,
0010
0000
1000
0000
,
0100
0000
0000
0000
,
0001
0001
0001
0000
,
1000
0000
0000
1000
,
1000
0000
0010
0010
,
0010
0000
1000
0000
,
0001
0000
0100
0000
,
0001
0000
0100
0100
,
0100
0000
0010
0010
,
0010
0000
0001
0000
,
1000
0000
0001
0000
,
0100
0000
0001
0001
,
0001
0000
0010
0010
,
0010
0000
0001
0000
,
0100
0000
0001
0000
,
0010
0000
1000
1000
,
1000
0000
0100
0100
,
0100
0000
1000
0000
,
0010
0000
0001
0000
,
0100
0000
0100
0000
,
0100
0000
0000
0001
,
0002
0000
0000
0000
,
0000
0000
0003
0000
,
2000
0000
0000
0000
,
0000
0000
3000
0000
,
0200
0000
0000
0000
,
0000
0000
0300
0000
,
0020
0000
0000
0030
,
0010
0000
0010
0010
,
0010
0000
0100
0000
,
0001
0000
1000
0000
,
0010
0000
1000
0000
,
0001
0000
0100
0000
,
0010
0000
0001
0000
,
0100
0000
1000
0000
,
0010
0000
1000
0000
,
0001
0000
1000
1000
,
1000
0000
0001
0000
,
0100
0000
0010
0000
,
0001
0000
1000
0000
,
0100
0000
0010
0000
,
0001
0000
0100
0000
,
0001
0000
0010
0000
,
1000
0000
0001
0000
,
0100
0000
0010
0010
,
0010
0000
0001
0000
,
1000
0000
0100
0100
,
0100
0000
1000
1000
,
1000
0000
0001
0001
,
0001
0000
0010
0010
,
0010
0000
1000
0000
,
0100
0000
0100
0100
,
0100
0000
1000
1000
,
1000
0000
0001
0000
,
0100
0000
0010
0010
,
0010
0000
0001
0001
,
0001
0000
0010
0000
,
0001
0000
0100
0000
,
0010
0000
1000
1000
,
1000
0000
0001
0000
,
0010
0000
0000
0001
,
0001
0000
0010
0000
,
0001
0000
1000
0000
,
0100
0000
0010
0000
,
1000
0000
0001
0000
,
0100
0000
0010
0000
,
0001
0000
1000
0000
,
0100
0000
1000
0000
,
0010
0010
0010
0000
,
0001
0000
0100
0000
,
0010
0000
1000
0000
,
0001
0000
0100
0000
,
1000
0000
0010
0000
,
0010
0000
0100
0000
,
0001
0000
1000
0000
,
0100
0000
1000
0000
,
0001
0000
0010
0010
,
0010
0000
1000
1000
,
1000
0000
0001
0001
,
0001
0000
0100
0100
,
0100
0000
0001
0000
,
1000
0000
0001
0000
,
0010
0000
0100
0000
,
1000
0000
0001
0000
,
0100
0000
0000
0010
,
0020
0000
0000
0000
,
0000
0000
0000
0030
;

//---------------dance-single - Copied from----------------
#NOTES:
     dance-single:
     Copied from:
     Hard:
     7:
     0.487,0.494,0.015,0.015,0.000:
0000
0000
0000
0000
,
0000
0000
0000
0000
,
0000
0000
0000
0000
,
0001
0100
1000
0001
,
0010
1000
0100
0010
,
0001
0100
0001
0010
,
1000
0100
1000
0010
,
1000
0000
0100
0001
,
0010
0000
0000
0000
0001
0000
0100
0001
,
0100
1000
0010
1000
,
0100
0001
1000
0100
,
0010
0000
1000
0001
,
0100
0000
1000
0000
0010
1000
0010
1000
,
0100
1000
0001
0100
,
0001
0010
0001
0100
,
0001
1000
0010
1000
,
0100
0000
1000
0000
0010
0001
0010
1000
,
0100
1000
0010
0001
,
0100
0001
1000
0010
,
0100
0001
1000
0100
,
0100
0000
1000
0000
0010
0001
0010
0001
,
1000
0000
0100
1000
0010
0000
0100
0000
,
0001
0010
0001
0100
,
0001
0000
0010
0000
0010
0001
0100
0000
,
1000
0000
0100
0000
1000
0000
0010
1000
,
0100
0001
0010
0001
,
0100
0001
0010
0000
0010
1000
0100
0000
,
1000
0000
0100
0000
0010
0001
1000
0100
,
1000
0000
0010
0000
1000
0100
1000
0010
,
0001
0100
0001
1000
,
0100
0010
1000
0001
,
0100
0000
0010
0000
0100
0010
0100
0000
,
1000
0001
0100
0010
,
0001
0100
0010
1000
,
0001
0100
0001
0000
1000
0100
1000
0000
,
0010
0100
0001
1000
,
0100
0000
1000
0000
0010
1000
0010
0001
,
0100
0000
0001
0100
0000
0010
0000
1000
,
0000
0100
0000
1000
0100
0000
0010
0000
,
1000
0010
0001
0100
0000
0001
0000
0010
,
0000
0001
0000
1000
0100
0000
0100
0000
,
0010
0001
0000
0100
0000
0001
0000
0010
,
0000
0001
0000
0100
0001
0000
1000
0000
,
0100
0000
1000
0100
0000
1000
0000
0010
,
1000
0000
0100
0100
,
0010
0001
0010
0001
0000
1000
0000
0100
,
0000
1000
0000
0010
1000
0000
0100
0000
,
1000
0100
1000
0100
0000
1000
0000
0100
,
0000
0001
0000
0010
0001
0000
0001
0000
,
0010
0001
0010
0100
0000
0001
0000
1000
,
0000
0100
0000
1000
0010
0000
0010
0000
,
1000
0010
1000
0100
0000
1000
0000
0001
,
0000
0100
0000
0010
0100
0000
0100
0000
,
0001
1000
0100
1000
0000
0010
0000
0001
,
0000
0100
0000
0001
0010
0000
0010
0000
,
0100
0001
0100
0010
0000
1000
0000
0100
,
0000
1000
0000
0100
1000
0000
1000
0000
,
0100
1000
0100
0010
0000
0010
0000
0001
,
0000
0100
0000
0001
0100
0000
0100
0000
,
0010
1000
0100
1000
0010
0000
0010
0001
,
0000
0000
0100
0001
,
1000
0100
1000
0010
,
1000
0000
0001
0000
0100
0001
0010
0000
,
0100
0001
1000
0010
,
1000
0000
0100
0000
0010
1000
0010
1000
,
0100
1000
0010
0001
,
0100
0000
0001
0000
0010
0000
0100
0001
,
0010
0100
0001
1000
,
0100
0000
0010
0000
0100
0010
0001
0010
,
0100
0001
0100
0010
,
1000
0000
0100
0000
0010
0001
0100
0000
,
0010
1000
0100
1000
,
0010
0000
0100
0000
0001
0010
1000
0010
,
0001
0100
1000
0010
,
0100
0000
1000
0000
0010
1000
0100
0000
,
0010
0000
0010
0100
0010
0000
1000
0100
,
1000
0000
0100
0000
1000
0001
1000
0001
,
0010
1000
0001
0100
,
0010
0000
1000
0000
0100
1000
0010
0000
,
0100
0001
1000
0001
,
0010
0000
0001
0000
0100
0010
0100
0000
,
0001
1000
0100
0010
,
0100
0000
1000
0000
0001
0000
0010
0001
,
0010
0100
1000
0001
,
1000
0000
0100
0000
0010
1000
0010
0001
,
0010
0100
0001
1000
,
0100
0000
1000
0000
0010
0000
1000
0100
,
1000
0010
0100
0001
,
1000
0000
0100
0000
0010
0000
1000
0100
,
0001
0100
0001
0010
,
0100
0001
1000
0100
,
0010
0001
0100
0001
,
1000
0100
1000
0100
0010
0001
0010
0001
,
0100
0001
0010
1000
,
0100
0010
0001
0100
,
0010
1000
0100
0001
,
0010
0100
0001
1000
,
0100
0100
1000
0010
,
0100
0001
0100
0010
,
1000
0000
1000
0100
0010
0000
0010
0001
,
0100
0010
0001
1001
,
2002
0000
0000
0000
,
0000
0000
0000
3003
;

//---------------dance-single - Copied from----------------
#NOTES:
     dance-single:
     Copied from:
     Medium:
     5:
     0.411,0.380,0.007,0.074,0.000:
0000
0000
0000
0000
,
0000
0000
0000
0000
,
0000
0000
0000
0000
,
2000
0000
3200
0000
,
2300
0000
0100
0100
,
3010
0100
0001
1000
,
0100
0010
1000
0001
,
0100
0010
0001
1000
,
0100
1000
0010
0001
,
0100
0001
0010
1000
,
0100
1000
0010
0001
,
0100
0001
0010
1000
,
0100
0000
1000
0000
0010
0000
0001
1000
,
0100
0001
0100
1000
,
0010
1000
0100
0010
,
0001
0100
0001
0010
,
0010
0100
1000
0001
,
1000
0100
1000
0010
,
0100
0001
1000
0100
,
0010
0001
0100
0001
,
0010
0000
0001
0000
1000
0100
0001
0000
,
0100
0010
1000
0100
,
0001
0100
0010
0001
,
0010
0100
0100
0001
,
1000
0000
0100
1000
,
0010
0001
0010
0100
,
0001
1000
0100
0010
,
0001
0000
0100
0000
1000
0010
0100
0000
,
0001
0000
0100
0001
,
0010
1000
0100
0001
,
1000
0100
0010
1000
,
0001
0100
0010
1000
,
0100
0000
1000
0001
,
0010
0001
0100
0001
,
1000
0100
1000
0010
,
0001
0001
0100
0100
,
1000
0000
1000
0000
0100
0000
1000
0010
,
0001
0000
0000
0100
0000
0000
0000
0001
,
0000
0000
0010
0010
,
1000
0000
0000
0100
0000
0000
0000
0001
,
0000
0000
0010
0010
,
1000
0000
0000
0001
0000
0000
0000
0010
,
0000
0000
0100
0100
,
0010
0000
0000
0001
0000
0000
1000
0000
,
1001
0000
0000
0000
0010
0100
0010
0000
,
1000
0001
0100
0010
,
0001
0010
1000
0100
,
1000
0010
0001
0100
,
0010
1000
0100
0010
,
0100
0010
0001
0100
,
1000
0001
0100
0001
,
0010
0001
1000
0100
,
1000
0010
0100
1000
,
0001
0100
0010
0001
,
0010
0100
0001
1000
,
0100
0010
1000
0100
,
0001
0100
0010
1000
,
1000
0100
0001
1000
,
0100
0001
1000
0100
,
0010
0001
0010
0010
,
0100
0000
0001
1000
,
0001
0100
0010
1000
,
0100
1000
0010
0001
,
0100
0000
0001
0000
1000
0000
0100
0010
,
0001
0000
0001
1000
,
0100
0010
0001
0100
,
0001
1000
0100
0001
,
0010
0000
0001
0000
0100
0000
0010
1000
,
0100
0000
0001
1000
,
0100
0010
0001
1000
,
0100
0010
0001
0010
,
0100
0000
1000
0000
0001
0000
0001
1000
,
0100
0000
0100
0010
,
1000
0001
0100
0010
,
0001
0010
0001
1000
,
0100
0200
1000
2300
,
0010
3020
0000
0001
,
0031
1000
0100
1000
,
0010
0001
0100
0001
,
0010
1000
0100
1000
,
0010
0000
0001
0000
0100
0000
0010
1000
,
0100
0001
1000
0100
,
0010
0001
1000
0100
,
1000
0010
0100
0001
,
1000
0000
0010
0000
1000
0000
0001
0100
,
0010
1000
0100
0001
,
1000
0010
0001
0001
,
0010
0100
1000
0010
,
0001
0000
1000
0000
0001
1000
0001
0000
,
0100
0010
1000
0100
,
1000
0001
0010
0001
,
1000
0100
0010
1000
,
0001
0000
0100
0000
0010
0000
0010
1000
,
0100
0000
0000
0000
0100
0000
0100
1000
,
0010
0000
0000
0000
0100
0000
0100
0001
,
0010
0000
0000
0000
0010
0000
0010
0001
,
0100
0000
0001
1000
,
0001
0010
0100
0001
,
1000
0100
1000
0010
,
0002
0000
0023
0000
,
0230
0000
0000
1300
,
0020
0000
0000
0000
,
0000
0000
0000
0030
;

//---------------dance-single - Copied from Copied f----------------
#NOTES:
     dance-single:
     Copied from Copied f:
     Challenge:
     9:
     0.635,0.684,0.015,0.030,0.018: // measure 1
0000
0000
0000
0000
,  // measure 2
0000
0000
0000
0000
,  // measure 3
0000
0000
0000
0000
0000
0000
0100
1000
,  // measure 4
0100
0000
0100
0001
0010
0000
0010
0001
,  // measure 5
0100
0000
0000
0000
1000
0000
0001
1000
,  // measure 6
0100
0000
0100
0000
0001
0000
0010
0001
,  // measure 7
1000
0000
0010
0000
0001
0100
0010
1000
,  // measure 8
0100
0000
1000
0000
1000
0010
0100
0001
,  // measure 9
0010
0000
0001
0000
1000
0001
0100
1000
,  // measure 10
0010
0000
0100
0000
0001
0000
1000
0001
,  // measure 11
0100
0000
0010
0000
0001
0000
0100
0001
,  // measure 12
0010
0000
0001
0000
1000
0000
0010
1000
,  // measure 13
0100
0000
1000
0000
0001
1000
0100
1000
,  // measure 14
0010
0000
1000
0100
0001
0000
0100
0010
,  // measure 15
0001
0000
0010
0000
0001
0100
1000
0010
,  // measure 16
0100
0000
0001
0000
1000
0100
0010
0001
,  // measure 17
0010
0000
0001
0000
1000
0001
0100
0010
,  // measure 18
1000
0000
0001
0000
0100
0000
0010
0001
,  // measure 19
0100
0000
0010
0000
1000
0000
0100
1000
,  // measure 20
0010
0000
0100
0001
0010
0000
0001
1000
,  // measure 21
0001
0000
1000
0000
0010
0100
0010
0100
,  // measure 22
0010
0000
1000
0000
0001
1000
0100
0001
,  // measure 23
0010
0000
0100
0000
0001
1000
0010
1000
,  // measure 24
0100
0000
1000
0001
0100
0000
0010
0001
,  // measure 25
1000
0000
0100
0000
0001
0000
1000
0010
,  // measure 26
1000
0000
0100
1000
0001
0000
0001
0010
,  // measure 27
1000
0000
0100
0000
0010
1000
0001
0010
,  // measure 28
0100
0000
1000
0000
0010
0100
1000
0100
,  // measure 29
0001
0000
0100
1000
0001
0000
1000
0010
,  // measure 30
0001
0000
0100
0000
0001
0100
1000
0010
,  // measure 31
1000
0000
0100
0010
0001
0000
1000
0100
,  // measure 32
0001
0000
0100
0000
1000
0100
0001
0100
,  // measure 33
0010
0000
1000
0000
0001
0100
0010
0001
,  // measure 34
1000
0000
1000
0100
0001
0000
0010
0001
,  // measure 35
0100
0000
1000
0000
0001
0000
0010
0100
,  // measure 36
0001
0000
1000
0100
0010
0000
1000
0100
,  // measure 37
0001
0000
0010
0000
0001
1000
0100
0001
,  // measure 38
1000
0001
0100
0001
0000
0100
0001
0010
,  // measure 39
0000
0001
0100
1000
0100
0000
0001
0000
,  // measure 40
0100
0001
0010
0001
0000
0100
1000
0001
,  // measure 41
0000
0001
0100
0010
1000
0000
0100
0000
,  // measure 42
0001
1000
0010
0100
0000
0010
0001
1000
,  // measure 43
0000
0001
0100
0001
0010
0000
0001
0000
,  // measure 44
0100
0001
1000
0100
0000
0100
1000
0001
,  // measure 45
0100
0000
0000
0000
0010
0000
0100
0000
0001
0100
0001
0000
1000
0100
1000
0000
,  // measure 46
0100
0001
1000
0100
0010
1000
0100
0001
,  // measure 47
0100
0000
0001
0000
0010
1000
0001
0010
,  // measure 48
0100
0001
0100
1000
0100
0010
0100
0001
,  // measure 49
1000
0000
0100
0000
1000
0001
0010
1000
,  // measure 50
0001
0100
0010
0001
1000
0100
0010
1000
,  // measure 51
0100
0000
0001
0000
0100
1000
0001
0010
,  // measure 52
1000
0010
0001
0010
1000
0100
1000
0100
,  // measure 53
0010
0000
0000
0000
1000
0000
0000
1000
0001
0000
0010
0000
1000
0000
0010
0000
,  // measure 54
0100
0010
1000
0001
0100
0010
0100
1000
,  // measure 55
0010
0000
0001
0000
1000
0001
0100
1000
,  // measure 56
0010
0001
0010
0100
1000
0001
0100
0010
,  // measure 57
0100
0000
0001
0000
0100
0001
1000
0010
,  // measure 58
1000
0100
0010
1000
0001
0010
0100
0001
,  // measure 59
0100
0000
1000
0000
0001
1000
0001
0010
,  // measure 60
1000
0001
0100
0010
1000
0000
0100
0010
,  // measure 61
0000
0001
0010
0001
1000
0000
0100
0000
,  // measure 62
1000
0000
0100
0001
0010
0000
0001
0010
,  // measure 63
0001
0000
0100
0000
1000
0001
0010
1000
,  // measure 64
0100
0000
1000
0001
0010
0000
0001
1000
,  // measure 65
0100
0000
0010
0000
0001
0000
1000
0100
,  // measure 66
0001
0000
0010
1000
0001
0000
0100
0010
,  // measure 67
1000
0000
0010
0000
0100
0010
0001
1000
,  // measure 68
0100
0000
0010
1000
0010
0000
0001
0010
,  // measure 69
1000
0000
0001
0000
1000
0100
0010
0001
,  // measure 70
0100
0000
0001
0100
1000
0000
0010
1000
,  // measure 71
0001
0000
0010
0000
0100
0001
1000
0001
,  // measure 72
1000
0000
0100
0010
0100
0000
0010
0100
,  // measure 73
0010
0000
0100
0000
0001
0100
1000
0100
,  // measure 74
0010
0000
0001
1000
0100
0000
0010
0001
,  // measure 75
1000
0000
0001
0000
0010
0100
0001
1000
,  // measure 76
0100
0000
0010
0001
0100
0000
0010
1000
,  // measure 77
0100
0000
0001
0000
1000
0100
0001
0010
,  // measure 78
0100
0000
0001
0000
0100
0010
1000
0100
,  // measure 79
0010
0000
0100
0000
0001
0000
0100
0001
,  // measure 80
1000
0000
0001
0000
0100
0001
0010
0100
,  // measure 81
1000
0000
0001
0000
0100
1000
0010
0001
,  // measure 82
0100
0000
0010
0000
1000
0000
0010
1000
,  // measure 83
0100
0000
0001
0010
0100
0000
1000
0000
,  // measure 84
0100
0000
0010
0001
1000
0000
0001
1000
,  // measure 85
0100
0000
0001
0000
0010
0000
0000
0001
0010
0000
0001
0000
0100
0000
0010
0000
,  // measure 86
0001
0000
1000
0000
0100
0000
0010
0001
,  // measure 87
1000
0000
0100
0010
0001
0000
0010
1000
,  // measure 88
0001
0000
0010
0000
0100
0001
1000
0100
,  // measure 89
0010
0000
0000
0000
0100
0000
0000
0000
0001
0000
0000
0010
1000
0000
0100
0000
,  // measure 90
1000
0000
0010
0000
0001
1000
0100
1000
,  // measure 91
0010
0000
1000
0010
0001
0000
0100
1000
,  // measure 92
0010
0000
0001
0000
0100
0000
0010
0001
,  // measure 93
0010
0000
1000
0000
0010
0001
1000
0001
,  // measure 94
0100
0000
1000
0100
0010
1000
0001
0010
,  // measure 95
0100
0000
0010
0100
0001
0010
1000
0100
,  // measure 96
1000
0000
0001
0100
0010
0100
1000
0001
,  // measure 97
0010
0000
0001
0010
2000
0000
3002
0000
,  // measure 98
0013
0000
0100
0000
0001
0000
1000
0001
,  // measure 99
0100
0000
0010
0100
0001
0000
0100
0000
,  // measure 100
0001
0000
0001
1000
0100
0000
0100
1000
,  // measure 101
0010
0000
0010
1000
0001
0000
1100
0000
,  // measure 102
0220
0000
0000
0000
,  // measure 103
0000
0000
0000
0330
;
