#TITLE:e-motion (Romantic Style);
#SUBTITLE:;
#ARTIST:e.o.s (Remixed by dj TAKA);
#TITLETRANSLIT:;
#SUBTITLETRANSLIT:;
#ARTISTTRANSLIT:;
#GENRE:Trance;
#CREDIT:;
#MUSIC:e-motionsr.ogg;
#BANNER:e-motionsr.png;
#BACKGROUND:e-motionsr-bg.png;
#CDTITLE:;
#SAMPLESTART:0.000;
#SAMPLELENGTH:0.000;
#SELECTABLE:YES;
#OFFSET:-6.877;
#BPMS:0.000=76.498
,8.000=152.996
;
#STOPS:;
#BGCHANGES:;
#FGCHANGES:;

//--------------- dance-single - ----------------
#NOTES:
     dance-single:
     :
     Easy:
     5:
     0,0,0,0,0:
0100
0100
0010
0010
,
1000
0100
0010
0001
,
1000
0000
0010
1001
,
0001
0000
0100
1001
,
2000
0000
0010
3000
,
0020
0000
0100
0030
,
1000
1000
0001
0001
,
0100
0100
0010
0010
,
1001
0100
0010
0000
,
2002
3003
1000
0010
,
0100
0000
1001
0000
,
0010
0000
0110
0000
,
1000
0100
0001
0010
,
0100
0010
1000
0001
,
2000
0100
0010
3100
,
0020
0100
0001
0130
,
0200
0010
1000
0310
,
0002
0010
1000
0013
,
0010
0000
1010
0000
,
0100
0000
0101
0000
,
1000
0100
0010
0001
,
1000
1000
0100
0000
,
1000
0110
0001
0110
,
0010
1001
0100
1001
,
2000
3000
0002
0003
,
0200
0300
0020
0030
,
1001
0100
0010
0100
,
0002
0010
0100
1003
,
1001
1000
0001
1000
,
0020
0001
0100
1030
,
1000
1000
1000
0000
,
0001
0001
0001
0000
,
1000
1100
0010
0011
,
0010
1001
0110
0100
,
2002
0000
0000
0000
,
3003
0000
0000
0000
;

//--------------- dance-single - ----------------
#NOTES:
     dance-single:
     :
     Medium:
     8:
     0,0,0,0,0:
1000
0000
1010
0000
1000
0010
1000
0000
,
0010
0011
0100
1100
,
1000
0010
0100
0010
1000
0000
0010
0000
,
0100
0001
0010
0001
0100
0000
0001
0000
,
1000
0010
1000
0001
1000
0000
0010
0000
,
0100
0001
0100
0010
0100
0000
0100
0000
,
1000
0000
0010
0000
1000
0100
1000
0000
,
0001
0000
0100
0000
1000
0100
0001
0000
,
1001
2000
0010
3001
,
0220
0000
0330
0000
1000
0100
0010
0001
,
1000
1000
0001
0100
,
0001
0001
1000
0010
,
1000
0100
0010
0001
,
1000
0010
0100
0001
,
1000
0010
1000
0000
2000
0000
3001
0000
,
0010
0100
0010
0000
0002
0000
1003
0000
,
1000
0010
0100
0000
0002
0000
1003
0000
,
0010
0100
0001
0000
2000
0000
3010
0000
,
1000
0100
0010
0002
0000
0000
0003
0000
,
1000
0010
1000
0020
0000
0000
0030
0000
,
1000
0101
1000
0011
,
0200
1000
0001
1300
,
1100
0101
0011
1010
,
1000
1010
0011
0101
,
0100
0000
0000
0010
1000
0010
1000
0001
,
0100
0000
0000
1000
0001
0000
0000
0000
,
2010
3100
0012
0103
,
1000
0100
1000
0000
0001
0010
0001
0000
,
2100
3010
0102
0013
,
1000
0100
0001
0000
0001
0100
1000
0000
,
1000
0010
1000
0010
1000
0000
1010
0000
,
0001
0010
0001
0010
0001
0000
0011
0000
,
1000
0100
0010
0001
,
0001
0010
0100
1000
,
2002
0000
0000
0000
,
3003
0000
0000
0000
;

//--------------- dance-single - ----------------
#NOTES:
     dance-single:
     :
     Hard:
     14:
     0,0,0,0,0:
1000
0100
0010
0001
0000
0000
0100
0000
1000
0101
0000
1010
0000
1000
0010
0100
,
0001
0000
0000
0010
1001
0000
0000
0000
1100
0000
0000
0011
0000
0000
1001
0000
,
1000
0000
0001
0000
0100
0000
0020
0000
0000
0000
0000
0130
0000
0010
1000
0000
,
0100
0000
0010
0000
0001
0000
2000
0000
0000
0000
0000
3010
0000
0100
0001
0000
,
0010
0000
0100
0000
0010
0000
0002
0000
0000
0000
0000
1003
0000
0010
0100
0000
,
0001
0000
0010
0000
0100
0000
2000
0000
0000
0000
0000
3001
0000
0100
0010
0000
,
1010
0000
1000
0000
0100
0000
0020
0000
0000
0000
0000
0130
0000
1000
0001
0000
,
0001
0000
0100
0000
0001
0000
0020
0000
0000
0000
0000
0130
0000
0010
0001
0000
,
1001
0000
0000
0000
0010
0100
0010
0100
0010
0100
0010
0100
0010
0100
0010
0100
,
0020
0000
0000
0000
0030
0000
0000
0000
1000
0100
0010
0001
1000
0010
0100
0001
,
0010
0000
0100
0000
1000
0010
1000
0000
0100
0000
0001
0000
0100
0000
1000
0000
,
0001
0000
0100
0000
0010
1000
0010
0000
1000
0000
0100
0000
0010
0000
0001
0000
,
1000
0000
0001
0000
0100
0010
0100
0000
0010
0000
0100
0000
0001
0000
1000
0000
,
0010
0000
0100
0000
0001
1000
0001
0000
0010
0100
0010
0100
1000
0001
1000
0001
,
1000
0000
0100
0000
0010
0000
0001
0100
0000
0001
0100
0000
0010
0000
1000
0000
,
0001
0000
0010
0000
0100
0000
1000
0010
0000
1000
0010
0000
0100
0000
0001
0000
,
0100
0000
0010
0000
1000
0000
0001
1000
0000
1000
0001
0000
1000
0000
0010
0000
,
1000
0000
0001
0000
1000
0000
0010
0100
0000
0100
0010
0000
1000
0000
0010
0000
,
2000
3010
0200
0301
0000
0100
0001
0100
,
0020
1030
0020
0130
0000
0001
0010
0001
,
2000
3010
2000
3100
0000
0100
0010
0001
,
1000
0000
0100
0000
0010
0000
0001
0000
1000
0000
0001
0000
1000
0000
0010
0100
,
0010
0000
1000
0001
1000
0000
0010
1000
0010
0000
0100
0001
0100
0000
0010
0000
,
1000
0000
0000
0000
0001
0100
0010
0000
1000
0100
0010
0000
0100
1000
0001
0010
,
0100
0001
1000
0010
0100
0001
0010
0100
,
1000
0000
0100
0000
0010
0000
0001
0000
1000
0010
1000
0001
0100
0001
1000
0010
,
1000
0000
0010
0000
0100
0000
0001
1000
0000
1000
0010
0000
0100
0000
0001
1000
,
0001
0000
0100
0000
0010
0000
1000
0010
0000
0010
1000
0000
0001
0000
0100
0010
,
1000
0000
0100
0000
0010
0000
0001
0100
0000
0100
0001
0000
0010
0000
0100
1000
,
0001
0000
1000
0000
0010
0000
0100
0010
0000
0010
0100
0000
0001
0000
1000
0010
,
0100
0001
0100
0001
0100
0001
0100
0001
0000
0000
1000
0000
1000
0000
1000
0000
,
0010
0100
0010
0100
0010
0100
0010
0100
0000
0000
0001
0000
0001
0000
0001
0000
,
1000
0010
0100
0001
1000
0100
0001
0100
1000
0010
0100
0001
0010
0100
1000
0100
,
0010
0001
1000
0100
1000
0001
0100
0001
1000
0010
1000
0001
0010
0001
1000
0100
,
0020
0000
0000
0000
,
0030
0000
0000
0000
;
