#TITLE:Zodiac;
#SUBTITLE:;
#ARTIST:Banzai;
#TITLETRANSLIT:;
#SUBTITLETRANSLIT:;
#ARTISTTRANSLIT:;
#GENRE:;
#CREDIT:;
#MUSIC:Zodiac.ogg;
#BANNER:Zodiac.png;
#BACKGROUND:Zodiac-bg.png;
#CDTITLE:;
#SAMPLESTART:94.223;
#SAMPLELENGTH:8.900;
#SELECTABLE:YES;
#OFFSET:-0.006;
#BPMS:0.000=107.000;
#STOPS:;
#BGCHANGES:;
#FGCHANGES:;

//--------------- dance-single - K. Ward ----------------
#NOTES:
     dance-single:
     K. Ward:
     Beginner:
     2:
     0.104835,0.127996,0.076798,0,0,86,77,9,0,0,0,0.104835,0.127996,0.076798,0,0,86,77,9,0,0,0:
0000
0000
0000
0000
,
0000
0000
0000
0000
,
0001
0000
0000
0000
,
0001
0000
0000
0000
,
1000
0000
0000
0000
,
1000
0000
0010
0010
,
1000
0000
0000
0000
,
1000
0000
0000
0001
,
0010
0000
0000
0000
,
1001
0000
0000
0000
,
0010
0000
0010
0000
,
0001
0000
0001
0000
,
0100
0000
0100
0000
,
1000
0000
1000
0000
,
0100
0000
0100
0000
,
1000
0000
1000
0000
,
0010
0000
0010
0000
,
0001
0000
0000
0000
,
1001
0000
0000
0000
,
1001
0000
0000
0000
,
0110
0000
0000
0000
,
0110
0000
0000
0000
,
1001
0000
0000
0000
,
0110
0000
0000
0000
,
1001
0000
0000
0000
,
0110
0000
0000
0000
,
0001
0000
0000
0000
,
1000
0000
0000
0000
,
0010
0000
0000
0000
,
0100
0000
0000
0000
,
1000
0000
1000
0000
,
0100
0000
0100
0000
,
0010
0000
0010
0000
,
0100
0000
1000
0000
,
0001
0000
1000
0000
,
0001
0000
1000
0000
,
0001
0000
1000
0000
,
0010
0000
0010
0000
,
1000
0000
0001
0000
,
1000
0000
0001
0000
,
1000
0000
0001
0000
,
1000
0000
0000
0000
,
0010
0000
0010
0000
,
0100
0000
0100
0000
,
0001
0000
0001
0000
,
1000
0000
1000
0000
,
0001
0000
0001
0000
,
0010
0000
0010
0000
,
0100
0000
0100
0000
,
1000
0000
0000
0000
,
0001
0000
0000
0000
;

//--------------- dance-single - K. Ward ----------------
#NOTES:
     dance-single:
     K. Ward:
     Easy:
     3:
     0.157252,0.191994,0.11093,0,0,129,116,13,0,0,0,0.157252,0.191994,0.11093,0,0,129,116,13,0,0,0:
0000
0000
0000
0000
,
0000
0000
0000
0000
,
1000
0000
1000
0000
,
1000
0000
0000
0000
,
0001
0000
0001
0000
,
0001
0000
0000
0000
,
1000
1000
0100
1000
,
0001
0010
0001
0001
,
1000
0010
0100
0000
,
1001
0000
1001
0000
,
1000
0000
0010
0000
,
0100
0000
0001
0000
,
1000
0000
0100
0000
,
0010
0000
0100
0000
,
1000
0000
0010
0000
,
0100
0000
0001
1000
,
0001
0000
0100
0000
,
1001
0000
1001
0000
,
0100
0000
0100
0000
,
1100
0000
1000
0000
,
0011
0000
0100
0000
,
1001
0000
0000
0000
,
0100
0000
0100
0000
,
0010
0000
0010
0000
,
0100
1000
0010
0001
,
1001
0000
0000
0000
,
1000
0000
0000
0000
,
0001
0000
0000
0000
,
0100
0000
0000
0000
,
0010
0000
0000
0000
,
1000
0000
0001
0000
,
0001
0000
1000
0000
,
0100
0000
0010
0000
,
0100
0100
0100
0000
,
1000
0100
1000
0000
,
0010
0001
0010
0000
,
0100
0010
0001
0000
,
0100
1000
0001
0000
,
1000
0100
0010
0000
,
0010
0100
1000
0000
,
0100
1000
0010
0100
,
1001
0000
1001
0000
,
0001
0001
0100
0100
,
0010
0010
1000
0001
,
1000
1000
0010
0010
,
0100
0001
0010
0000
,
1001
0000
0100
0000
,
1001
0000
0010
0000
,
1000
0100
0010
0000
,
0010
0001
0100
0010
,
1001
0000
0000
0000
;

//--------------- dance-single - K. Ward ----------------
#NOTES:
     dance-single:
     K. Ward:
     Medium:
     7:
     0.302315,0.298658,0.145062,0.025599,0,248,231,17,3,0,0,0.302315,0.298658,0.145062,0.025599,0,248,231,17,3,0,0:
0000
0000
0000
0000
,
0000
0000
0000
0000
,
1000
0100
1000
0010
,
0100
0010
0100
0011
,
0001
0010
0001
0100
,
0010
1000
0100
1100
,
1000
1001
0001
0101
,
0100
0110
0010
1010
,
1000
1100
0100
0110
,
0000
0100
0010
0000
0000
0010
0001
0000
,
0001
0000
0001
0000
0100
0010
1000
0000
,
1000
0000
1000
0000
0010
0100
0001
0000
,
0010
0000
0010
0000
0001
0100
0010
0000
,
1000
0100
1000
0100
1000
0000
0001
0000
,
1000
0000
1000
0000
0010
0100
0001
0000
,
0001
0000
0001
0000
0100
0010
1000
0000
,
0100
0000
0100
0000
1000
0010
0100
0000
,
0000
0001
0010
0000
0000
0100
0010
0000
,
0001
0000
0100
0000
0010
0100
0010
0000
,
1000
0000
0001
0000
0010
0001
0010
0000
,
0001
0000
0100
0000
0010
0100
0010
0000
,
2000
0000
0010
3010
,
1000
0000
0010
0000
0100
0001
0100
0000
,
0001
0000
0100
0000
0010
1000
0010
0000
,
1000
0010
0100
0001
,
0002
0000
0010
0013
,
0001
1001
0010
0110
,
0001
0000
1001
0000
1000
0001
1000
0000
,
0001
0011
0010
1100
,
0001
0000
0110
0000
1000
0001
1000
0000
,
0001
0000
0001
0000
0001
1000
0001
0000
,
0100
0000
0100
0000
0100
0010
0100
0000
,
0010
0000
0010
0000
0010
1000
0010
0000
,
0100
0000
0010
0000
1000
0001
0020
0000
,
0031
1000
0001
0000
0010
0100
0010
0000
,
0001
1000
0001
0000
0010
0100
0010
0000
,
0001
0010
0001
0000
0100
0010
0100
0000
,
0010
1000
0010
0000
1000
0000
1001
0000
,
1000
0001
0001
0000
0100
0001
0001
0000
,
1000
0001
0001
0000
0100
0010
0010
0000
,
1000
0100
0100
0000
1000
0010
0010
0000
,
0000
1000
0010
0000
0000
0100
0001
0000
,
1000
0000
1000
0000
0010
0100
0001
0000
,
0001
0000
0001
0000
0100
0010
1000
0000
,
0100
0000
0100
0000
1000
0010
0100
0000
,
0001
0010
0001
0010
0001
0000
0011
0000
,
0100
0000
0100
0000
0010
1000
0100
0000
,
1000
0000
1000
0000
0010
0100
0010
0000
,
1000
0000
1000
0000
0001
0010
0001
0000
,
0000
0100
0010
0000
0000
1000
0100
0000
,
1001
0000
0000
0000
;

//--------------- dance-single - K. Ward ----------------
#NOTES:
     dance-single:
     K. Ward:
     Hard:
     10:
     0.426654,0.447987,0.136529,0.204794,0.059732,350,334,16,24,32,0,0.426654,0.447987,0.136529,0.204794,0.059732,350,334,16,24,32,0:
0000
0000
0000
0000
,
0000
0000
0000
0000
,
1000
0100
1000
0100
1000
0100
1000
0100
,
0001
0100
0001
0100
0001
0100
0001
0100
,
1000
0010
1000
0010
1000
0010
1000
0010
,
0001
0010
0001
0010
0001
0010
1001
0000
,
1000
0000
0100
0000
1000
0000
0100
0000
0010
0000
0001
0000
0010
0000
0001
0010
,
0001
0100
0001
0100
0010
1000
0020
1000
,
1030
0000
0100
0000
1000
0000
0100
0000
0010
0000
0001
0000
0010
0000
0001
1000
,
0002
0100
0103
0M0M
0020
0100
0130
0MM0
,
0001
0000
0100
0000
0010
0000
0001
0000
0010
0000
0100
0000
0010
0000
1000
0010
,
0100
0000
0010
0000
1000
0000
0010
0000
0100
0000
0001
0000
0100
0000
0001
0100
,
0010
0000
0100
0000
0010
0000
1000
0000
0010
0000
0100
0000
0010
0000
1000
0001
,
0100
0000
0010
0000
1000
0000
0010
0000
0100
0010
1000
0000
0100
1000
0010
0000
,
1000
0010
0100
1000
0100
0001
0100
0010
,
1000
0100
0010
0001
0100
0010
1000
1000
,
0010
0100
0010
0001
0010
0100
0010
0010
,
2000
0010
3010
0MM0
0200
0001
0301
0M0M
,
0002
0100
1000
0103
,
0020
0000
0100
0000
0001
0001
0031
0000
,
0002
0100
1000
0103
,
0020
0000
0001
0000
0100
0001
0130
0000
,
2000
0010
0001
3010
,
0200
0000
1000
0000
0010
0010
0310
0000
,
1000
0010
0100
0001
0200
0000
0310
0000
,
2000
0000
0001
0000
0001
0010
3001
M00M
,
1000
1001
0010
0110
,
0001
0000
1100
0000
0001
0100
0100
0001
,
2000
3001
0200
0310
,
1000
0100
0010
0100
1000
0000
1001
0000
,
0100
0100
0002
0000
0103
0100
0020
0000
,
1030
0000
0100
0000
1000
0000
0001
0100
0020
0000
0100
0000
0130
0000
0000
0000
,
0100
0010
2000
0000
3100
0010
0002
0000
,
1003
0010
0100
0010
0110
0MM0
1001
M00M
,
1000
0010
1000
1000
0010
0100
0010
0010
,
0100
0001
1000
0010
0010
1000
1100
MM00
,
1000
0001
0001
0100
0010
1000
1000
0001
,
0100
0000
0001
0000
1000
0000
0010
0100
0001
0000
0010
0000
0011
0000
00MM
0000
,
0001
1000
1100
0000
1000
0001
0011
0000
,
1000
0000
0001
0000
0100
0000
0001
0100
0001
0000
0010
0000
0011
0000
M00M
0000
,
0001
1000
1100
0000
0010
0100
0110
0000
,
0002
0100
0103
0M0M
0200
0001
0301
0M0M
,
1000
0000
0010
0000
0100
0000
0001
0000
1000
0000
0100
0000
0010
0000
0100
1000
,
0010
0100
0001
0100
0010
1000
0010
0010
,
0100
0000
0001
0000
0010
0000
0100
0000
1000
0000
0100
0000
0010
0000
0100
1000
,
0100
0000
1000
0000
0010
0000
0100
0000
0001
0010
0001
0010
0001
0000
000M
0000
,
1000
0100
0001
0100
1000
0100
1000
M000
,
1000
0100
0001
0100
1000
0010
0110
0000
,
0010
0100
0001
0010
0001
1000
0001
0M0M
,
2000
0100
3100
MM00
0200
0010
0310
0MM0
,
1001
0000
0000
0000
;

//--------------- dance-single - K. Ward ----------------
#NOTES:
     dance-single:
     K. Ward:
     Challenge:
     14:
     0.6412,0.767977,0.452253,0.614382,0.725312,526,473,53,72,72,6,0.6412,0.767977,0.452253,0.614382,0.725312,526,473,53,72,72,6:
0000
0000
0000
0000
,
0000
0000
0000
0000
,
0002
0000
1000
0000
0010
0000
0103
0000
2000
0000
0010
0000
3001
0000
1000
0001
,
2000
0000
0010
0000
3010
0000
0200
0000
0001
0000
0301
0000
2010
0000
3002
M000
,
2003
000M
3010
0000
0010
0000
0100
0000
0010
0000
1000
0000
0001
0000
1000
0001
,
1000
0020
0130
0002
1000
0103
2000
0001
,
3001
0100
M001
0000
0100
0000
0001
0000
0100
0010
1000
0000
1000
0000
0001
1000
,
0002
0000
0103
0000
001M
0000
0000
0000
1000
0000
0000
0000
0001
0000
1000
0000
0001
0000
0100
0000
0010
0000
0000
0000
0100
0000
0000
0000
0001
1000
0001
1000
,
0001
0000
0100
0000
0010
0000
0100
0010
1000
0001
1000
0000
0010
0000
1000
0001
,
2000
0000
3010
M100
0002
0010
0013
0M0M
,
1000
0001
1000
0000
0010
1000
0001
0100
0000
0001
0100
0000
0010
0000
1000
0000
,
0001
1000
0010
0000
0100
0001
0100
0010
0000
1000
0001
0000
1100
0000
0011
0000
,
0100
0010
1000
0000
0001
0100
0010
1000
0000
0001
0100
0000
0011
0000
1100
0000
,
0001
0100
0010
0000
1000
0001
1000
0010
0000
0100
0001
0000
0110
0000
1001
0000
,
1000
0001
0100
0000
0010
0100
0001
1000
0000
0001
1000
0000
0110
0000
1100
0000
,
0001
0100
0010
0000
1000
0001
1000
0010
0000
0100
0001
0000
1100
0000
0011
0000
,
1000
0010
0100
0000
0001
1000
0010
0100
0000
0001
1000
0000
0011
0000
1100
0000
,
0100
0001
0100
0000
0010
1000
0001
0100
0000
0010
1000
0000
0101
0000
M00M
0000
,
1002
1000
1000
1000
1000
1000
1003
M00M
,
1002
1000
1000
1000
1000
1000
1003
M00M
,
2001
0000
0001
0000
0001
0000
0001
0000
0001
0000
0001
0000
0001
0000
0001
0000
0001
0000
3001
0000
0000
M00M
0000
0000
,
2001
0000
0001
0000
0001
0000
0001
0000
0001
0000
0001
0000
3001
0000
0000
M00M
0000
0000
1001
0000
0000
M00M
0000
0000
,
1001
0000
0001
1000
0001
0000
1001
0000
0001
1000
0001
0000
1001
0000
0001
1000
0001
0000
1001
0000
0000
M00M
0000
0000
,
1001
0000
0001
1000
0001
0000
1001
0000
0001
1000
0001
0000
1001
0000
0001
1000
0001
0000
1001
0000
0000
M00M
0000
0000
,
1001
0000
0001
1000
0001
0000
1001
0000
0001
1000
0001
0000
1001
0000
0001
1000
0001
0000
1001
0000
0000
M00M
0000
0000
,
1001
0110
1001
0110
0011
1100
0011
0110
,
2200
0000
0001
0000
0010
0000
0001
3300
,
0022
0000
1000
0000
0100
0000
1000
0033
,
0202
0000
0000
0303
0M0M
0202
0303
0M0M
0202
0000
0000
0303
1010
0000
0000
0000
,
2020
0000
0000
3030
M0M0
2020
3030
M0M0
2020
0000
0000
3030
0101
0000
0000
0000
,
1000
0010
100M
0000
0010
0000
1000
0001
0100
0010
0100
0000
0002
0000
1003
0000
,
0002
0000
0103
0000
001M
0000
0000
0000
1000
0000
0000
0000
0001
0000
1000
0000
0001
0000
0100
0000
0010
0000
0000
0000
0100
0000
0000
0000
0001
1000
0001
1000
,
0001
0000
0100
0000
0010
0000
0100
0010
1000
0001
1000
0000
0020
0000
1030
0001
,
2000
0010
0000
0000
3010
0000
M00M
0000
0200
0010
0000
0300
1001
0000
M00M
0000
,
1000
0001
1000
1000
0001
1000
0001
0001
1000
0001
1000
1000
0001
1000
0001
0001
,
0100
0010
0100
0100
0010
0100
0010
0010
1000
0010
1000
1000
0010
1000
0010
1000
,
0001
0100
0001
0001
0100
0001
0100
0100
0001
1000
0001
0001
1000
0010
1000
1000
,
0001
0100
0010
1000
0001
0100
0010
1000
0010
1000
0001
2000
0000
0002
0000
3003
,
0000
0000
0000
M001
0000
0000
0010
0000
0000
0100
0000
0000
00M0
0000
0000
1M00
0000
0000
0010
0000
0000
1000
0000
0000
000M
0000
M000
0100
0000
0000
0010
0000
0000
0001
0000
0000
2000
0000
0000
0000
0000
0000
3001
0000
0000
0MM0
0000
0000
,
000M
0000
M001
0000
0100
0000
0001
0000
00M0
0M00
0010
0000
0100
0000
0010
0000
M00M
0000
0100
0000
0010
0000
0100
0000
2000
0000
0000
0000
3010
0000
0000
0000
,
0M0M
0000
0000
1000
0000
0000
0100
0000
0000
1000
0000
0000
0000
0000
M000
0001
0000
0000
0010
0000
0000
0002
0000
0000
0000
0000
0000
0103
0000
0000
0010
0000
0000
1000
0000
0000
0010
0000
0000
0000
0000
0000
0100
0000
0000
0000
0000
0000
,
0001
0100
0010
0000
0010
0100
0010
1000
0000
0010
1000
0000
0100
0010
0001
1000
,
0001
0000
0001
0020
0002
0000
0030
0000
20M0
0000
0003
0000
0002
0000
0003
0000
,
0010
0000
3001
2000
0002
3000
0100
0000
M203
0000
0001
0000
032M
0000
0000
0000
,
1030
0000
0001
1000
0002
M000
0000
0000
0010
0000
2003
0000
3200
0000
0000
M000
,
0320
0000
0130
1000
0200
000M
0320
0000
0031
0000
1000
M00M
2002
0000
3003
0000
,
0002
M000
1000
0023
1000
0000
1030
0000
2000
0000
3002
0000
2000
0000
0003
0000
,
0010
0000
3010
0100
M002
0000
1003
0000
2M2M
0000
0030
0000
00M1
0000
3001
0000
,
0200
0000
000M
0000
0000
0000
0310
0000
0000
0100
0000
0000
0020
0000
0000
0000
0000
0000
1000
0000
0000
0000
0000
0000
010M
0000
0000
0000
0000
0000
1030
0000
0000
0000
0000
0000
1002
0000
0000
0000
0000
0000
1000
0000
0000
0000
0000
0000
,
M200
0000
0003
0300
0002
0000
10M0
0000
1003
0100
0010
0100
1000
0100
0010
0001
,
1000
0000
0000
0000
;

//--------------- dance-double - M. Emirzian ----------------
#NOTES:
     dance-double:
     M. Emirzian:
     Easy:
     2:
     0.125558,0.170662,0.068265,0.238926,0,103,95,8,28,0,0,0.125558,0.170662,0.068265,0.238926,0,103,95,8,28,0,0:
00000000
00000000
00000000
00000000
,
00000000
00000000
00000000
00000000
,
00001000
00001000
00000000
00010000
,
00000100
00000000
00000000
00000010
,
00000010
00000010
00000000
00000001
,
00001000
00000000
00000000
00000100
,
00000100
00000100
00000000
00010000
,
00001000
00000000
00000000
00010000
,
00010000
00010000
00000000
00001000
,
01000000
00000000
00000000
00100000
,
10010000
00000000
00000000
10000000
,
11000000
00000000
00000000
00100000
,
00110000
00000000
00000000
00010000
,
00010100
00000000
00000000
00001000
,
00001001
00000000
00000000
00000010
,
00001010
00000000
00000000
00001000
,
00010010
00000000
00000000
00001000
,
00011000
00000000
00000000
00000000
,
00020000
00030000
00020000
00030000
,
00200000
00300000
00200000
00300000
,
20000000
30000000
00020000
00030000
,
20000000
30000000
00000000
00000000
,
02000000
03000000
02000000
03000000
,
00020000
00030000
00020000
00030000
,
00002000
00003000
00020000
00030000
,
00002000
00003000
00000000
00000000
,
00010000
00000000
00000000
00000000
,
00000001
00000000
00000000
00000000
,
00001000
00000000
00000000
00000000
,
00010000
00000000
00000000
00000000
,
10000000
00000000
00000000
00000000
,
01000000
00000000
00000000
00000000
,
00100000
00000000
00000000
00000000
,
00001000
00000000
00001000
00001000
,
00000100
00000001
00000000
00001000
,
00000100
00000000
00000000
00000010
,
00000010
00000010
00000000
00000001
,
00000100
00000000
00000000
00000010
,
00000010
00000010
00000000
00010000
,
00001000
00000000
00000000
00010000
,
00010000
00010000
00000000
00100000
,
10000000
00000000
00000000
00000000
,
20000000
30000000
20000000
30000000
,
02000000
03000000
02000000
03000000
,
00020000
00030000
00002000
00003000
,
00020000
00030000
00000000
00000000
,
00002000
00003000
00002000
00003000
,
00000020
00000030
00000020
00000030
,
00000002
00000003
00002000
00003000
,
00000002
00000003
00000100
00000010
,
00010000
00000000
00000000
00000000
;

//--------------- dance-double - M. Emirzian ----------------
#NOTES:
     dance-double:
     M. Emirzian:
     Medium:
     7:
     0.375455,0.383989,0.119463,0.076798,0.0128,308,294,14,9,3,0,0.375455,0.383989,0.119463,0.076798,0.0128,308,294,14,9,3,0:
00000000
00000000
00000000
00000000
,
00000000
00000000
00000000
00000000
,
10000000
00000000
00100000
00000000
01000000
00001000
00010000
00000010
,
00000000
00000000
00010000
00000000
00001000
00000000
00000000
00100000
00000000
00000000
00001000
00000000
00010000
00000000
00000000
00000000
,
00000010
00000000
00000100
00000000
00001000
00010000
00000010
00010000
,
00000000
00000000
00001000
00000000
01000000
00000000
00000000
00001000
00000000
00000000
00010000
00000000
00100000
00000000
00000000
00000000
,
10000000
00000000
01000000
00000000
00010000
01000000
00100000
00001000
,
00000000
00000000
00010000
00000000
00000010
00000000
00000000
00000100
00000000
00000000
00000001
00000000
00000010
00000000
00000000
00000000
,
00000100
00000000
00010000
00000000
00001000
01000000
00001000
00010000
,
00000000
01000000
10000000
00100000
10010000
00000000
00011000
00000000
,
00000010
00000001
00000100
00000010
00001000
00000100
00000010
00000000
,
00000001
00000100
00001000
00010000
00001000
00100000
00010000
00000000
,
00100000
01000000
10000000
00100000
01000000
00010000
00100000
00000000
,
01000000
00010000
00001000
01000000
00001000
00010000
00011000
00000000
,
00000100
00000001
00000010
00000100
00001000
00000010
00000100
00000000
,
00000001
00000010
00000100
00010000
00001000
01000000
00010000
00000000
,
00100000
00010000
01000000
00100000
10000000
01000000
00100000
00000000
,
00010000
01000000
00001000
00010000
00000100
00000010
00000001
00000000
,
00001002
00000000
00000010
00000000
00001000
00001000
00001003
00000000
,
00020100
00000000
00001000
00000000
00100000
00100000
00130000
00000000
,
10020000
00000000
00100000
00000000
01000000
01000000
01030000
00100000
,
10000000
00000000
00100000
01000000
00001000
00010000
00000100
00000000
,
00010020
00000000
00001000
00000000
00010000
00010000
00010030
00000000
,
00021000
00000000
00000010
00000000
00000100
00000100
00030100
00000000
,
00102000
00000000
00000010
00000000
00010000
00010000
00013000
01000000
,
10000000
00000000
10000000
01000000
00100000
00001000
00010000
00000010
,
00000100
00000020
00000000
00001030
,
000001M0
00020000
00000000
00031000
,
010M0000
00200000
00000000
10300000
,
01M00000
00000000
00010000
00000000
00001000
00010000
00000010
00000000
,
00000100
00000001
00000010
00000100
,
00010000
00001000
01000000
00010000
,
00100000
01000000
10000000
00100000
,
00010000
00000000
00001000
00000000
00000010
00000001
00000100
00000010
,
00001000
00000100
00000010
00000001
00000100
00000010
00001000
00000010
,
00010000
00001000
00010000
00001000
01000000
00010000
10010000
00000000
,
00100000
10000000
01000000
10000000
00100000
01000000
00010000
00100000
,
01000000
10000000
00010000
00100000
00001000
00010000
00010100
00000000
,
00000010
00000001
00000100
00000010
00001000
00000100
00000010
00000100
,
00001000
00000010
00010000
00001000
00010000
00001000
01001000
00000000
,
00001000
00010000
01000000
10000000
00100000
01000000
00010000
10000000
,
00000000
01000000
00100000
00001000
00010000
00000100
00000010
00000000
,
00000100
00001000
00000010
00000100
00000001
00000010
00000100
00000000
,
00001000
00000010
00010000
00001000
00100000
00001000
01000000
00000000
,
00010000
00100000
01000000
10000000
00100000
01000000
00010000
00000000
,
10000000
01000000
00100000
00001000
00010000
00000010
00011000
00000000
,
00001000
00000010
00000100
00001000
00000010
00000100
00000001
00000000
,
00000100
00001000
00010000
01000000
10000000
01000000
00100000
00000000
,
00010000
01000000
00001000
00010000
00000100
00001000
00000010
00000000
,
00000100
00000001
00000010
00000100
00010000
00001000
01000000
00010000
,
10010000
00000000
00000000
00000000
;

//--------------- dance-double - M. Emirzian ----------------
#NOTES:
     dance-double:
     M. Emirzian:
     Hard:
     9:
     0.593658,0.619808,0.341323,0.153595,0.580249,487,447,40,18,47,6,0.593658,0.619808,0.341323,0.153595,0.580249,487,447,40,18,47,6:
00000000
00000000
00000000
00000000
,
00000000
00000000
00000000
00000000
,
10000000
00000000
00010000
00000000
01000000
00000000
00100000
10000000
00000000
01000000
00100000
00000000
00010000
01000000
00100000
00000000
,
10000000
00000000
01000000
00000000
00100000
00000000
00001000
00010000
00000000
00000010
00001000
00000000
00001001
00000000
00000110
00000000
,
00001100
00000000
0000MM01
00000000
00000100
00000000
00000010
00001000
00000000
00000100
00000010
00000000
00000001
00000100
00000010
00000000
,
00001000
00000000
00000100
00000000
00010000
00000000
00100000
10000000
00000000
01000000
00100000
00000000
10010000
00000000
01100000
00000000
,
11000000
00000000
1M000000
00000000
01000000
00000000
00100000
00010000
00000000
10000000
01000000
00000000
00100000
00001000
00010000
00000000
,
00000100
00000000
00000010
00000000
00000001
00000000
00000100
00000010
00000000
00001000
00000100
00000000
00000110
00000000
00001001
00000000
,
00000110
00000000
00000M10
00000000
00000100
00000000
00001000
00000010
00000000
00010000
00001000
00000000
01000000
00100000
10000000
00000000
,
10010000
00000000
01000000
00000000
00100000
00010000
01000000
00100000
10000000
00000000
01000000
00000000
00110000
00000000
00101000
00000000
,
00100000
00000000
00001000
00000000
00010000
00000000
00000100
00000010
00000000
00000001
00000100
00000010
00001000
00000000
00000101
00000000
,
00000010
00000000
00001000
00000000
00000100
00000000
00000010
00000001
00000000
00000100
00000010
00010000
00001000
00000000
00101000
00000000
,
01000000
00000000
00100000
00000000
10000000
00000000
01000000
00100000
00000000
00010000
01000000
00100000
10000000
00000000
01010000
00000000
,
00100000
00000000
00000000
00000000
10000000
00000000
00000000
00000000
01000000
00000000
00000000
00000000
00100000
00000000
00001000
00000000
00000000
00000000
00010000
00000000
00000100
00000000
00000010
00000000
00000110
00000000
00000000
00000MM0
00001000
00000000
00000000
00000000
,
00000001
00000000
00000100
00000000
00000010
00000000
00001000
00000100
00000000
00000010
00000001
00000100
00000010
00000000
00010010
00000000
,
00001000
00000000
00000100
00000000
00010000
00000000
00001000
01000000
00000000
00100000
10000000
01000000
00100000
00000000
11000000
00000000
,
00100000
00000000
01000000
00000000
00010000
00000000
00100000
01000000
00000000
10000000
00100000
01000000
00001000
00000000
00010000
00000010
,
00000100
00000000
00000001
00000000
00000010
00000000
00000100
00000000
00000010
00000000
00000001
00000000
00000100
00000000
00000010
00000000
00001000
00000000
00000100
00000000
00000010
00000000
00000001
00000000
00001001
00000000
00000000
0000M00M
00000100
00000000
00000000
00000000
,
00000100
00000000
00000100
00001000
00010000
00M0M000
00010000
00000000
00010000
00100000
10000000
0MMM0000
10000000
00000000
10000000
00000000
,
01000000
00000000
01000000
00010000
00001000
000M0M00
00001000
00000000
00001000
00000100
00000001
0000MMM0
00000001
00000000
00000001
00000000
,
00000010
00000000
00000010
00001000
00010000
00M0M000
00010000
00000000
00010000
00100000
10000000
0MMM0000
10000000
00000000
10000000
00000000
,
01000000
00000000
00010000
00001000
00000100
00000000
00000100
00000000
00000001
00000010
00000100
00001000
00000001
00000000
00000000
00000000
,
00000010
00000000
00000010
00000001
00000100
0000M0MM
00000100
00000000
00000100
00001000
00010000
00M0M000
00010000
00000000
00010000
00000000
,
00100000
00000000
10000000
00100000
00010000
00M0M000
00010000
00000000
00010000
00001000
00000100
0000M00M
00000100
00000000
00000100
00000000
,
00000001
00000000
00000001
00000010
00001000
000M0M00
00001000
00000000
00001000
00010000
00100000
MM0M0000
00100000
00000000
00100000
00000000
,
00010000
00000000
00001000
00000100
00000001
00000000
00000010
00000000
00001100
00000000
00000010
00000000
00000101
00000000
00000110
00000000
,
00001001
00000000
00000200
00000000
00000320
00000M00
00020000
00000000
,
00001000
00030030
00000000
00000000
00200000
00000000
00000000
00000000
20300000
00000000
00M00000
00000000
02000000
00000000
00000000
00000000
,
00010000
33000000
00000000
00000000
00020000
00000000
00000000
00000000
00032000
00000000
000M0000
00000000
00000200
00000000
00000000
00000000
,
00000001
00003300
00000000
00000000
00000001
00000000
00000010
00000000
00000100
00000000
00010000
00000000
00001000
00000000
00000000
00000000
,
00000020
00000000
00000000
00000000
00002030
00000000
000000M0
00000000
00020000
00000000
00000000
00000000
01000000
00033000
00000000
00000000
,
02000000
00000000
00000000
00000000
23000000
00000000
0M000000
00000000
00200000
00000000
00000000
00000000
00010000
30300000
00000000
00000000
,
02000000
00000000
00000000
00000000
03002000
00000000
0M000000
00000000
00200000
00000000
00000000
00000000
01000000
00303000
00000000
00000000
,
01000000
00000000
00000000
00000000
10000000
00000000
10000000
00000000
10000000
00000000
10000000
00000000
01000000
00100000
00001000
00010000
,
00000010
00000000
00000100
00000000
00000001
00000000
00000010
00000100
00000000
00001000
00000001
00000100
00000010
00000000
00001000
00000000
,
00000100
00000000
00000010
00000001
00000000
00000100
00000010
00010000
00000000
00001000
01000000
00000000
01100000
00000000
10010000
00000000
,
00100000
00000000
01000000
00000000
00010000
00000000
00100000
01000000
00000000
10000000
00100000
01000000
00010000
00000000
10000000
00000000
,
01000000
00000000
00100000
00001000
00000000
00010000
00000100
00000010
00000000
00000001
00000100
00000000
00000110
00000000
00001001
00000000
,
00000100
00000000
00000010
00000000
00000001
00000000
00000100
00000010
00000000
00001000
00000100
00000010
00000001
00000000
00000100
00000000
,
00000010
00000000
00010000
00001000
00000000
01000000
00100000
10000000
00000000
01000000
00100000
00000000
10010000
00000000
01100000
00000000
,
00100000
00000000
10000000
00000000
00010000
00000000
00100000
01000000
00000000
00100000
00001000
00010000
00000010
00000000
00000100
00000000
,
00000001
00000000
00000010
00000000
00000100
00001000
00000010
00000100
00000001
00000000
00000110
00000000
00001001
00000000
0000M10M
00000000
,
00000010
00000000
00000001
00000000
00000100
00000000
00000010
00001000
00000000
00000100
00010000
00001000
01000000
00000000
00110000
00000000
,
01000000
00000000
10000000
00000000
00100000
00000000
01000000
00010000
00000000
00100000
01000000
10000000
00100000
00000000
10010000
00000000
,
01000000
00000000
00001000
00000000
00100000
00000000
00001000
00010000
00000000
00000010
00001000
00000100
00000010
00000000
00000011
00000000
,
00000100
00000000
00001000
00000000
00000001
00000000
00000100
00000010
00000000
00010000
00001000
00100000
00110000
00000000
10010000
00000000
,
01000000
00000000
00100000
00000000
00010000
00000000
10000000
00100000
00000000
10000000
01000000
00100000
00001000
00000000
00101000
00000000
,
00010000
00000000
00000100
00000000
00001000
00000000
00000010
00001000
00000000
00000100
00010000
00000010
00000100
00000000
00001001
00000000
,
00000010
00000000
00001000
00000000
00000100
00000000
00000010
00000001
00000000
00000100
00000010
00000000
00000110
00000000
00001000
00000001
,
00000100
00000010
00000100
00000001
00001000
00000100
00010000
00001000
00100000
01000000
00100000
00010000
01000000
00100000
10000000
00010000
,
10010000
00000000
00000000
M00M0000
00000000
00000000
00000000
00000000
00000000
00000000
00000000
00000000
00000000
00000000
00000000
00000000
00000000
00000000
00000000
00000000
00000000
00000000
00000000
00000000
00000000
00000000
00000000
00000000
00000000
00000000
00000000
00000000
;

//--------------- dance-double - M. Emirzian ----------------
#NOTES:
     dance-double:
     M. Emirzian:
     Challenge:
     10:
     0.710684,0.661314,0.657047,0.068265,0.703979,583,506,77,8,12,4,0.710684,0.661314,0.657047,0.068265,0.703979,583,506,77,8,12,4:
00000000
00000000
00000000
00000000
,
00000000
00000000
00000000
00000000
,
00000010
00010000
00001000
00010000
01000000
00000000
10000000
00100000
00000000
01000000
00010000
00000000
00100000
01000000
10000000
00000000
,
00110000
00000000
01000000
00100000
00000000
00010000
00001000
00000100
00000000
00001000
00010000
00000000
00110000
00000000
00011000
00000000
,
00001000
00000000
00000010
00000100
00000000
00000010
00000001
00000100
00000000
00000010
00000100
00000000
00001000
00010000
00100000
00000000
,
00010000
00001000
01000000
00000000
00110000
00000000
01000000
10000000
00000000
01000000
00010000
00000000
00011000
00000000
00001100
00000000
,
00000001
00000010
00000100
00001000
00000010
00000000
00000100
00000001
00000000
00000100
00001000
00000000
00010000
00001000
00000100
00000000
,
00011000
00000000
00010000
00001000
00000000
01000000
00100000
01000000
00000000
00010000
00100000
00000000
11000000
00000000
01010000
00000000
,
00001000
00010000
00100000
00010000
00001000
00000000
00010000
00000100
00000000
00000010
00000100
00000000
00001000
00000010
00000100
00000000
,
00001001
00000000
00000110
00000000
00000001
00000010
00000100
00001000
00000010
00000000
00001100
00000000
00011000
00000000
00000100
00000000
,
00001000
00010000
00100000
00000000
00010000
00001000
01000000
00100000
00000000
01000000
00010000
00000000
00110000
00000000
01001000
00000000
,
00100000
01000000
10000000
00000000
01000000
00010000
00001000
00000100
00000000
00000010
00001000
00000000
00000101
00000000
00001100
00000000
,
00000010
00001000
00000100
00000000
00000010
00000100
00010000
00100000
00000000
01000000
00010000
00000000
10100000
00000000
00110000
00000000
,
00001000
00100000
01000000
00000000
00100000
00001000
00010000
00000010
00000000
00000100
00000001
00000000
00001100
00000000
00011000
00000000
,
00001000
00000100
00000010
00000000
00010000
00100000
01000000
00001000
00000000
01000000
00100000
00000000
11000000
00000000
01010000
00000000
,
00100000
01000000
10000000
00000000
01000000
00100000
00001000
00000010
00000000
00000100
00010000
00000000
00001100
00000000
00000011
00000000
,
00000100
00000010
00000001
00000000
00000010
00000100
00010000
00100000
00000000
01000000
00001000
00000000
00110000
00000000
01100000
00000000
,
10000000
00100000
01000000
00100000
10000000
01000000
00100000
00001000
00000100
00000010
00000100
00000001
00000010
00000100
00010000
00001000
,
00011000
00000000
00000100
00001000
00010M00
00000000
00100000
00010000
00M01000
00000000
01000000
00000000
00110000
00000000
01001000
00000000
,
00100000
00000000
01000000
00010000
0M001000
00000000
00000100
00001000
00010M00
00000000
00000010
00000000
00011000
00000000
00110000
00000000
,
10000000
00000000
01000000
00100000
0M001000
00000000
00010000
00000010
000M0100
00000000
00000001
00000000
00000110
00000000
00001100
00000000
,
00000010
00000000
00010000
00001000
001M0000
00000000
00001000
00010000
0000M010
00000000
00000100
00000000
00001100
00000000
00011000
00000000
,
00100000
00000000
00010000
00001000
000M0100
00000000
00001000
00010000
0100M000
00000000
00100000
00000000
11000000
00000000
01010000
00000000
,
00001000
00000000
00000100
00000010
00001M00
00000000
00100000
01000000
00M10000
00000000
00100000
00000000
01010000
00000000
00011000
00000000
,
00000010
00000000
00010000
00000100
00000010
00000001
00000010
00000000
00000100
00001000
00000010
00000100
00000001
00000000
00000100
00000000
,
00001000
00010000
00001000
00000000
00010000
01000000
10000000
01000000
11000000
00000000
00100000
00000000
01010000
00000000
00100000
00000000
,
20010000
00000000
00000000
00000000
00020000
00000000
00000000
00000000
01100000
30030000
00000000
00000000
00100000
00000000
00001000
00000000
,
00020000
00000000
00000000
00000000
00000020
00000000
00000000
00000000
00001100
00030030
00000000
00000000
00001000
00000000
00000100
00000000
,
00000020
00000000
00000000
00000000
00000002
00000000
00000000
00000000
00001100
00000033
00000000
00000000
00000100
00000000
00000010
00000000
,
00020000
00000000
00000000
00000000
00200000
00000000
00000000
00000000
01001000
00330000
00000000
00000000
01000000
00000000
00010000
00000000
,
00100000
00000000
01000000
10000000
00100000
00000000
01000000
00000000
00010000
00000000
00100000
00000000
01000000
00000000
10000000
00000000
,
00000000
00000000
01000000
00000000
00100000
00000000
00001000
00010000
00000010
00000000
00001000
00000000
00000100
00000000
00000010
00000000
,
00001001
00000000
00000100
00000000
00001000
00000000
00000001
00000100
00001000
00000000
00000100
00000010
00001000
00000000
00010010
00000000
,
00000100
00010000
00001000
00000000
01000000
00100000
00010000
00000000
00100000
01000000
00001000
00000000
01000000
00100000
10000000
01000000
,
00100000
00000000
10100000
00000000
00110000
00000000
01000000
00001000
00000000
00010000
00001000
00000000
00000100
00001000
00010000
00000000
,
00000010
00001000
00000100
00000010
00000001
00000000
00000100
00000010
00000000
00010000
00001000
00000000
00001100
00000000
00011000
00000000
,
00000100
00010000
00001000
00010000
00100000
00000000
10000000
01000000
00000000
00100000
00001000
00000000
00010000
01000000
10000000
00000000
,
01000000
00100000
00001000
00010000
00000100
00000000
00000010
00000100
00000000
00001000
00000001
00000000
00001100
00000000
00011000
00000000
,
00010000
00100000
01000000
00010000
00100000
00000000
01000000
10000000
00000000
01000000
00100000
00000000
00001000
00010000
00000010
00000000
,
00010000
00100000
01000000
00001000
00010000
00000000
00000010
00000100
00000000
00000001
00000100
00000000
00001100
00000000
00011000
00000000
,
00001000
01000000
00100000
10000000
01000000
00000000
00100000
01000000
00000000
00100000
00001000
00000000
00010000
00001000
00000100
00000000
,
00001100
00000000
00000101
00000000
00000010
00001000
00000100
00000010
00000001
00000000
00001100
00000000
00011000
00000000
00110000
00000000
,
01000000
00010000
00100000
00000000
01000000
10000000
00100000
01000000
00000000
00010000
00100000
00000000
00011000
00000000
00001010
00000000
,
00000100
00001000
00000010
00000000
00001000
00000100
00000010
00000001
00000000
00000100
00000010
00000000
00001010
00000000
00011000
00000000
,
00000100
00001000
00010000
00000000
00001000
01000000
00100000
10000000
00000000
01000000
00100000
00000000
01010000
00000000
00011000
00000000
,
00100000
01000000
00001000
00000000
00010000
00000100
00000010
00000001
00000000
00000100
00000010
00000000
00001010
00000000
00000011
00000000
,
00000100
00001000
00010000
00000000
00000010
00010000
00100000
01000000
00000000
00001000
00010000
00000000
01010000
00000000
11000000
00000000
,
00100000
00010000
00001000
00000000
00010000
00100000
01000000
00100000
00000000
01000000
00001000
00000000
00110000
00000000
00011000
00000000
,
00001000
00000100
00000010
00000000
00000100
00000001
00000010
00000100
00000000
00001000
00000001
00000000
00001100
00000000
00011000
00000000
,
01000000
00100000
10000000
01000000
00100000
01000000
00010000
00000010
00001000
00000001
00000100
00000010
00010000
01000000
10000000
00100000
,
01010000
00000000
00000000
00000000
;

//--------------- lights-cabinet - ----------------
#NOTES:
     lights-cabinet:
     :
     Easy:
     1:
     0.820395,1.066635,1.023969,0,0.482119,673,460,120,0,0,47,0.820395,1.066635,1.023969,0,0.482119,673,460,120,0,0,47:
000000
000000
000000
000000
,
000000
000000
000000
000000
,
000100
000000
100000
000000
001000
000000
010000
000000
100000
000000
001000
000000
000100
000000
100000
000100
,
100000
001000
001000
010000
000100
000100
101000
000100
,
100000
000000
001000
000000
001000
000000
010000
000000
001000
000000
100000
000000
000100
000000
100000
000100
,
100000
001000
010000
000100
100000
100100
111100
000000
,
000100
010000
000100
000000
010000
000000
000100
000000
010000
001000
100000
000000
100000
000000
000100
100000
,
000100
010000
001000
000000
100000
000000
000100
100000
000100
010000
001000
000000
010000
000000
011000
000000
,
100100
000000
010000
000000
001000
000000
010000
001000
100000
000100
100000
000000
001000
000000
100000
000100
,
100000
000011
100111
000000
011000
100111
111111
000000
,
100000
000100
100000
000000
001000
100000
000100
010000
000000
000100
010000
000000
001000
000000
100000
000000
,
000100
100000
001000
000000
010000
000100
010000
001000
000000
100000
000100
000000
110000
000000
001100
000000
,
010000
001000
100000
000000
000100
010000
001000
100000
000000
000100
010000
000000
001100
000000
110000
000000
,
000100
010000
001000
000000
100000
000100
100000
001000
000000
010000
000100
000000
011000
000000
100100
000000
,
100000
000100
010000
000000
001000
010000
000100
100000
000000
000100
100000
000000
011000
000000
110000
000000
,
000100
010000
001000
000000
100000
000100
100000
001000
000000
010000
000100
000000
110000
000000
001100
000000
,
100000
001000
010000
000000
000100
100000
001000
010000
000000
000100
100000
000000
001100
000000
110000
000000
,
010000
000100
010011
000000
001011
100000
000100
010000
000000
001000
100011
000000
010111
000000
000000
000000
,
100100
010000
001011
000100
001000
010000
100011
000000
,
100100
010000
001011
000100
001000
010000
100011
000000
,
100100
001000
010011
100000
010000
001000
100111
000000
,
100100
001000
010011
100000
010011
001011
100111
000000
,
111100
010000
001011
111100
001000
010000
111111
000000
,
111100
010000
001011
111100
001000
010000
111111
000000
,
111100
001000
010011
111100
010000
001000
111111
000000
,
111100
001000
010011
100000
111111
000011
111111
000000
,
100100
000000
000100
000000
001000
010000
100100
000000
,
111100
000000
100000
000000
010000
100000
000100
010000
,
101000
010100
101000
000000
010100
000000
101000
000000
,
101000
101000
010100
010100
101000
000000
111100
000000
,
100000
001000
100000
000000
001000
000000
100000
000100
010000
001000
010000
000000
000100
000000
100000
000000
,
000100
010000
001000
000000
100000
000000
000100
100000
000100
010000
001000
000000
010000
000000
011000
000000
,
100100
000000
010000
000000
001000
000000
010000
001000
100000
000100
100000
000000
001000
000000
100000
000100
,
100000
001000
000000
000000
001000
000000
010000
000000
100100
000000
011000
000000
100100
000000
011000
000000
,
101000
000100
110000
100000
001100
100000
010100
000100
101000
000100
110000
100000
001100
100000
010100
000100
,
010100
001000
110000
010000
001100
010000
101000
001000
100100
001000
110000
100000
001100
100000
011000
100000
,
001100
010000
100100
000100
011000
000100
110000
010000
001100
100000
010100
000100
100000
001000
100000
100000
,
000100
010000
001000
100000
000100
010000
001000
100000
011000
000000
100100
000000
111100
000000
000000
000000
,
100000
000100
001000
010000
000000
100000
001000
100000
000100
010000
001000
000100
100000
010000
000100
010000
,
000000
000100
010000
000100
100000
001000
010000
001000
000100
010000
001000
010000
110000
000000
001100
000000
,
100000
001000
010000
001000
100000
001000
010000
000100
100000
010000
001000
100000
001000
100000
000100
001000
,
111100
000000
011011
000000
110011
000000
001100
000000
111100
000000
111111
000000
111111
000000
000000
100000
,
000100
000000
000100
001000
000100
000000
100000
000000
100000
000000
000100
000000
000100
000000
010000
000000
,
001000
000000
000100
100000
000100
000000
010000
000000
010000
000000
000100
000000
001000
000000
000000
000000
,
100000
000000
000100
100000
000100
000000
100000
000000
001000
000000
100000
000000
010000
000000
100000
000000
,
001000
000000
010000
100000
010000
000000
001000
000000
000100
000000
100000
000000
100100
000000
000000
000000
,
000100
000000
100000
001000
100000
000000
100000
000000
100000
000000
000100
000000
100000
000000
000000
000000
,
001000
000000
001000
010000
000100
000000
100000
000000
101000
000000
010000
000000
000100
000000
000100
000000
,
010000
000000
001000
010000
001000
000000
100000
000000
010000
000000
100000
000000
100100
000000
100000
000000
,
010000
000000
000011
000000
001111
000000
100000
000000
100000
010000
001011
010000
100011
000000
011000
000000
,
111100
000000
000000
000000
;
