#TITLE:Why Me;
#SUBTITLE:;
#ARTIST:Desire;
#TITLETRANSLIT:;
#SUBTITLETRANSLIT:;
#ARTISTTRANSLIT:;
#GENRE:;
#CREDIT:;
#MUSIC:Why Me.ogg;
#BANNER:Why Me.png;
#BACKGROUND:Why Me-bg.png;
#CDTITLE:;
#SAMPLESTART:53.893;
#SAMPLELENGTH:13.960;
#SELECTABLE:YES;
#OFFSET:-1.184;
#BPMS:0.000=126.110;
#STOPS:;
#BGCHANGES:;
#FGCHANGES:;

//--------------- dance-single - K. Ward ----------------
#NOTES:
     dance-single:
     K. Ward:
     Beginner:
     1:
     0.063115,0.100984,0,0,0,56,56,0,0,0,0,0.063115,0.100984,0,0,0,56,56,0,0,0,0:
0000
0000
0000
0000
,
0000
0000
0000
0000
,
0000
0000
0000
0000
,
0000
0000
0000
0000
,
0100
0000
0000
0000
,
0010
0000
0000
0000
,
1000
0000
0000
0000
,
0001
0000
0000
0000
,
1000
0000
0000
0000
,
0000
0000
0000
0000
,
0001
0000
0000
0000
,
0000
0000
0000
0000
,
1000
0000
0000
0000
,
0100
0000
0000
0000
,
0010
0000
0000
0000
,
0100
0000
0000
0000
,
0001
0000
0000
0000
,
1000
0000
0000
0000
,
0100
0000
0000
0000
,
1000
0000
0000
0000
,
0001
0000
0000
0000
,
0010
0000
0000
0000
,
0010
0000
0000
0000
,
0100
0000
0000
0000
,
0001
0000
0000
0000
,
0001
0000
0000
0000
,
0100
0000
0000
0000
,
0001
0000
0000
0000
,
1000
0000
0000
0000
,
0100
0000
0000
0000
,
1000
0000
0000
0000
,
0001
0000
0000
0000
,
0001
0000
0000
0000
,
1000
0000
0000
0000
,
1000
0000
0000
0000
,
0001
0000
0000
0000
,
0100
0000
0000
0000
,
0000
0000
0000
0000
,
0001
0000
0000
0000
,
0000
0000
0000
0000
,
1000
0000
0000
0000
,
0000
0000
0000
0000
,
1000
0000
0000
0000
,
0000
0000
0000
0000
,
0001
0000
0000
0000
,
1000
0000
0000
0000
,
0010
0000
0000
0000
,
0100
0000
0000
0000
,
0001
0000
0000
0000
,
1000
0000
0000
0000
,
0010
0000
0000
0000
,
0100
0000
0000
0000
,
0001
0000
0000
0000
,
1000
0000
0000
0000
,
0010
0000
0000
0000
,
0001
0000
0000
0000
,
0100
0000
0000
0000
,
1000
0000
0000
0000
,
1000
0000
0000
0000
,
0001
0000
0000
0000
,
0010
0000
0000
0000
,
0001
0000
0000
0000
,
0100
0000
0000
0000
,
0001
0000
0000
0010
,
1000
0000
0000
0000
;

//--------------- dance-single - K. Ward ----------------
#NOTES:
     dance-single:
     K. Ward:
     Easy:
     3:
     0.155533,0.201968,0.055226,0,0,138,131,7,0,0,0,0.155533,0.201968,0.055226,0,0,138,131,7,0,0,0:
0000
0000
0000
0000
,
0000
0000
0000
0000
,
0000
0000
0000
0000
,
0000
0000
0000
0000
,
1000
1000
1000
0000
,
0001
0001
0001
0000
,
1000
1000
0010
0000
,
0100
0100
0001
0000
,
1001
0000
0000
0000
,
1100
0000
0000
0000
,
0011
0000
0000
0000
,
1001
0000
0000
0000
,
1000
0000
0100
0000
,
0100
0000
0010
0000
,
0010
0000
0100
0000
,
0100
0000
1000
1000
,
0001
0000
0001
0000
,
1000
0000
1000
0000
,
0100
0000
0100
0000
,
1000
1000
0000
0000
,
0001
0010
0001
0000
,
0010
0100
0010
0000
,
0100
1000
0100
0000
,
1000
0000
0001
0001
,
0100
0000
0001
0001
,
1000
0000
0100
0100
,
0010
0000
0100
0000
,
1001
0000
0000
0000
,
0100
0000
0100
0000
,
0010
0000
0010
0000
,
1000
0000
1000
0000
,
0001
0000
0010
0010
,
0001
0000
0100
0000
,
0010
0000
1000
1000
,
0100
0000
0010
0000
,
0100
0100
0100
0000
,
0001
0000
0000
0000
,
1000
0000
0000
0000
,
0010
0000
0000
0000
,
0100
0000
0000
0000
,
1000
0000
0000
0000
,
0001
0000
0000
0000
,
0010
0000
0000
0000
,
0001
0000
1001
0000
,
0100
0100
0000
0000
,
0010
0010
0000
0000
,
1000
1000
0000
0000
,
0001
0001
0000
0000
,
0100
0100
0100
0000
,
0010
0010
0010
0000
,
1000
1000
1000
0000
,
0001
0001
0000
0000
,
0100
0000
0010
0000
,
1000
0000
0010
0000
,
0100
0000
0010
0000
,
1000
1000
1000
0001
,
0010
0000
0001
0000
,
0010
0000
0100
0000
,
0010
0000
0001
0000
,
1000
0000
0001
0001
,
0100
0000
0100
0000
,
0010
0000
0010
0000
,
1000
1000
1000
0000
,
0001
0001
0001
0000
,
1001
0000
0000
0000
;

//--------------- dance-single - K. Ward ----------------
#NOTES:
     dance-single:
     K. Ward:
     Medium:
     5:
     0.22541,0.277705,0.110451,0.015779,0,200,186,14,2,0,0,0.22541,0.277705,0.110451,0.015779,0,200,186,14,2,0,0:
0000
0000
0000
0000
,
0000
0000
0000
0000
,
0000
0000
0000
0000
,
0000
0000
0000
0000
,
1000
0001
0100
0000
,
1000
0001
0010
0000
,
0100
0001
1000
0000
,
0100
0001
1000
0000
,
1001
0000
0000
0000
,
1100
0000
0000
0000
,
1010
0000
0000
0000
,
1100
0000
0000
0000
,
0001
0100
1000
0010
,
0100
0001
1000
0000
,
0100
0000
1000
0000
0100
0000
1000
0001
,
0000
0000
1000
0001
,
1000
0100
1000
0010
,
0001
0000
1000
0001
1000
0000
0000
0000
,
0100
1000
0100
1000
,
0001
0000
0000
0000
,
1000
0001
0100
1000
,
0010
0100
0001
0001
,
1000
0010
1000
0100
,
1000
0000
0010
0010
,
1000
0001
1000
0100
,
1000
0000
1000
0010
1000
0000
1000
0000
,
0001
0001
0001
0100
,
1100
0000
0000
0000
,
0001
1000
0010
0000
,
0001
1000
0100
0000
,
0010
0001
1000
0100
,
1000
1000
0100
0010
,
0001
1000
0001
0001
,
0100
0010
1000
1000
,
0001
0000
1000
0000
1000
0100
1000
0100
,
0000
1000
0100
1000
,
1001
0000
0000
0000
,
0101
0000
0000
0000
,
1100
0000
0000
0000
,
0011
0000
0100
0010
,
1001
0000
0000
0000
,
0101
0000
0000
0000
,
1001
0000
0000
0000
,
1001
0000
0000
0000
,
0001
1000
0100
0001
,
0100
0010
1000
0000
,
0001
0000
0100
0000
1000
0000
0001
1000
,
0000
0000
0010
0100
,
0001
1000
0100
1000
,
0010
1000
0010
0100
,
0010
1000
1000
0100
,
0010
0000
0000
0000
,
1000
0010
0100
0001
,
1000
0001
0010
0001
,
1000
0100
0010
0001
,
1000
0000
0010
0010
,
1000
0001
1000
1000
,
0100
1000
1000
0001
,
0100
0010
1000
0001
,
0100
0000
0010
0010
,
0100
0001
0010
0002
,
2003
0001
3001
0000
,
1000
0100
1000
0010
,
0100
0100
0010
0010
,
1001
0000
0000
0000
;

//--------------- dance-single - K. Ward ----------------
#NOTES:
     dance-single:
     K. Ward:
     Hard:
     8:
     0.325718,0.328197,0.015779,0.094672,0.023668,289,287,2,12,0,0,0.325718,0.328197,0.015779,0.094672,0.023668,289,287,2,12,0,0:
0000
0000
0000
0000
,
0000
0000
0000
0000
,
0000
0000
0000
0000
,
0000
0000
0000
0000
,
1000
0000
0001
0000
0100
0010
0100
0000
,
0001
0000
0010
0000
1000
0001
1000
0000
,
0001
0000
0100
0000
0010
0100
0001
0000
,
0001
0100
0010
0000
1000
0100
0010
0000
,
0002
0010
0010
0013
,
2000
0100
0100
3100
,
0020
1000
1000
1030
,
1100
1001
0000
0000
,
0100
0010
1000
0001
,
0010
0100
0010
0001
2000
0000
0000
0000
,
3010
0000
0100
0000
0001
0010
0001
0100
,
0010
1000
2000
0000
,
3100
1000
0100
0001
,
0010
0100
0010
0001
2000
0000
0000
0000
,
3010
0000
0100
0000
0010
1000
0100
0010
,
0002
0000
0003
0000
,
1000
0000
1000
0000
0001
0010
0001
0100
,
0010
1000
1000
0200
,
0000
0000
0310
0000
0001
0100
0010
1000
,
0001
0000
0001
0000
1000
0010
0100
0000
,
0001
0000
0010
0000
0001
0100
0010
0000
,
0100
0010
1000
0010
0100
0001
1000
0000
,
0001
0100
0010
1000
,
0200
0000
0000
0000
,
0310
0000
1000
0000
0100
1000
0100
0000
,
1000
0000
0010
0000
0100
0001
0100
0000
,
0010
0000
1000
0000
0100
0010
0100
0000
,
1000
0001
0100
0000
0010
0100
0001
0000
,
1000
0000
0010
0000
0100
0001
1000
0000
,
0100
0000
0010
0000
0001
0100
0001
0000
,
0100
0000
0010
0000
1000
0001
1000
0000
,
0010
1000
0001
0000
0100
0010
1000
0000
,
0100
0000
0000
0000
0100
0000
0000
0000
0100
0000
0000
0010
0000
0000
0001
0000
,
1000
0000
0000
0000
0010
0000
0000
0000
1000
0000
0000
0001
0000
0000
0010
0000
,
0001
0000
0000
0000
0100
0000
0000
0000
0010
0000
0000
0100
0000
0000
0001
0000
,
1000
0000
1000
0000
0001
0010
0001
0000
,
1000
0000
0000
0000
0010
0000
0000
0000
0100
0000
0000
0010
0000
0000
1000
0000
,
0001
0000
0000
0000
0010
0000
0000
0000
0001
0000
0000
0100
0000
0000
0010
0000
,
1000
0000
0000
0000
1000
0000
0000
0000
0001
0000
0000
0100
0000
0000
0010
0000
,
1000
1000
0002
0000
,
0103
0010
1000
0100
,
1000
0010
0100
0001
0100
0000
0010
0000
,
0010
0000
1000
0000
0010
0100
0010
1000
,
0001
0001
0200
0000
,
0310
1000
0010
0100
,
0001
0010
0001
0100
0001
0000
0100
0000
,
0010
0000
1000
0000
0010
0000
1000
0001
,
0200
0000
0310
0000
,
0010
0000
1000
0000
0001
1000
0001
0000
,
0010
0000
0001
0000
0100
0010
0100
0000
,
0001
0010
0001
0000
1000
0100
1000
0000
,
0010
0000
0100
0000
0001
0010
0001
0000
,
1000
0000
0100
0000
1000
0010
0100
0000
,
0001
0000
0100
0000
0010
0100
0001
0000
,
0100
0000
0010
0000
1000
0100
1000
0010
,
0100
0000
0100
0000
0100
0010
1000
0000
,
0010
0000
1000
0000
0100
1000
0010
0000
,
0100
0000
0001
0000
0010
0001
0100
0010
,
1000
0000
0010
0000
0100
0001
0010
0000
,
0001
0000
0100
0000
0010
1000
0100
1000
,
0001
0000
0000
0000
;

//--------------- dance-single - K. Ward ----------------
#NOTES:
     dance-single:
     K. Ward:
     Challenge:
     12:
     0.5083,0.555411,0.220902,0.165677,0.157787,451,423,28,21,20,0,0.5083,0.555411,0.220902,0.165677,0.157787,451,423,28,21,20,0:
0000
0000
0000
0000
,
0000
0000
0000
0000
,
0000
0000
0000
0000
,
0000
0000
0000
0000
,
1000
0100
0010
0001
1000
0100
0010
0001
,
0010
0001
0100
1000
0100
0001
0100
0001
,
0010
0100
0010
0100
1000
0010
0001
0010
,
0100
0000
0001
0100
1100
0000
0100
0010
,
0021
0001
0100
0031
,
0002
0010
0100
0013
,
0200
1000
0010
1300
,
1001
0001
M00M
0MM0
0000
0011
0000
1100
,
0010
0100
0011
0000
0100
1000
1100
0000
,
0010
0100
1001
0000
0100
0010
0011
0000
,
1000
0100
0010
0001
0001
0010
0100
1000
,
1000
0000
0010
0001
0010
0100
0100
1000
,
0200
0310
0002
0013
,
1000
1000
0100
0010
0200
0000
0310
00M0
,
0001
0100
2000
0000
3100
0001
0020
0000
,
0130
0010
0001
1000
2000
0100
3100
M000
,
0001
0010
0000
0000
0100
1000
0000
0000
0010
0100
0000
0000
0001
0010
0000
0000
,
0001
1000
0000
0000
1000
0001
0000
0000
0010
0001
0000
0000
0100
0000
1000
0000
,
0200
0301
0020
0130
,
0010
0000
0001
0000
0100
0000
1000
0000
0100
0000
0001
0000
0010
0000
0100
0010
,
0002
0013
0200
1300
,
0010
0100
0000
0000
0010
0001
0000
0000
0010
0000
0100
0000
1000
0000
0100
0000
,
0001
0010
0001
0010
0100
0001
0010
0001
,
2000
0100
0010
3001
,
1000
0100
1000
0000
0010
0000
0001
0000
0010
0000
0100
0000
0001
0000
0010
0000
,
0001
0010
0001
0000
0100
0000
1000
0000
0100
0000
0010
0000
0100
0000
0001
0000
,
0010
0100
0010
0000
0100
0000
1000
0000
0100
0010
0100
0000
0010
0000
0001
0000
,
1000
1000
0001
0001
0100
0100
0110
0000
,
1000
0010
0100
0000
0001
0000
0010
0000
0001
0000
0100
0000
1001
0000
0000
0000
,
0010
0100
0010
0000
0001
0000
0010
0000
0100
0000
0010
0000
1100
0000
0000
0000
,
0010
0001
0100
1000
0100
0001
0010
0011
,
0000
0000
00MM
0000
1000
0100
0000
0000
0100
0010
0000
0000
0010
0001
0000
0000
,
2000
0000
0010
0100
0010
0100
3010
M0M0
,
0002
0000
0010
0100
0010
0100
0013
00MM
,
1000
1000
0100
0001
0100
1000
0010
0100
,
0002
0000
1003
0000
0011
0110
0011
0000
,
1000
0100
1000
0000
0100
0000
0010
0000
0100
0000
0100
0010
0000
0010
0001
0000
,
0100
0010
0100
0000
0001
0000
0001
0000
0010
0000
0010
0100
0000
0100
1000
0000
,
1000
0010
0001
0010
1000
0001
0010
0100
,
0010
0100
0010
0000
0001
0010
0001
0000
0100
0000
1001
0000
0000
0000
MMMM
0000
,
0001
0001
0010
0100
1000
1000
0100
0010
,
0001
0001
0100
1000
0100
0001
0010
0001
,
1000
1000
0100
0010
0100
0100
0010
0001
,
1000
1000
0010
0010
0100
0001
0011
0000
,
0200
1300
0200
0301
,
0020
0000
0130
0000
0200
1000
1300
0100
,
0010
0001
0010
0100
1000
0100
0010
0001
,
0010
0000
0000
0000
0100
0000
0000
0000
1001
0000
1100
0000
0000
MMMM
0000
0000
,
0001
0100
0010
0000
0100
0000
1000
0000
0100
0000
0001
0000
0010
0000
0001
0000
,
1000
0100
0010
0000
0100
0000
1000
0000
0010
0000
0100
0000
1000
0000
0100
0000
,
0001
0001
0010
0100
1000
1000
0001
0010
,
0100
0000
0010
0000
0001
0000
0100
0000
1000
0100
0010
0000
0100
0001
0010
0000
,
0100
0000
0100
0000
0100
0000
0000
0000
0010
0000
0000
1100
0000
0000
0011
0000
,
0100
0000
0100
0000
0100
0000
0000
0000
0011
0000
0000
1100
0000
0000
0010
0000
,
0100
0000
0100
0000
0100
0000
0000
0000
1100
0000
0000
0011
0000
0000
1100
0000
,
0010
0000
0010
0000
0010
0000
0000
0000
0010
0100
0010
0000
1000
0100
1000
0000
,
0001
0000
0001
0000
0001
0000
0000
0000
0010
0000
0000
0100
1000
0000
0010
0000
,
0100
0000
0100
0000
0100
0000
0000
0000
0001
0000
0000
0010
0001
0000
0100
0000
,
1000
0000
0100
0000
0001
0000
0010
0000
0100
0010
0100
0000
0010
0000
0001
0000
,
0100
0100
1000
1000
0100
0100
0010
0100
,
1001
0000
0000
0000
;

//--------------- dance-double - M. Emirzian ----------------
#NOTES:
     dance-double:
     M. Emirzian:
     Easy:
     1:
     0.063115,0.101773,0,0.007889,0,56,56,0,1,0,0,0.063115,0.101773,0,0.007889,0,56,56,0,1,0,0:
00000000
00000000
00000000
00000000
,
00000000
00000000
00000000
00000000
,
00000000
00000000
00000000
00000000
,
00000000
00000000
00000000
00000000
,
01000000
00000000
00000000
00000000
,
00100000
00000000
00000000
00000000
,
00001000
00000000
00000000
00000000
,
00010000
00000000
00000000
00000000
,
00001000
00000000
00000000
00000000
,
00000000
00000000
00000000
00000000
,
00000001
00000000
00000000
00000000
,
00000000
00000000
00000000
00000000
,
10000000
00000000
00000000
00000000
,
01000000
00000000
00000000
00000000
,
00100000
00000000
00000000
00000000
,
00000100
00000000
00000000
00000000
,
00000001
00000000
00000000
00000000
,
00001000
00000000
00000000
00000000
,
01000000
00000000
00000000
00000000
,
10000000
00000000
00000000
00000000
,
00010000
00000000
00000000
00000000
,
00100000
00000000
00000000
00000000
,
00000010
00000000
00000000
00000000
,
00000100
00000000
00000000
00000000
,
00000001
00000000
00000000
00000000
,
00010000
00000000
00000000
00000000
,
01000000
00000000
00000000
00000000
,
00010000
00000000
00000000
00000000
,
00001000
00000000
00000000
00000000
,
01000000
00000000
00000000
00000000
,
00001000
00000000
00000000
00000000
,
00000001
00000000
00000000
00000000
,
00010000
00000000
00000000
00000000
,
10000000
00000000
00000000
00000000
,
00001000
00000000
00000000
00000000
,
00010000
00000000
00000000
00000000
,
00000100
00000000
00000000
00000000
,
00000000
00000000
00000000
00000000
,
00010000
00000000
00000000
00000000
,
00000000
00000000
00000000
00000000
,
00001000
00000000
00000000
00000000
,
00000000
00000000
00000000
00000000
,
10000000
00000000
00000000
00000000
,
00000000
00000000
00000000
00000000
,
00000001
00000000
00000000
00000000
,
00001000
00000000
00000000
00000000
,
00000010
00000000
00000000
00000000
,
01000000
00000000
00000000
00000000
,
00010000
00000000
00000000
00000000
,
10000000
00000000
00000000
00000000
,
00100000
00000000
00000000
00000000
,
00000100
00000000
00000000
00000000
,
00000001
00000000
00000000
00000000
,
00001000
00000000
00000000
00000000
,
00000010
00000000
00000000
00000000
,
00010000
00000000
00000000
00000000
,
01000000
00000000
00000000
00000000
,
10000000
00000000
00000000
00000000
,
00001000
00000000
00000000
00000000
,
00010000
00000000
00000000
00000000
,
00000010
00000000
00000000
00000000
,
00000001
00000000
00000000
00000000
,
00000100
00000000
00000000
00000000
,
00010000
00000000
00000000
00100000
,
20000000
00000000
30000000
00000000
;

//--------------- dance-double - M. Emirzian ----------------
#NOTES:
     dance-double:
     M. Emirzian:
     Medium:
     3:
     0.203996,0.254432,0.110451,0.205123,0,181,167,14,26,0,0,0.203996,0.254432,0.110451,0.205123,0,181,167,14,26,0,0:
00000000
00000000
00000000
00000000
,
00000000
00000000
00000000
00000000
,
00000000
00000000
00000000
00000000
,
00000000
00000000
00000000
00000000
,
10000000
00010000
01000000
00000000
,
00001000
00010000
00000010
00000000
,
00000100
00000001
00001000
00000000
,
00000100
00010000
00001000
00000000
,
00022000
00000000
00033000
00000000
,
02002000
00000000
03003000
00000000
,
20200000
00000000
30300000
00000000
,
02002000
00000000
03003000
00000000
,
00010000
00000100
00001000
00000010
,
00000100
00000001
00001000
00000000
,
00000100
00001000
00000100
00010000
,
00001000
00000000
00000000
00000000
,
00001000
01000000
00001000
00100000
,
00010000
10000000
00010000
00000000
,
01000000
00001000
01000000
00010000
,
00100000
00000000
00000000
00000000
,
00001000
00010000
00000100
00001000
,
00000010
00000100
00000001
00000000
,
00001000
00000010
00001000
00000100
,
00001000
00000001
00000100
00000000
,
00000010
00010000
00001000
01000000
,
00010000
10000000
01000000
00100000
,
00000000
00010000
00010000
01000000
,
01001000
00000000
00000000
00000000
,
00010000
00001000
00000010
00000000
,
00000001
00001000
00000100
00000000
,
00000010
00000001
00001000
00000100
,
00010000
00001000
01000000
00000000
,
00100000
10000000
00010000
00000000
,
01000000
00100000
10000000
00000000
,
00010000
01000000
00001000
00010000
,
00000010
00001000
00000100
00000000
,
00002002
00000000
00003003
00000000
,
00020200
00000000
00030300
00000000
,
02002000
00000000
03003000
00000000
,
00220000
00000000
00330000
00000000
,
20020000
00000000
30030000
00000000
,
00020200
00000000
00030300
00000000
,
00002002
00000000
00003003
00000000
,
00022000
00000000
00033000
00000000
,
00010000
00001000
01000000
00010000
,
01000000
00100000
10000000
00000000
,
00010000
01000000
00001000
00010000
,
00001000
00000000
00000010
00000000
,
00000001
00001000
00000100
00000010
,
00000100
00001000
00000010
00000100
,
00000010
00010000
00001000
01000000
,
00100000
00000000
00000000
00000000
,
10000000
00100000
01000000
00000000
,
00001000
00010000
00000010
00000000
,
00001000
00000100
00000010
00000001
,
00001000
00000010
00000100
00000000
,
00000010
00010000
00001000
00000000
,
01000000
00010000
10000000
00000000
,
01000000
00100000
00001000
00010000
,
00000100
00001000
00000010
00000000
,
00000100
00000001
00000010
00000000
,
00000100
00001000
00000001
00000000
,
00001000
00000100
00010000
00001000
,
01000000
01000000
00100000
00100000
,
20020000
00000000
30030000
00000000
;

//--------------- dance-double - M. Emirzian ----------------
#NOTES:
     dance-double:
     M. Emirzian:
     Hard:
     6:
     0.334734,0.356205,0.007889,0.142008,0.019723,297,296,1,18,0,0,0.334734,0.356205,0.007889,0.142008,0.019723,297,296,1,18,0,0:
00000000
00000000
00000000
00000000
,
00000000
00000000
00000000
00000000
,
00000000
00000000
00000000
00000000
,
00000000
00000000
00000000
00000000
,
10000000
00000000
00010000
00000000
01000000
00100000
10000000
00000000
,
00010000
00000000
00100000
00000000
00001000
00010000
00000010
00000000
,
00010000
00000000
00000100
00000000
00001000
00000010
00000100
00000000
,
00000001
00000100
00000010
00000000
00001000
00000100
00000010
00000000
,
00000002
00000100
00000100
00000103
,
00002000
00010000
00010000
00013000
,
02000000
10000000
10000000
13000000
,
00010000
00000000
00010000
00000000
00000000
01000000
00000000
01000000
,
01000000
00100000
10000000
00010000
,
00100000
01000000
00100000
00010000
20000000
00000000
00100000
00000000
,
30100000
00000000
00010000
00000000
00001000
00010000
00000010
00001000
,
00000010
00000100
00000002
00000100
,
00000103
00001000
00000100
00000001
,
00000010
00000100
00000010
00000100
00020000
00000000
00001000
00000000
,
00031000
00000000
01000000
00000000
00100000
10000000
01000000
00100000
,
00002000
00010000
00000000
00010000
,
00013000
00000000
00001000
00000000
00010000
00000010
00001000
00000010
,
00000100
00000001
00001000
00000200
,
00000000
00000000
00000310
00000000
00000001
00000100
00000010
00010000
,
00001000
00000000
00010000
00000000
00001000
01000000
00010000
00000000
,
10000000
00000000
00100000
00000000
01000000
00010000
10000000
00000000
,
01000000
00100000
00010000
00100000
01000000
00010000
00001000
00000000
,
00010000
00000100
00001000
00000001
,
00000200
00000000
00000000
00000000
,
00000310
00000000
00001000
00000000
00000100
00010000
00001000
00000000
,
00010000
00000000
00001000
00000000
01000000
00010000
10000000
00000000
,
00100000
00000000
10000000
00000000
01000000
00100000
00010000
00000000
,
10000000
00010000
01000000
00000000
00100000
01000000
00001000
00000000
,
00010000
00000000
00000010
00000000
00001000
00000001
00000010
00000000
,
00000100
00000000
00000010
00000000
00000001
00000100
00000010
00000000
,
00000100
00000000
00000010
00000000
00010000
00001000
01000000
00000000
,
00100000
10000000
00010000
00000000
01000000
00100000
10000000
00000000
,
01000000
00000000
00000000
00000000
01000000
00000000
00000000
00000000
01000000
00000000
00000000
00100000
00000000
00000000
00020000
00000000
,
00000000
00000000
00100000
00000000
00130000
00000000
00000000
00000000
00001000
00000000
00000000
00010000
00000000
00000000
00000020
00000000
,
00000000
00000000
00001000
00000000
00001030
00000000
00000000
00000000
00000100
00000000
00000000
00000010
00000000
00000000
00000002
00000000
,
00000000
00000000
00000100
00000000
00000103
00000000
00000000
00000000
00000010
00000000
00000000
00001000
00000000
00000000
00000100
00000000
,
00010000
00000000
00000000
00000000
00001000
00000000
00000000
00000000
01000000
00000000
00000000
00010000
00000000
00000000
10000000
00000000
,
00100000
10000000
00010000
00110000
,
00100000
00000000
00001000
00000000
00010000
00000000
00000100
00001000
,
00000010
00000100
00000002
00000000
,
00000103
00000010
00001000
00000100
,
00010000
00001000
01000000
00010000
01000000
00000000
00200000
00000000
,
10000000
00000000
10300000
00000000
00100000
01000000
00100000
01000000
,
00001000
00010000
00000200
00000010
,
00000310
00000001
00000100
00000010
,
00001000
00000100
00010000
00001000
00020000
00000000
00100000
00000000
,
00130000
00000000
10000000
00000000
00010000
01000000
00100000
10000000
,
02000000
00000000
00000000
00000000
,
03100000
00000000
00001000
00000000
00010000
00001000
00010000
00000000
,
00000010
00000000
00001000
00000000
00000001
00000100
00000010
00000000
,
00001000
00000010
00000100
00000000
00000010
00001000
00000100
00000000
,
00010000
00001000
01000000
00000000
00010000
00000000
01000000
00000000
,
00100000
00000000
10000000
00000000
01000000
00100000
00010000
00000000
,
00100000
00000000
00001000
00000000
00010000
00000010
00001000
00000000
,
00000100
00000000
00001000
00000000
00000010
00000100
00000001
00000000
,
00001000
00000100
00000010
00000000
00000001
00000100
00000010
00000000
,
00010000
00000000
00001000
00000000
01000000
00100000
10000000
00000000
,
00100000
00000000
10000000
00000000
01000000
00100000
00001000
00010000
,
00000010
00000000
00000100
00000001
00000010
00000100
00001000
00000000
,
00000001
00000000
00000100
00000010
00010000
00001000
01000000
00100000
,
20000000
00000000
30000000
00000000
;

//--------------- dance-double - J. Casarino ----------------
#NOTES:
     dance-double:
     J. Casarino:
     Challenge:
     9:
     0.564653,0.530165,0.213013,0.086783,0.142008,501,474,27,11,6,3,0.564653,0.530165,0.213013,0.086783,0.142008,501,474,27,11,6,3:
00000000
00000000
00000000
00000000
,
00000000
00000000
00000000
00000000
,
00000000
00000000
00000000
00000000
,
00000000
00000000
00000000
00000000
,
00010000
00000010
00001000
00000001
00010000
00000100
00001000
00000001
,
00010000
00000100
00001000
00000010
00010000
00001000
01000000
00010000
,
10000000
00100000
01000000
00010000
00100000
00001000
10000000
00010000
,
10000000
00001000
01000000
00100000
10000000
01000000
00100000
00010000
,
00210000
00000000
00001000
00000000
00000010
00000000
00301000
00M0M000
,
01002000
00000000
00000100
00000000
00010000
00000000
00103000
00M0M000
,
00010020
00000000
00000001
00000000
00000100
00000000
00001030
0000M0M0
,
00010200
00000000
00000001
00000000
00001000
00000000
01000300
01000000
,
01000100
00001000
00010000
00001000
01000000
00010000
00100000
10000000
,
10100000
00100000
00010000
01000000
00100000
00010000
00001000
00000010
,
00001010
00001000
00010000
00000100
00001000
00000001
00000100
00001000
,
00001100
00000100
00000010
00010000
00001000
00100000
00110000
00000000
,
10010000
01000000
00100000
01000000
00010000
00001000
00010000
00000100
,
00001001
00000100
00000010
00000100
00000001
00000010
00001000
00010000
,
00010100
00001000
01000000
00100000
00010000
00100000
01000000
00001000
,
00110000
10000000
00010000
00100000
00001000
00000010
00000110
00000000
,
00001000
00000000
00000001
00000100
00000001
00000000
00000010
00000000
00001000
00000000
00010000
00000000
00001000
00000000
01000000
00000000
,
00010000
00000000
10000000
00100000
10000000
00000000
01000000
00000000
00010000
00000000
00001000
00000000
00000100
00000000
00001000
00000000
,
00010000
00000000
00001000
00100000
00001000
00000000
01000000
00000000
00010000
00000000
00100000
00000000
00000010
00000000
00001000
00000000
,
00000100
00000000
00010000
00000010
00010000
00000000
00001000
00000000
00000100
00000000
00000100
00000000
00000100
00000000
00000100
00000000
,
00001000
00000000
00010000
00001000
00100000
00000000
00010000
00000000
01000000
00000000
00100000
00000000
10000000
00000000
00010000
00000000
,
01000000
00000000
00001000
00010000
00000010
00000000
00001000
00000000
00000001
00000000
00000010
00000000
00001000
00000000
00010000
00000000
,
00000001
00000000
00001000
00000010
00000100
00000000
00001000
00000000
00010000
00000000
01000000
00000000
00010000
00000000
00001000
00000000
,
00022000
00000000
00000000
00000000
00133010
00000000
00011000
00010100
,
00001000
00000000
00000010
00000000
00000100
00000000
00000001
00000000
00001000
00000010
00000100
00000000
00000010
00000000
00001000
00000000
,
00000100
00000000
00010000
00000000
00001000
00000000
01000000
00000000
00010000
00100000
01000000
00000000
10000000
00000000
00010000
00000000
,
10000000
00000000
00100000
00000000
01000000
00000000
00010000
00000000
10000000
01000000
00100000
00000000
10000000
00000000
00100000
00000000
,
00001000
00000000
00010000
00000000
00000010
00000000
00010000
00000000
00000100
00001000
00000010
00000000
00010010
00000000
00011000
00000000
,
01000000
00000000
00001000
00000000
01000000
00000000
00010000
00000000
01000000
00100000
01000000
00000000
10000000
00000000
01000000
00000000
,
00100000
00000000
00010000
00000000
00001000
00000000
00000100
00000000
00000010
00000001
00000010
00000000
00000100
00000000
00000010
00000000
,
00001000
00000000
00000010
00000000
00010000
00000000
00000010
00000000
00100000
00001000
00010000
00000000
00000100
00000000
00010000
00000000
,
00001000
01000000
00100000
01000000
10000000
00010000
00100000
01000000
,
20000000
00100000
00001000
31000000
,
10000000
01000000
00100000
00010000
01000000
00100000
00010000
00001000
,
00020000
00100000
00000010
00030100
,
00010000
00000010
00001000
00000001
00000100
00000010
00010000
00000100
,
00020000
00100000
00000100
00030010
,
00000100
00001000
00000001
00000010
00001000
00010000
01000000
10000000
,
02020000
00000000
00001000
13031000
,
01100000
00000000
10010000
00000000
00011000
00000000
00000000
00010000
,
10000000
10000000
00100000
00100000
00010000
00010000
00001000
00001000
,
10000000
00100000
00010000
00001000
10000000
01000000
00010000
00001000
,
00010000
00010000
00001000
00001000
00000100
00000100
00000001
00000001
,
00010000
00001000
00000100
00000001
00010000
00001000
00000010
00000001
,
00000100
00000100
00001000
00001000
00010000
00010000
01000000
01000000
,
10000000
00001000
00010000
01000000
10000000
00010000
00100000
10000000
,
00100000
00100000
00001000
00001000
00010000
00010000
00000010
00000010
,
00001000
00000100
00000001
00001000
00000010
00000100
00000110
00000000
,
00000010
00000000
00001000
00000000
00000001
00000000
00000010
00000000
00000100
00010000
00001000
00000000
00010000
00001000
01000000
00000000
,
00010000
00000000
00100000
00000000
01000000
00000000
10000000
00000000
00100000
01000000
00010000
00000000
01000000
00010000
00100000
00000000
,
00001000
00000000
00010000
00000000
01000000
00000000
00010000
00000000
00001000
00010000
00000100
00000000
00010000
00000100
00001000
00000000
,
00000010
00000000
00000001
00000000
00000010
00000000
00001000
00000000
00000100
00010000
00001000
00000000
00010000
00001000
00100000
00000000
,
00010000
00000000
10000000
00000000
00001000
00000000
00010000
00000000
00000100
00001000
00000010
00000000
00001000
00000100
00000010
00000000
,
00000001
00000000
00010000
00000000
00001000
00000000
00100000
00000000
00010000
01000000
00100000
00000000
01000000
00010000
00100000
00000000
,
01000000
00000000
00010000
00000000
00000010
00000000
00001000
00000000
00000001
00000100
00000010
00000000
00000100
00000001
00000010
00000000
,
00001000
00000000
01000000
00000000
00010000
00000000
10000000
00000000
00100000
10000000
01000000
00000000
10000000
00100000
01000000
00000000
,
10000000
00000000
01000000
00000000
00010000
00000000
00100000
00000000
01000000
10000000
01000000
00000000
01000000
00100000
01000000
00000000
,
00100000
00000000
00001000
00000000
00010000
00000000
00000100
00000000
00000010
00000001
00000010
00000000
00000010
00000100
00000010
00000000
,
00000001
00000000
00001000
00000000
00000010
00000000
00010000
00000000
00001000
00100000
00001000
00000000
00001000
00010000
00001000
00000000
,
00000100
00000010
00010000
00001000
01000000
00100000
10000000
00010000
,
01100000
00000000
00000000
00000000
;

//--------------- lights-cabinet - ----------------
#NOTES:
     lights-cabinet:
     :
     Easy:
     1:
     0.336988,0.378689,0.055226,0.031557,0.023668,299,286,7,4,0,3,0.336988,0.378689,0.055226,0.031557,0.023668,299,286,7,4,0,3:
00000000
00000000
00000000
00000000
,
00000000
00000000
00000000
00000000
,
00000000
00000000
00000000
00000000
,
00000000
00000000
00000000
00000000
,
10000000
00000000
00010000
00000000
01000000
00100000
01000000
00000000
,
00010000
00000000
00100000
00000000
10000000
00010000
10000000
00000000
,
00010000
00000000
01000000
00000000
00100000
01000000
00010000
00000000
,
00010000
01000000
00100000
00000000
10000000
01000000
00100000
00000000
,
00010000
00100000
00100000
00100000
,
10000000
01000000
01000000
01000000
,
00100000
10000000
10000000
10000000
,
11000000
10010000
00000000
00000000
,
01000000
00100000
10000000
00010000
,
00100000
01000000
00100000
00010000
10000000
00000000
00000000
00000000
,
00100000
00000000
01000000
00000000
00010000
00100000
00010000
01000000
,
00100000
10000000
10000000
00000000
,
01000000
10000000
01000000
00010000
,
00100000
01000000
00100000
00010000
10000000
00000000
00000000
00000000
,
00100000
00000000
01000000
00000000
00100000
10000000
01000000
00100000
,
00010000
00000000
00000000
00000000
,
10000000
00000000
10000000
00000000
00010000
00100000
00010000
01000000
,
00100000
10000000
10000000
01000000
,
00000000
00000000
00100000
00000000
00010000
01000000
00100000
10000000
,
00010000
00000000
00010000
00000000
10000000
00100000
01000000
00000000
,
00010000
00000000
00100000
00000000
00010000
01000000
00100000
00000000
,
01000000
00100000
10000000
00100000
01000000
00010000
10000000
00000000
,
00010000
01000000
00100000
10000000
,
22220000
00000000
33330000
00000000
,
00100000
00000000
10000000
00000000
01000000
10000000
01000000
00000000
,
10000000
00000000
00100000
00000000
01000000
00010000
01000000
00000000
,
00100000
00000000
10000000
00000000
01000000
00100000
01000000
00000000
,
10000000
00010000
01000000
00000000
00100000
01000000
00010000
00000000
,
10000000
00000000
00100000
00000000
01000000
00010000
10000000
00000000
,
01000000
00000000
00100000
00000000
00010000
01000000
00010000
00000000
,
01000000
00000000
00100000
00000000
10000000
00010000
10000000
00000000
,
00100000
10000000
00010000
00000000
01000000
00100000
10000000
00000000
,
01000000
00000000
00000000
00000000
01000000
00000000
00000000
00000000
01000000
00000000
00000000
00100000
00000000
00000000
00010000
00000000
,
10000000
00000000
00000000
00000000
00100000
00000000
00000000
00000000
10000000
00000000
00000000
00010000
00000000
00000000
00100000
00000000
,
00010000
00000000
00000000
00000000
01000000
00000000
00000000
00000000
00100000
00000000
00000000
01000000
00000000
00000000
00010000
00000000
,
10000000
00000000
10000000
00000000
00010000
00100000
00010000
00000000
,
10000000
00000000
00000000
00000000
00100000
00000000
00000000
00000000
01000000
00000000
00000000
00100000
00000000
00000000
10000000
00000000
,
00010000
00000000
00000000
00000000
00100000
00000000
00000000
00000000
00010000
00000000
00000000
01000000
00000000
00000000
00100000
00000000
,
10000000
00000000
00000000
00000000
10000000
00000000
00000000
00000000
00010000
00000000
00000000
01000000
00000000
00000000
00100000
00000000
,
10000000
01100000
11110000
00000000
,
01000000
00100000
10000000
01000000
,
10000000
00100000
01000000
00010000
01000000
00000000
00100000
00000000
,
00100000
00000000
10000000
00000000
00100000
01000000
00100000
10000000
,
00010000
00010000
01000000
00000000
,
00100000
10000000
00100000
01000000
,
00010000
00100000
00010000
01000000
00010000
00000000
01000000
00000000
,
00100000
00000000
10000000
00000000
00100000
00000000
10000000
00010000
,
01000000
00000000
00100000
00000000
,
00100000
00000000
10000000
00000000
00010000
10000000
00010000
00000000
,
00100000
00000000
00010000
00000000
01000000
00100000
01000000
00000000
,
00010000
00100000
00010000
00000000
10000000
01000000
10000000
00000000
,
00100000
00000000
01000000
00000000
00010000
00100000
00010000
00000000
,
10000000
00000000
01000000
00000000
10000000
00100000
01000000
00000000
,
00010000
00000000
01000000
00000000
00100000
01000000
00010000
00000000
,
01000000
00000000
00100000
00000000
10000000
01000000
10000000
00100000
,
01000000
00000000
01000000
00000000
01000000
00100000
10000000
00000000
,
00100000
00000000
10000000
00000000
01000000
10000000
00100000
00000000
,
01000000
00000000
00010000
00000000
00100000
00010000
01000000
00100000
,
10000000
00000000
00100000
00000000
01000000
00010000
00100000
00000000
,
00010000
00000000
01000000
00000000
00100000
10000000
01100000
00000000
,
11110000
00000000
00000000
00000000
;
