#TITLE:While Tha Rekkid Spinz;
#SUBTITLE:;
#ARTIST:DJ Zombie;
#TITLETRANSLIT:;
#SUBTITLETRANSLIT:;
#ARTISTTRANSLIT:;
#GENRE:;
#CREDIT:;
#MUSIC:While Tha Rekkid Spinz.ogg;
#BANNER:While Tha Rekkid Spinz.png;
#BACKGROUND:While Tha Rekkid Spinz-bg.png;
#CDTITLE:;
#SAMPLESTART:76.970;
#SAMPLELENGTH:15.400;
#SELECTABLE:YES;
#OFFSET:-1.597;
#BPMS:0.000=140.087;
#STOPS:;
#DISPLAYBPM:140.000;
#BGCHANGES:;
#FGCHANGES:;

//--------------- dance-single - K. Ward ----------------
#NOTES:
     dance-single:
     K. Ward:
     Beginner:
     2:
     0.101557,0.142077,0.033065,0,0,86,82,4,0,0,0,0.101557,0.142077,0.033065,0,0,86,82,4,0,0,0:
0000
0000
0000
0000
,
0000
0000
0000
0000
,
0000
0000
0000
0000
,
0000
0000
0000
0000
,
0000
0000
0000
0000
,
1000
0000
0000
0000
,
0010
0000
0000
0000
,
1001
0000
0000
0000
,
0010
0000
0000
0000
,
1000
0000
0000
0000
,
1000
0000
0000
0000
,
1000
0000
0000
0000
,
0010
0000
0000
0000
,
1000
0000
0000
0000
,
1000
0000
0000
0000
,
1000
0000
0001
0000
,
1000
0000
0000
0000
,
0001
0000
0000
0000
,
0001
0000
0000
0000
,
0010
0000
0001
0000
,
1000
0000
0000
0000
,
0001
0000
0000
0000
,
1000
0000
0000
0000
,
0001
0000
0000
0000
,
1000
0000
0000
0000
,
1000
0000
0000
0000
,
0001
0000
0000
0000
,
0001
0000
0000
0000
,
1000
0000
1000
0000
,
1000
0000
0000
0000
,
0001
0000
0001
0000
,
0001
0000
0000
0000
,
1000
0000
0000
0000
,
1000
0000
0001
0000
,
1000
0000
0000
0000
,
0001
0000
0010
0000
,
0001
0000
0000
0000
,
1000
0000
0001
0000
,
1000
0000
0000
0000
,
0001
0000
1000
0000
,
0010
0000
0000
0000
,
0100
0000
0000
0000
,
0001
0000
1000
0000
,
0001
0000
0000
0000
,
1001
0000
0000
0000
,
1000
0000
0000
0000
,
0001
0000
0000
0000
,
1000
0000
0000
0000
,
0001
0000
0001
0000
,
0100
0000
0010
0000
,
1000
0000
0000
0000
,
0001
0000
0100
0000
,
0010
0000
0000
0000
,
1000
0000
0000
0000
,
0001
0000
0000
0000
,
0001
0000
0000
0000
,
1000
0000
0000
0000
,
1001
0000
0000
0000
,
0001
0000
0000
0000
,
1000
0000
0000
0000
,
0001
0000
0000
0000
,
0010
0000
0010
0000
,
0010
0000
0000
0000
,
0001
0000
0001
0000
,
0001
0000
0000
0000
,
0010
0000
0001
0000
,
1000
0000
0010
0000
,
1000
0000
1000
0000
,
0001
0000
0000
1001
;

//--------------- dance-single - K. Ward ----------------
#NOTES:
     dance-single:
     K. Ward:
     Easy:
     3:
     0.15706,0.198908,0.057864,0,0,133,126,7,0,0,0,0.15706,0.198908,0.057864,0,0,133,126,7,0,0,0:
0000
0000
0000
0000
,
0000
0000
0000
0000
,
0000
0000
0000
0000
,
0000
0000
0000
0000
,
0001
0000
1000
0000
,
0001
0000
1000
0000
,
0010
0000
0010
0000
,
0100
0000
0000
0000
,
0010
0000
0010
0000
,
0100
0000
0100
0000
,
1000
0000
1000
0000
,
1000
0000
0001
0000
,
1000
0000
0001
0000
,
1000
0000
0001
0000
,
0100
0000
0001
0000
,
0100
0000
0000
0000
,
0001
0000
0000
0000
,
0010
0000
0000
0000
,
0001
0000
0000
0000
,
1000
0000
0001
1000
,
0100
0000
0000
0000
,
1000
0000
0000
0000
,
0010
0000
0000
0000
,
0100
0000
0000
0000
,
0001
0001
0000
0000
,
1000
1000
0000
0000
,
0010
0010
0000
0000
,
0100
0100
0000
0000
,
0000
0001
0000
0100
,
0000
0010
0000
1000
,
0000
0100
0000
1000
,
0001
0000
0000
0000
,
1001
0000
0000
0000
,
1001
0000
0000
0000
,
1001
0000
0000
0000
,
1000
0000
0001
0000
,
0110
0000
0000
0000
,
0110
0000
0000
0000
,
0110
0000
0000
0000
,
1000
0000
1000
0010
,
1000
0000
0000
0000
,
0001
0000
0000
0000
,
1000
0000
0001
0000
,
0100
0100
0100
0100
,
0001
0000
0000
0000
,
0100
0100
0100
0100
,
0100
0000
0100
0000
,
0001
0001
0001
0001
,
0001
0000
1000
0000
,
0100
0100
0100
0100
,
0100
0000
0100
0000
,
0010
0010
0010
0010
,
0010
0000
1000
0010
,
0000
1000
0000
0001
,
0000
0100
0000
0100
,
0000
0010
0000
1000
,
0000
0010
0010
0000
,
0001
1000
0000
0000
,
0010
0100
0000
0000
,
0001
1000
0000
0000
,
0001
1000
0000
0000
,
0010
0000
0010
0000
,
1000
0000
1000
0000
,
0010
0000
0010
0000
,
0100
0100
0100
0000
,
0010
0000
0010
0000
,
0100
0000
0100
0000
,
0010
0000
0010
0000
,
1000
0001
0000
1001
;

//--------------- dance-single - K. Ward ----------------
#NOTES:
     dance-single:
     K. Ward:
     Medium:
     7:
     0.322386,0.369401,0.173592,0.074397,0,273,252,21,9,0,0,0.322386,0.369401,0.173592,0.074397,0,273,252,21,9,0,0:
0000
0000
0000
0000
,
0000
0000
0000
0000
,
0000
0000
0000
0000
,
0000
0000
0000
0000
,
2000
3010
1000
0001
,
0002
0103
0001
1000
,
0001
0100
0010
1000
,
2002
0000
0000
3003
,
1000
0001
0100
0010
,
1000
0000
0001
0000
1000
0000
0001
1000
,
0010
1000
0010
1000
,
0001
0000
1000
0000
0010
0010
0100
0000
,
1001
0001
0100
0010
,
1000
0000
0001
0000
0100
0000
0001
1000
,
0010
0010
0100
0001
,
1000
0000
0000
1001
,
1000
1000
0010
0010
,
1000
0000
1000
0000
0010
0010
0010
0000
,
1000
0000
1000
0000
1000
0000
1000
0001
,
1000
0000
0010
1000
,
0001
0001
0100
0100
,
0001
0000
0001
0000
0100
0100
0100
0000
,
0001
0000
0001
0000
0001
0000
0001
1000
,
0001
0000
0100
0001
,
1000
1001
0010
1001
,
0010
0000
0100
0000
0001
1000
0001
0000
,
0001
1001
0100
1001
,
0100
0000
1000
0000
0001
1000
0001
0000
,
1000
1001
0010
1001
,
0010
0000
0010
0000
0010
1000
0001
0000
,
0001
1001
1000
1001
,
0220
0000
0000
0330
,
0001
0000
1000
0000
0010
0100
0010
0000
,
1000
0000
1000
0000
0001
1000
0001
0000
,
0100
0000
0100
0000
0010
1000
0001
0000
,
2000
0000
3002
0000
,
1003
0000
0010
0000
1000
0001
0100
0000
,
0001
0000
1000
0000
1000
0001
0100
0000
,
0001
0000
1000
0000
0010
0100
0001
0000
,
0001
0001
0100
0010
,
0100
0000
0010
0000
,
0100
0000
0010
0000
,
1000
0100
0010
0001
,
1000
1000
0001
0001
,
0200
0000
0000
0300
,
0010
0000
1000
0000
0001
0100
0001
0000
,
1000
1000
0010
0010
,
0100
0000
0100
0000
0001
1000
0001
0000
,
1000
0001
0100
0010
,
0010
0000
1000
0000
0001
0100
0001
0000
,
1000
0010
0100
0001
,
1000
0000
0001
0000
1000
0010
1000
0000
,
0001
1000
0001
0100
,
0001
1001
1000
1001
,
1000
0000
0001
0000
0100
0001
1000
0000
,
1000
1001
0010
1001
,
0100
0000
0001
0000
1000
0001
1000
0000
,
0001
1001
1000
1001
,
0100
0000
0010
0000
0100
0001
1000
0000
,
0001
0000
0100
0000
0010
1000
0001
0000
,
1000
1000
0001
0000
,
0000
1000
0000
0000
0000
0001
0000
0000
,
0000
0100
0000
0000
0000
0001
0100
0001
,
0000
1000
0000
0000
0000
0010
0000
0000
,
0000
1000
0000
0000
0010
0000
1000
0000
,
0000
0001
0000
0000
0000
0100
0000
0000
,
0000
0010
0000
0000
0100
0000
1001
0000
,
0000
1000
0000
0000
0000
0001
0000
0000
,
0110
0000
0000
1001
;

//--------------- dance-single - K. Ward ----------------
#NOTES:
     dance-single:
     K. Ward:
     Hard:
     11:
     0.499521,0.511478,0.388516,0.082663,0.090929,423,376,47,10,0,0,0.499521,0.511478,0.388516,0.082663,0.090929,423,376,47,10,0,0:
0000
0000
0000
0000
,
0000
0000
0000
0000
,
0000
0000
0000
0000
,
0000
0000
0000
0000
,
1000
0001
0100
0001
,
0010
0000
0000
0000
0001
0000
0000
0000
1000
0000
0000
0000
0010
0000
0000
1000
,
0100
1000
0010
1000
,
2002
0000
3003
0000
1000
0010
0110
0000
,
1000
0001
0100
0001
0010
0001
0100
0001
,
1000
0000
0010
0000
0100
0000
0001
0000
1000
0000
0001
0000
0010
0000
0000
0001
,
0010
0001
1000
0100
1000
0010
0100
0001
,
0010
0000
0001
0000
0100
0000
0001
0000
0010
0000
0000
0001
0010
0000
0000
0000
,
0001
0001
0100
0010
1000
0010
0100
0010
,
0100
0000
0100
0000
0001
0000
0010
0000
0001
0000
0000
0000
1100
0000
0000
0001
,
0100
0001
0010
0100
1000
0100
0010
0001
,
0010
0000
0001
0011
,
1000
0000
0000
0000
0001
0000
0000
0100
0000
0000
0010
0000
0000
1000
0000
0000
,
0010
0000
0000
0000
0100
0000
0000
0001
0000
0000
1000
0000
0010
0000
1000
0000
,
0001
0000
0000
0000
0100
0000
0000
0001
0000
0000
1000
0000
0000
0100
0000
0000
,
1000
0011
0001
1100
,
1000
0000
0000
0000
0001
0000
0000
0100
0000
0000
0001
0000
0000
1000
0000
0000
,
0010
0000
0000
0000
1000
0000
0000
0010
0000
0000
0100
0000
0010
0000
0100
0000
,
0100
0000
0000
0000
0001
0000
0000
0100
0000
0000
0010
0000
0000
1000
0000
0000
,
0010
1100
1000
0011
,
1000
0001
0100
0001
0100
0001
0001
0000
,
0001
1000
0010
1000
0020
0000
0130
0000
,
0001
1000
0010
1000
0010
1000
1000
0000
,
1000
0000
0010
0000
0100
0000
0001
0000
0010
0001
0010
0001
0010
0000
0000
0000
,
0001
0100
0010
1000
0010
0000
1010
0000
,
0001
0010
0001
0100
0001
0000
0011
0000
,
1000
0100
1000
0010
1000
0000
1001
0000
,
2000
0000
0000
0000
3001
0100
0110
0000
,
1100
0000
0000
0000
0010
0000
0000
0000
1000
0000
0000
0001
0000
0000
0010
0000
,
0011
0000
0000
0000
0100
0000
0000
0000
0001
0000
0000
1000
0000
0000
0100
0000
,
1100
0000
0000
0000
1000
0000
0000
0000
0010
0000
0000
1000
0000
0000
0010
0000
,
0110
0000
0100
0000
0001
0010
0011
0000
,
1000
1000
0010
0100
0200
0000
0301
0000
,
0100
0100
0010
1000
2000
0000
3010
0000
,
0100
0100
0010
1000
0020
0000
1030
0000
,
1000
0000
0010
0000
0100
0000
0000
0010
1000
0000
0001
0000
0001
0000
0100
0000
,
0110
0000
1100
0000
,
0011
0000
1001
0000
,
1100
0011
1100
0011
,
1000
0001
1000
0001
1000
1000
0001
0001
,
0200
0000
0000
0310
,
1000
0100
0001
0100
1000
0100
0001
0100
,
1000
0010
0001
0010
1000
0010
1000
0001
,
1000
0100
0010
0001
0100
0010
1000
0100
,
0010
0001
1000
0000
0001
1000
0001
1000
,
1000
0010
0100
0010
0100
0001
0010
0100
,
0010
0100
1000
0001
0100
0001
1000
1000
,
0010
0100
0001
0100
0001
0001
1000
0100
,
0010
0100
1000
0000
0010
1000
1001
0000
,
1000
0001
0100
0001
0100
0001
0001
0000
,
0001
1000
0010
1000
0020
0000
0130
0000
,
0001
0010
0001
0100
0010
1000
1000
0000
,
0100
1000
0010
0100
0001
0000
0011
0000
,
1000
0001
0100
0001
0100
0000
0011
0000
,
0001
1000
0010
1000
0010
1000
1100
0000
,
1000
0001
0100
0001
0100
0000
0011
0000
,
0001
0100
0010
1000
0001
0000
1010
0000
,
0000
0110
0000
0011
0000
0110
0000
1100
,
0000
0110
0000
1001
0010
0100
1001
0000
,
0000
0110
0000
0011
0000
0110
0000
1100
,
0000
0000
0110
0000
0000
0000
0001
0000
0011
0000
0000
0000
1000
0001
1000
0001
,
0000
1000
0000
0010
0000
0100
0000
0001
,
0000
0010
0000
0001
0100
0000
0110
0000
,
0000
0010
0000
1001
0000
0100
0000
1000
,
0200
0000
1300
0011
;

//--------------- dance-single - K. Ward ----------------
#NOTES:
     dance-single:
     K. Ward:
     Challenge:
     14:
     0.664847,0.767217,0.983691,0.165326,0.289321,563,444,119,20,24,5,0.664847,0.767217,0.983691,0.165326,0.289321,563,444,119,20,24,5:
0000
0000
0000
0000
,
0000
0000
0000
0000
,
0000
0000
0000
0000
,
0000
0000
0000
0000
,
1000
0010
0100
0001
0100
0010
1000
0100
,
1000
0000
0010
0000
0100
0000
0001
0000
0010
0000
0001
0000
0100
0010
0100
0010
,
1000
0010
0100
0001
0010
0001
1000
0001
,
1001
0000
0000
0000
0000
0000
0000
0000
0001
0010
0001
0000
0011
0000
0000
0000
,
1000
0100
1000
0000
0010
0000
0100
0010
0000
0000
0100
0000
0001
0000
0010
0000
,
0001
0010
0001
0000
0100
0000
0010
1000
0000
1000
0010
0000
0110
0000
0000
0000
,
0001
0010
0001
0000
0100
0000
0010
1000
0000
0000
0010
0000
0100
0000
0001
0000
,
0010
0001
0100
0000
0010
0000
1000
0100
0000
0100
1000
0000
1100
0000
0000
0000
,
0001
0000
0100
0000
0110
0000
0010
1000
0000
0000
0100
0000
1100
0000
0010
0000
,
0100
0000
0001
0000
0011
0000
0100
0010
0000
1000
0100
0000
1100
0000
0000
0000
,
0010
0000
0100
0000
0011
0000
0001
0100
0000
0000
0010
0000
1100
0000
0100
0000
,
1000
0000
0000
1000
0010
0000
0100
0001
0000
0000
0010
0000
0011
0000
0000
0000
,
1001
0000
0000
0000
0110
0000
0000
1100
0000
0000
0110
0000
0000
0011
0000
0000
,
1100
0000
0000
0000
0110
0000
0000
0011
0000
0000
1100
0000
0110
0000
1100
0000
,
0011
0000
0000
0000
0110
0000
0000
1100
0000
0000
0011
0000
0000
0110
0000
0000
,
2200
0000
0001
0000
0010
0000
0001
3300
,
1100
0000
0000
0000
0011
0000
0000
0110
0000
0000
1100
0000
0000
1001
0000
0000
,
0110
0000
0000
0000
1100
0000
0000
0110
0000
0000
1100
0000
0011
0000
1010
0000
,
0110
0000
0000
0000
1001
0000
0000
0110
0000
0000
0011
0000
0000
0110
0000
0000
,
2200
0000
0000
0000
0001
3300
1100
0000
,
0001
0100
0010
1000
0100
1000
0010
0100
,
0001
0000
0100
0000
1000
0000
0100
0000
0001
0000
1000
0000
0010
0100
0010
0000
,
1000
0100
1000
0010
0100
0001
0010
0001
,
1000
0000
0010
0000
0001
0000
0010
0000
1000
0100
1000
0100
2000
0000
0000
0000
,
3001
0100
0010
1000
1100
1000
0010
0100
,
0011
0001
0100
0010
1000
0010
0110
0000
,
1100
0100
1000
0010
0110
0001
0010
0001
,
2000
0000
0200
0000
0020
0000
0000
3330
,
2000
0000
0000
0000
0001
0000
0000
0000
0010
0000
0000
0100
0000
0000
0010
0000
,
3002
0000
0000
0000
0010
0000
0000
0000
0100
0000
0000
1000
0000
0000
0103
0000
,
0020
0000
0000
0000
0100
0000
0000
0000
0001
0000
0000
0100
0000
0000
0230
0000
,
2000
0000
0300
0000
0020
0000
3000
0000
0100
0000
0000
1000
0030
0000
0100
0000
,
1000
0010
0100
0001
0010
0000
0001
0010
0001
0010
0000
0000
0001
0100
0010
1000
,
0100
1000
0010
0100
0001
0000
0100
0010
0000
0000
1000
0100
1000
0000
0010
0000
,
1000
0010
0100
0001
0010
0000
0001
0010
0001
0010
0000
0000
0001
0100
0010
1000
,
0100
0000
1000
0000
1100
0000
0000
0001
0010
0000
0001
0000
0100
0000
0010
0000
,
1100
MMMM
0110
MMMM
,
1100
MMMM
0110
MMMM
,
1001
M00M
0011
00MM
1100
MM00
1001
M00M
,
0011
0001
0101
0001
1001
0001
0011
0001
,
2002
0000
3003
1001
,
1000
0000
0010
0000
0100
0000
0001
0000
0011
0000
0000
0011
0000
0000
0011
0000
,
0001
0000
0100
0000
0010
0000
1000
0000
1100
0000
0000
1100
0000
0000
1100
0000
,
1000
0000
0010
0000
0100
0000
0010
0000
1010
0000
0000
1010
0000
0000
1010
0000
,
1000
0000
0010
0000
0100
0000
0000
0000
0101
0000
0000
0101
0000
0000
0101
0000
,
0001
0000
0100
0000
0010
0000
1000
0000
1010
0000
0000
0110
0000
0000
0011
0000
,
0001
0000
0100
0000
0010
0000
1000
0000
1100
0000
0000
0110
0000
0000
1100
0000
,
1000
0000
0010
0000
0100
0000
0001
0000
0011
0000
0000
0110
0000
0000
0011
0000
,
0001
0000
0100
0000
0010
0000
0000
1000
0100
0000
1000
0000
0010
0000
0100
0000
,
0001
0000
0010
0000
0011
0000
0100
0000
0010
0000
1000
0100
0000
0000
0000
0000
,
1000
0000
0010
0000
0110
0000
0001
0000
0010
0000
0001
0010
0000
0000
0000
0000
,
0001
0000
0100
0000
0110
0000
1000
0000
0100
0000
1000
0100
0000
0000
0000
0000
,
1000
0010
0110
0001
0100
0000
1100
0000
,
0010
0000
0100
0000
0001
0000
0010
0000
0100
0000
1000
0020
0000
0000
0000
0000
,
0130
0000
0001
0000
0010
0000
0001
0000
0100
0000
0010
2000
0000
0000
0010
0000
,
3010
0000
0100
0000
0001
0000
0010
0000
0001
0000
0100
0020
0000
0000
0000
0000
,
1030
0100
0010
0001
0010
0000
0011
0000
,
1000
0110
0000
1100
0000
0110
0000
0011
,
0100
0110
0000
0110
0100
0001
0011
0000
,
0001
0110
0000
0011
0000
0110
0000
1100
,
0010
0000
0110
0000
0000
0000
0110
0000
0010
0000
1000
0000
0100
1000
0100
1000
,
0001
0011
0100
0011
1000
0110
1000
1100
,
0010
0110
0001
0011
0001
0110
1001
0000
,
1000
1100
0010
0110
0001
0011
1000
0110
,
2000
0000
0000
0000
0000
0000
0000
0000
3010
0100
0001
0000
1001
0000
0000
0000
;

//--------------- dance-double - M. Emirzian ----------------
#NOTES:
     dance-double:
     M. Emirzian:
     Easy:
     2:
     0.135804,0.170493,0.008266,0.024799,0,115,114,1,3,0,0,0.135804,0.170493,0.008266,0.024799,0,115,114,1,3,0,0:
00000000
00000000
00000000
00000000
,
00000000
00000000
00000000
00000000
,
00000000
00000000
00000000
00000000
,
00000000
00000000
00000000
00000000
,
10000000
00000000
00010000
00000000
,
10000000
00000000
01000000
00000000
,
00010000
00000000
00001000
00000000
,
00000100
00000000
00000100
00000100
,
00000001
00000000
00000100
00000000
,
00001000
00000000
00010000
00000000
,
00100000
00000000
10000000
00000000
,
01000000
00000000
00010000
00000000
,
00001000
00000000
00000100
00000000
,
00000001
00000000
00000010
00000000
,
00001000
00000000
00010000
00000000
,
00200000
00000000
00000000
00000000
,
10300000
00000000
00000000
00000000
,
10000000
00000000
00000000
00000000
,
00010000
00000000
00000000
00000000
,
00100000
00000000
00000000
00000000
,
00001000
00000000
00000000
00000000
,
00010000
00000000
00000000
00000000
,
00000010
00000000
00000000
00000000
,
00001000
00000000
00000000
00000000
,
00000001
00000000
00000100
00000000
,
00001000
00000000
00010000
00000000
,
01000000
00000000
10000000
00000000
,
00100000
00000000
00010000
00000000
,
00001000
00000000
00000010
00000000
,
00000001
00000000
00000100
00000000
,
00001000
00000000
00010000
00000000
,
00200000
00000000
00000000
00000000
,
10300000
00000000
10000000
00000000
,
01000000
00000000
01000000
00000000
,
00100000
00000000
00100000
00000000
,
00001000
00000000
00001000
00000000
,
00010000
00000000
00010000
00000000
,
00000100
00000000
00000100
00000000
,
00000010
00000000
00000010
00000000
,
00000001
00000000
00000001
00000000
,
00000100
00000000
00000100
00000000
,
00000100
00000000
00001000
00000000
,
00001000
00000000
00001000
00000000
,
00010000
00000000
00010000
00000000
,
02000000
00000000
00000000
00000000
,
13000000
00000000
00100000
00000000
,
00010000
00000000
00001000
00000000
,
00000010
00000000
00000001
00000000
,
00000100
00000000
00001000
00000000
,
00010000
00000000
01000000
00000000
,
10000000
00000000
00100000
00000000
,
00010000
00000000
00001000
00000000
,
00000010
00000000
00000001
00000000
,
00000100
00000000
00001000
00000000
,
00000000
00000000
00010000
00000000
,
00000000
00000000
00001000
00000000
,
00000000
00000000
00000000
00000000
,
00001000
00000000
00010000
00000000
,
00000000
00000000
00100000
00000000
,
00000000
00000000
01000000
00000000
,
00000000
00000000
10000000
00000000
,
01000000
00000000
01000000
00000000
,
00100000
00000000
00100000
00000000
,
00010000
00000000
00010000
00000000
,
00001000
00000000
00001000
00000000
,
00000010
00000000
00000010
00000000
,
00000001
00000000
00000001
00000000
,
00000100
00000000
00000100
00000000
,
00000010
00000000
00000010
00001010
;

//--------------- dance-double - M. Emirzian ----------------
#NOTES:
     dance-double:
     M. Emirzian:
     Medium:
     5:
     0.294044,0.397816,0.247989,0.041332,0,249,219,30,5,0,0,0.294044,0.397816,0.247989,0.041332,0,249,219,30,5,0,0:
00000000
00000000
00000000
00000000
,
00000000
00000000
00000000
00000000
,
00000000
00000000
00000000
00000000
,
00000000
00000000
00000000
00000000
,
00000000
10000000
00000000
10000000
00000000
10000000
00000000
10000000
,
00000000
00010000
00000000
00010000
00000000
00010000
00000000
00010000
,
00000000
00100000
00000000
00100000
00000000
00100000
00000000
00100000
,
00020000
00000000
00000000
00000000
,
00030000
01000000
00000000
00001000
00000000
00010000
00000000
00001000
,
00000000
00010000
00000000
00000100
00000000
00001000
00000000
00000000
,
00000000
00000010
00000000
00000100
00000000
00000001
00000000
00001000
,
00000000
00000100
00000000
00010000
00000000
00001000
00000000
00000000
,
00000000
01000000
00000000
00010000
00000000
01000000
00000000
00010000
,
00000000
10000000
00000000
01000000
00000000
00100000
00000000
00000000
,
00000000
00010000
00000000
01000000
00000000
00001000
00000000
00010000
,
00002000
00000000
00000000
00010000
,
00013000
00010000
00010010
00011000
,
00001000
00010000
00101000
00011000
,
00010000
00001000
00010010
00011000
,
00010000
00001000
00010000
00100000
,
00010000
00001000
00010100
00011000
,
00010000
00001000
01001000
00011000
,
00001000
00010000
00010100
00011000
,
00010000
00001000
00000100
00001000
,
00010000
00000000
00010000
00000000
,
00100000
00000000
10000000
00000000
,
00100000
00000000
01000000
00000000
,
00001000
00000000
00020000
00001000
,
00030100
00000000
00000010
00000000
,
00000001
00000000
00001000
00000000
,
00010000
00000000
10000000
00000000
,
02000000
00000000
00000000
00000000
,
03100000
00010000
00100000
00000000
,
00001000
00010000
00001000
00000000
,
00000010
00000100
00000010
00000000
,
00000001
00000100
00000001
00000000
,
00000010
00000100
00000010
00000000
,
00001000
00010000
00001000
00000000
,
01000000
00010000
01000000
00000000
,
00100000
10000000
00100000
00000000
,
00100000
00100000
01000000
01000000
,
00010000
00010000
00100000
00100000
,
00001000
00001000
00010000
00010000
,
00000100
00000000
00000010
00000000
00000001
00001000
00000100
00000010
,
00000002
00000000
00000000
00000000
,
00000103
00000000
00000010
00000000
00000100
00000010
00001000
00000000
,
00000100
00010000
00001000
00000000
,
00010000
00000000
00001000
00000000
01000000
00010000
10000000
00000000
,
01000000
00100000
00010000
00000000
,
01000000
00000000
00001000
00000000
00010000
00000100
00001000
00000000
,
00000001
00000010
00000100
00000000
,
00001000
00000000
00000001
00000000
00000100
00000010
00001000
00000000
,
00000100
00010000
00001000
00000000
,
00011000
00000000
00101000
00000000
,
00011000
00000000
00010010
00000000
,
00011000
00000000
01001000
00000000
,
00011000
00000000
00001000
00000000
,
00101000
00000000
00011000
00000000
,
00010010
00000000
00011000
00101000
,
00011000
00000000
01001000
00000000
,
00011000
00000000
00101000
00000000
,
10010000
01000000
00000000
01000000
00000000
01000000
00000000
01000000
,
00100000
10000000
00000000
10000000
00000000
10000000
00000000
10000000
,
01000000
00100000
00000000
00100000
00000000
00100000
00000000
00100000
,
00001000
00010000
00000000
00010000
00000000
00010000
00000000
00010000
,
00000100
00001000
00000000
00001000
00000000
00001000
00000000
00001000
,
00000010
00000100
00000000
00000001
00000000
00000001
00000000
00000001
,
00000100
00000010
00000000
00000010
00000000
00000010
00000000
00000010
,
00010000
00001000
00100000
11000000
;

//--------------- dance-double - M. Emirzian ----------------
#NOTES:
     dance-double:
     M. Emirzian:
     Hard:
     8:
     0.405049,0.540548,0.413315,0.181859,0.165326,343,293,50,22,0,4,0.405049,0.540548,0.413315,0.181859,0.165326,343,293,50,22,0,4:
00000000
00000000
00000000
00000000
,
00000000
00000000
00000000
00000000
,
00000000
00000000
00000000
00000000
,
00000000
00000000
00000000
00000000
,
00000000
10000000
00000000
00100000
00000000
00010000
00000000
00001000
,
00000000
00000010
00000000
00000001
00000000
00000100
00000000
00001001
,
00001000
00000010
00000000
00001000
00000000
00000100
00000000
00010000
,
00022000
00000000
00000000
00000000
00000000
00000000
00000000
00000000
00000000
00100000
00033000
00000000
,
00010000
00100000
00000000
10000000
00000000
01000000
00000000
00010000
,
00000000
00001000
00000000
00000100
00000000
00000001
00000000
00001001
,
00000001
00000010
00000000
00000100
00000000
00010000
00000000
00001000
,
00000000
01000000
00000000
00100000
00000000
10000000
00000000
10010000
,
10000000
01000000
00000000
00010000
00000000
00001000
00000000
00000010
,
00000000
00000001
00000000
00000100
00000000
00000010
00000000
00001001
,
00000001
00000100
00000000
00000010
00000000
00010000
00000000
00001000
,
00020000
00000000
00000000
01000000
,
01030000
00000000
10000000
00100000
10000000
00000000
00100000
00000000
,
10000000
00000000
01000000
10000000
01000000
00000000
10000000
00000000
,
01000000
00000000
00010000
01000000
00010000
00000000
01000000
00000000
,
00020000
00000000
00000100
00001000
,
00030100
00000000
00001000
00000100
00001000
00000000
00000100
00000000
,
00000001
00000000
00000100
00000001
00000100
00000000
00000001
00000000
,
00000010
00000000
00001000
00000100
00001000
00000000
00000010
00000000
,
00020000
00000000
00001000
00001000
,
00031000
00000000
00000000
00000000
00000000
00000000
01000000
00000000
00000000
00000000
00000000
00000000
00100000
00000000
00000000
00000000
00000000
10000000
00000000
00000000
01000000
00000000
00000000
00000000
,
00100000
00000000
00000000
00000000
00000000
00000000
00010000
00000000
00000000
00000000
00000000
00000000
01000000
00000000
00000000
00000000
00000000
00001000
00000000
00000000
00010000
00000000
00000000
00000000
,
00001000
00000000
00000000
00000000
00000000
00000000
00010000
00000000
00000000
00000000
00000000
00000000
00000100
00000000
00000000
00000000
00000000
00001000
00000000
00000000
00000010
00000000
00000000
00000000
,
00000001
00000100
00000020
00000100
,
00000130
00000000
00000000
00000000
00000000
00000000
00001000
00000000
00000000
00000000
00000000
00000000
00000010
00000000
00000000
00000000
00000000
00010000
00000000
00000000
00001000
00000000
00000000
00000000
,
00010000
00000000
00000000
00000000
00000000
00000000
00001000
00000000
00000000
00000000
00000000
00000000
01000000
00000000
00000000
00000000
00000000
00100000
00000000
00000000
10000000
00000000
00000000
00000000
,
01000000
00000000
00000000
00000000
00000000
00000000
00100000
00000000
00000000
00000000
00000000
00000000
00001000
00000000
00000000
00000000
00000000
00010000
00000000
00000000
00000100
00000000
00000000
00000000
,
00002002
00000000
00000000
00000000
00000000
00000000
00000000
00000000
00000000
00000010
00003003
00000000
,
00000100
00000000
00000000
00000000
00012000
00000000
00000000
00000000
00010000
00000000
00000000
00010000
00000000
00000000
00013000
00000000
,
00100000
00000000
00000000
00000000
20100000
00000000
00000000
00000000
01000000
00000000
00000000
01000000
00000000
00000000
31000000
00000000
,
00010000
00000000
00000000
00000000
00012000
00000000
00000000
00000000
00000010
00000000
00000000
00000010
00000000
00000000
00003010
00000000
,
00000001
00000000
00000000
00000000
00000210
00000000
00000000
00000000
00000010
00000000
00000000
00000010
00000300
00000000
00000010
00000000
,
00000100
00000000
00000000
00000000
00002010
00000000
00000000
00000000
00010000
00000000
00000000
00010000
00000000
00000000
00013000
00000000
,
00100000
00000000
00000000
00000000
21000000
00000000
00000000
00000000
00100000
00000000
00000000
00100000
00000000
00000000
30100000
00000000
,
00010000
00000000
00000000
00000000
00012000
00000000
00000000
00000000
00000100
00000000
00000000
00000100
00000000
00000000
00003100
00000000
,
00000001
00000000
00000000
00000000
00000120
00000000
00000000
00000000
00001000
00000000
00000000
00001000
00000000
00000000
00001030
00000000
,
00001001
00000000
00011000
00000000
,
10010000
00000000
01100000
00000000
,
10010000
01010000
00101000
00011000
,
00010010
00000010
00000100
00000001
00000010
00000100
00001000
00000010
,
00000220
00000000
00000000
00000000
00000000
00000000
00000000
00000000
00000000
00010000
00000330
00000000
,
00000100
00000000
00000000
00000000
00001000
00000000
00000000
00000000
00011000
00000000
00000000
00101000
00000000
00000000
00011000
00000000
,
00001000
00000000
00000000
00000000
01000000
00000000
00000000
00000000
01001000
00000000
00000000
01010000
00000000
00000000
01001000
00000000
,
01000000
00000000
00000000
00000000
00100000
00000000
00000000
00000000
10100000
00000000
00000000
10010000
00000000
00000000
10100000
00000000
,
10000000
00000000
00000000
00000000
01000000
00000000
00000000
00000000
00101000
00000000
00000000
00110000
00000000
00000000
00101000
00000000
,
00001000
00000000
00000000
00000000
00010000
00000000
00000000
00000000
00010010
00000000
00000000
00001010
00000000
00000000
00010010
00000000
,
00000010
00000000
00000000
00000000
00001000
00000000
00000000
00000000
00001100
00000000
00000000
00001001
00000000
00000000
00001100
00000000
,
00000100
00000000
00000000
00000000
00000010
00000000
00000000
00000000
00000011
00000000
00000000
00001001
00000000
00000000
00000011
00000000
,
00000010
00000000
00000000
00000000
00000100
00000000
00000000
00000000
00010100
00000000
00000000
00001100
00000000
00000000
00010100
00000000
,
00010000
00000000
00000000
00000000
00000000
00000000
00010000
00000000
00000000
00000000
00000000
00000000
00001000
00000000
00000000
00000000
00000000
00010000
00000000
00000000
00001000
00000000
00000000
00000000
,
01000000
00000000
00000000
00000000
00000000
00000000
00010000
00000000
00000000
00000000
00000000
00000000
10000000
00000000
00000000
00000000
00000000
01000000
00000000
00000000
00010000
00000000
00000000
00000000
,
00100000
00000000
00000000
00000000
00000000
00000000
01000000
00000000
00000000
00000000
00000000
00000000
00001000
00000000
00000000
00000000
00000000
00010000
00000000
00000000
00001000
00000000
00000000
00000000
,
00010000
00000100
00002000
00000000
,
00003100
00000000
00000000
00000000
00000000
00000000
00000010
00000000
00000000
00000000
00000000
00000000
00000001
00000000
00000000
00000000
00000000
00000100
00000000
00000000
00001000
00000000
00000000
00000000
,
00000010
00000000
00000000
00000000
00000000
00000000
00000100
00000000
00000000
00000000
00000000
00000000
00001000
00000000
00000000
00000000
00000000
00000100
00000000
00000000
00010000
00000000
00000000
00000000
,
00001000
00000000
00000000
00000000
00000000
00000000
00100000
00000000
00000000
00000000
00000000
00000000
00010000
00000000
00000000
00000000
00000000
01000000
00000000
00000000
10000000
00000000
00000000
00000000
,
00100000
01000000
20000000
01000000
,
31000000
00100000
00000000
00010000
00000000
01000000
00000000
00100000
,
00010000
00001000
00000000
00010000
00000000
00000100
00000000
00001000
,
00000010
00000100
00000000
00000001
00000000
00000010
00000000
00001000
,
00000100
00000001
00000000
00000100
00000000
00001000
00000000
00010000
,
00000100
00001000
00000000
00000100
00000000
00010000
00000000
00001000
,
01000000
00010000
00000000
10000000
00000000
01000000
00000000
00010000
,
00100000
10000000
00000000
01000000
00000000
00010000
00000000
00001000
,
00022000
00000000
00000000
00000000
00000000
00000000
00000000
00000000
00000000
00000110
00033000
00000000
;

//--------------- dance-double - M. Emirzian ----------------
#NOTES:
     dance-double:
     M. Emirzian:
     Challenge:
     9:
     0.409773,0.426748,0.438114,0.818364,0.165326,347,294,53,99,0,42,0.409773,0.426748,0.438114,0.818364,0.165326,347,294,53,99,0,42:
00000000
00000000
00000000
00000000
,
00000000
00000000
00000000
00000000
,
00000000
00000000
00000000
00000000
,
00000000
00000000
00000000
00000000
,
00000000
00000010
00000000
00000202
00000000
00001000
00000303
00001000
,
00000000
00022000
00000000
01000000
00033000
01000000
00000000
02020000
,
00000000
00100000
03030000
10000000
00000000
01020000
00000000
00031000
,
00000200
00000000
00000000
00000000
00000000
00000000
00000000
00000000
00000000
00010010
00000300
00000000
,
00000002
00000020
00000000
00000100
00000033
00001000
00000000
00010000
,
00000000
01000000
00000000
21000000
00000000
00100000
30000000
00010000
,
00002000
00000020
00000000
00000001
00003030
00000001
00000000
00000100
,
00000000
00001000
00000000
00021000
00000000
01000000
00030000
10000000
,
00200000
02000000
00000000
10000000
03300000
00001000
00000000
00010000
,
00000000
01000000
00000000
00012000
00000000
00000010
00003000
00000001
,
00000200
00000020
00000000
00001000
00000330
00001000
00000000
00010000
,
02000000
00000000
00000000
00000000
00000000
00000000
00000000
00000000
00000000
00101000
03000000
00000000
,
20000000
00000000
30100000
00010000
00010000
00000000
00001000
00000000
,
00020000
00000000
00130000
00010000
00010000
00000000
00011000
00000000
,
00002000
00000000
00003010
00000100
00000100
00001000
00000001
00000000
,
00000020
00000000
00000000
00002000
00000000
00000000
00010000
00003030
00000000
00010000
00000000
00000000
,
00200000
00000000
10000000
00010000
00310000
00000000
00001000
00000000
,
01200000
00000000
10000000
01000000
01300000
00000000
01001000
00000000
,
00002000
00000000
00010000
00010000
00003010
00001000
00010000
00000000
,
00002002
00000000
00000000
00000000
00000000
00000000
00000100
00000000
00000003
00000000
00000000
00000000
00000010
00000000
00000000
00003000
00000000
00000000
00000100
00000000
00000000
00000000
00000000
00000000
,
00021000
00000000
00000000
00000000
00000000
00000000
01000000
00000000
00000000
00000000
00000000
00000000
01030000
00000000
00000000
00000000
00000000
10000000
00000000
00000000
00100000
00000000
00000000
00000000
,
02200000
00000000
00000000
00000000
00000000
00000000
00010000
00000000
03000000
00000000
00000000
00000000
00310000
00000000
00000000
00000000
00000000
00001000
00000000
00000000
00000100
00000000
00000000
00000000
,
00002002
00000000
00000000
00000000
00000000
00000000
00010000
00000000
00000003
00000000
00000000
00000000
00003100
00000000
00000000
00000000
00000000
00000010
00000000
00000000
00001000
00000000
00000000
00000000
,
00022000
00000000
00000000
00100000
00003000
00000000
00130000
00000000
00000000
00000000
00000000
00000000
,
20200000
00000000
00000000
00000000
00000000
00000000
01000000
00000000
00300000
00000000
00000000
00000000
30010000
00000000
00000000
00000000
00000000
00100000
00000000
00000000
01000000
00000000
00000000
00000000
,
02020000
00000000
00000000
00000000
00000000
00000000
00100000
00000000
03000000
00000000
00000000
00000000
00031000
00000000
00000000
00000000
00000000
00000100
00000000
00000000
00000010
00000000
00000000
00000000
,
00002020
00000000
00000000
00000000
00000000
00000000
00000100
00000000
00003000
00000000
00000000
00000000
00000031
00000000
00000000
00000000
00000000
00000010
00000000
00000000
00000100
00000000
00000000
00000000
,
00002000
00000000
00000000
00013010
,
00010000
00000000
00000000
00000000
02010000
00000000
00000000
00000000
10000000
00000000
00000000
10000000
00000000
00000000
13000000
00000000
,
00100000
00000000
00000000
00000000
00012000
00000000
00000000
00000000
00010000
00000000
00000000
00010000
00000000
00000000
00013000
00000000
,
00000010
00000000
00000000
00000000
00001200
00000000
00000000
00000000
00000001
00000000
00000000
00000001
00000000
00000000
00000301
00000000
,
00000100
00000000
00000000
00000000
00012000
00000000
00000000
00000000
00000100
00000000
00000000
00000100
00000000
00000000
00003100
00000000
,
00001000
00000000
00000000
00000000
02010000
00000000
00000000
00000000
10000000
00000000
00000000
10000000
00000000
00000000
13000000
00000000
,
01000000
00000000
00000000
00000000
01002000
00000000
00000000
00000000
00010000
00000000
00000000
00010000
00000000
00000000
00010000
00000000
,
00003100
00000000
00000000
00000000
00000120
00000000
00000000
00000000
00000001
00000000
00000000
00000001
00000000
00000000
00000031
00000000
,
00000100
00000000
00000000
00000000
00020010
00000000
00000000
00000000
00001000
00000000
00000000
00001000
00000000
00000000
00031000
00000000
,
01000000
00000000
00000000
00020000
00000000
00000000
00101000
00030000
00000000
20000000
00000000
00000000
,
31000000
00000000
00000000
00200000
00000000
00000000
10010000
00300000
00000000
00001000
00000000
00000000
,
00020000
00000000
00000000
00030100
00000000
00000000
00000020
00000000
00000000
00001001
00000030
00000000
,
00000001
00001000
00000100
00000010
00000001
00000100
00001000
00010000
,
01002000
00000000
00000000
00000000
00000000
00000000
00000000
00000000
00000000
10010000
00003000
00000000
,
01000000
00000000
00000000
00000000
00000000
00000000
00000000
00000000
00000000
00000000
00000000
00000000
02200000
00000000
00000000
00000000
00000000
00000000
00000000
00000000
00000000
00000000
00000000
00000000
00010000
00000000
00000000
00000000
00300000
00000000
00000000
00000000
00000000
10000000
00000000
00000000
03000000
00000000
00000000
00000000
00000000
00000000
01000000
00000000
00000000
00000000
00000000
00000000
,
00100000
00000000
00000000
00000000
00000000
00000000
00000000
00000000
00000000
00000000
00000000
00000000
02002000
00000000
00000000
00000000
00000000
00000000
00000000
00000000
00000000
00000000
00000000
00000000
00010000
00000000
00000000
00000000
00003000
00000000
00000000
00000000
00000000
00001000
00000000
00000000
03000000
00000000
00000000
00000000
00000000
00000000
00010000
00000000
00000000
00000000
00000000
00000000
,
00000010
00000000
00000000
00000000
00000000
00000000
00000000
00000000
00000000
00000000
00000000
00000000
00002020
00000000
00000000
00000000
00000000
00000000
00000000
00000000
00000000
00000000
00000000
00000000
00010000
00000000
00000000
00000000
00000030
00000000
00000000
00000000
00000000
00000100
00000000
00000000
00003000
00000000
00000000
00000000
00000000
00000000
00000010
00000000
00000000
00000000
00000000
00000000
,
00000001
00000000
00000000
00000000
00000000
00000000
00000000
00000000
00000000
00000000
00000000
00000000
00002200
00000000
00000000
00000000
00000000
00000000
00000000
00000000
00000000
00000000
00000000
00000000
00000010
00000000
00000000
00000000
00003000
00000000
00000000
00000000
00000000
00010000
00000000
00000000
00000300
00000000
00000000
00000000
00000000
00000000
00001000
00000000
00000000
00000000
00000000
00000000
,
01000000
00000000
00000000
00000000
00000000
00000000
00000000
00000000
00000000
00000000
00000000
00000000
20020000
00000000
00000000
00000000
00000000
00000000
00000000
00000000
00000000
00000000
00000000
00000000
00001000
00000000
00000000
00000000
30000000
00000000
00000000
00000000
00000000
00100000
00000000
00000000
00030000
00000000
00000000
00000000
00000000
00000000
01000000
00000000
00000000
00000000
00000000
00000000
,
10000000
00000000
00000000
00000000
00000000
00000000
00000000
00000000
00000000
00000000
00000000
00000000
00220000
00000000
00000000
00000000
00000000
00000000
00000000
00000000
00000000
00000000
00000000
00000000
01000000
00000000
00000000
00000000
00300000
00000000
00000000
00000000
00000000
01000000
00000000
00000000
00030000
00000000
00000000
00000000
00000000
00000000
00100000
00000000
00000000
00000000
00000000
00000000
,
00010000
00000000
00000000
00000000
00000000
00000000
00000000
00000000
00000000
00000000
00000000
00000000
00022000
00000000
00000000
00000000
00000000
00000000
00000000
00000000
00000000
00000000
00000000
00000000
00000010
00000000
00000000
00000000
00030000
00000000
00000000
00000000
00000000
00000100
00000000
00000000
00003000
00000000
00000000
00000000
00000000
00000000
00000001
00000000
00000000
00000000
00000000
00000000
,
00000010
00000000
00000000
00000000
00000000
00000000
00000000
00000000
00000000
00000000
00000000
00000000
00002002
00000000
00000000
00000000
00000000
00000000
00000000
00000000
00000000
00000000
00000000
00000000
00000100
00000000
00000000
00000000
00003000
00000000
00000000
00000000
00000000
00000010
00000000
00000000
00000003
00000000
00000000
00000000
00000000
00000000
00001000
00000000
00000000
00000000
00000000
00000000
,
00010000
00000000
00000000
00000000
00000000
00000000
00100000
00000000
00000000
00000000
00000000
00000000
10000000
00000000
00000000
00000000
00000000
01000000
00000000
00000000
00100000
00000000
00000000
00000000
,
00220000
00000000
00000000
00000000
00000000
00000000
10000000
00000000
00300000
00000000
00000000
00000000
01030000
00000000
00000000
00000000
00000000
00010000
00000000
00000000
00001000
00000000
00000000
00000000
,
00020020
00000000
00000000
00000000
00000000
00000000
00001000
00000000
00000030
00000000
00000000
00000000
00030100
00000000
00000000
00000000
00000000
00000010
00000000
00000000
00000001
00000000
00000000
00000000
,
00000202
00000000
00000000
00001000
00000003
00000000
00000310
00000000
00000000
00000000
00000000
00000000
,
00202000
00000000
00000000
00000000
00000000
00000000
00010000
00000000
00300000
00000000
00000000
00000000
01003000
00000000
00000000
00000000
00000000
00100000
00000000
00000000
10000000
00000000
00000000
00000000
,
22000000
00000000
00000000
00000000
00000000
00000000
00010000
00000000
30000000
00000000
00000000
00000000
03100000
00000000
00000000
00000000
00000000
00001000
00000000
00000000
00010000
00000000
00000000
00000000
,
00020020
00000000
00000000
00000000
00000000
00000000
00001000
00000000
00000030
00000000
00000000
00000000
00030100
00000000
00000000
00000000
00000000
00000010
00000000
00000000
00000001
00000000
00000000
00000000
,
00000200
00000000
00000000
00000000
00000000
00000000
00000000
00000000
00000000
00011000
00000300
00000000
,
00002000
00020000
00000000
01000000
00033000
01000000
00000000
10000000
,
00000000
01000000
00000000
00120000
00000000
01000000
00030000
00001000
,
00020000
02000000
00000000
00100000
03030000
10000000
00000000
00100000
,
00000000
00010000
00000000
00010020
00000000
00001000
00000030
00000100
,
00000020
00000002
00000000
00001000
00000033
00000010
00000000
00001000
,
00000000
00010000
00000000
20010000
00000000
00100000
30000000
00010000
,
00002000
00000020
00000000
00010000
00003030
00000001
00000000
00000100
,
00002000
00000000
00000000
00000000
00000000
00000000
00000000
00000000
00000000
00010010
00003000
00000000
;

//--------------- lights-cabinet - ----------------
#NOTES:
     lights-cabinet:
     :
     Easy:
     1:
     0.549119,1.022956,0.512511,0.082663,0.082663,465,375,62,10,0,15,0.549119,1.022956,0.512511,0.082663,0.082663,465,375,62,10,0,15:
000000
000000
000000
000000
,
000000
000000
000000
000000
,
000000
000000
000000
000000
,
000000
000000
000000
000000
,
000000
111100
000000
111100
000000
111100
000000
111100
,
000000
111100
000000
111100
000000
111100
000000
111100
,
000000
111100
000000
111100
000000
111100
000000
111100
,
200200
000000
311300
000000
100000
001000
011000
000000
,
100000
000100
010000
000100
001000
000100
010000
000100
,
100000
000000
001000
000000
010000
000000
000100
000000
100000
000000
000100
000000
001000
000000
000000
000100
,
001000
000100
100000
010000
100000
001000
010000
000100
,
001000
000000
000100
000000
010000
000000
000100
000000
001000
000000
000000
000100
001000
000000
000000
000000
,
000100
000100
010000
001000
100000
001000
010000
001000
,
010000
000000
010000
000000
000100
000000
001000
000000
000100
000000
000000
000000
110000
000000
000000
000100
,
010000
000100
001000
010000
100000
010000
001000
000100
,
001000
000000
000100
001100
,
100000
000000
000000
000000
000100
000000
000000
010000
000000
000000
001000
000000
000000
100000
000000
000000
,
001000
000000
000000
000000
010000
000000
000000
000100
000000
000000
100000
000000
001000
000000
100000
000000
,
000100
000000
000000
000000
010000
000000
000000
000100
000000
000000
100000
000000
000000
010000
000000
000000
,
100000
001100
000100
110000
,
100000
000000
000000
000000
000100
000000
000000
010000
000000
000000
000100
000000
000000
100000
000000
000000
,
001000
000000
000000
000000
100000
000000
000000
001000
000000
000000
010000
000000
001000
000000
010000
000000
,
010000
000000
000000
000000
000100
000000
000000
010000
000000
000000
001000
000000
000000
100000
000000
000000
,
001000
110000
100000
001100
,
100000
000100
010000
000100
010000
000100
000100
000000
,
000100
100000
001000
100000
002000
000000
013000
000000
,
000100
100000
001000
100000
001000
100000
100000
000000
,
100000
000000
001000
000000
010000
000000
000100
000000
100000
000100
010000
000000
100100
000000
000000
000000
,
000100
010000
001000
100000
001000
000000
101000
000000
,
000100
001000
000100
010000
000100
000000
001100
000000
,
100000
010000
100000
001000
100000
000000
100100
000000
,
200000
000000
000000
000000
300100
010000
011000
000000
,
110000
000000
000000
000000
001000
000000
000000
000000
100000
000000
000000
000100
000000
000000
001000
000000
,
001100
000000
000000
000000
010000
000000
000000
000000
000100
000000
000000
100000
000000
000000
010000
000000
,
110000
000000
000000
000000
100000
000000
000000
000000
001000
000000
000000
100000
000000
000000
001000
000000
,
011000
000000
010000
000000
000100
001000
001100
000000
,
100000
100000
001000
010000
020000
000000
030100
000000
,
010000
010000
001000
100000
200000
000000
301000
000000
,
010000
010000
001000
100000
002000
000000
103000
000000
,
100000
000000
001000
000000
010000
000000
000000
001000
100000
000000
000100
000000
000100
000000
010000
000000
,
011000
000000
110000
000000
,
001100
000000
100100
000000
,
110000
001100
110000
001100
,
100000
000100
100000
000100
100000
100000
000100
000100
,
020000
000000
000000
031000
,
100000
010000
000100
010000
100000
010000
000100
010000
,
100000
001000
000100
001000
100000
001000
100000
000100
,
100000
010000
001000
000100
010000
001000
100000
010000
,
001000
000100
100000
000000
000100
100000
000100
100000
,
100000
001000
010000
001000
010000
000100
001000
010000
,
001000
010000
100000
000100
010000
000100
100000
100000
,
001000
010000
000100
010000
000100
000100
100000
010000
,
001000
010000
100000
000000
001000
100000
100100
000000
,
100000
000100
010000
000100
010000
000100
000100
000000
,
000100
100000
001000
100000
002000
000000
013000
000000
,
000100
001000
000100
010000
001000
100000
100000
000000
,
010000
100000
001000
010000
000100
000000
001100
000000
,
100000
000100
010000
000100
010000
000000
001100
000000
,
000100
100000
001000
100000
001000
100000
110000
000000
,
100000
000100
010000
000100
010000
000000
001100
000000
,
000100
010000
001000
100000
011000
000000
111100
000000
,
000000
011000
000000
001100
000000
011000
000000
110000
,
000000
011000
000000
100100
001000
010000
100100
000000
,
000000
011000
000000
001100
000000
011000
000000
110000
,
000000
000000
011000
000000
000000
000000
000100
000000
001100
000000
000000
000000
100000
000100
100000
000100
,
000000
100000
000000
001000
000000
010000
000000
000100
,
000000
001000
000000
000100
010000
000000
011000
000000
,
000000
001000
000000
100100
000000
010000
000000
100000
,
020000
000000
130000
111100
;
