#TITLE:What Is Love;
#SUBTITLE:;
#ARTIST:Tomosuke;
#TITLETRANSLIT:;
#SUBTITLETRANSLIT:;
#ARTISTTRANSLIT:;
#GENRE:House;
#CREDIT:;
#MUSIC:whatislove.ogg;
#BANNER:whatislove.png;
#BACKGROUND:whatislove-bg.png;
#CDTITLE:;
#SAMPLESTART:0.000;
#SAMPLELENGTH:0.000;
#SELECTABLE:YES;
#OFFSET:-5.115;
#BPMS:0.000=129.960;
#STOPS:;
#BGCHANGES:;
#FGCHANGES:;

//--------------- dance-single - ----------------
#NOTES:
     dance-single:
     :
     Easy:
     4:
     0,0,0,0,0:
0000
0000
0000
0000
,
0000
0000
0000
0000
,
0100
0000
0010
0000
,
0100
0000
0010
0000
,
1000
0000
0001
0000
,
1000
0000
0001
0000
,
1000
1000
0001
0001
,
1000
1000
0001
0001
,
0100
0010
0100
0010
,
0100
0100
0010
0010
,
2000
0000
0000
3000
,
0002
0000
0000
0003
,
0200
0000
0000
0300
,
0020
0000
0000
0030
,
2000
0000
0010
3000
,
0200
0000
1000
0300
,
0020
0000
0001
0030
,
0002
0000
1000
0003
,
0220
0000
0000
0330
,
1000
1000
0001
0001
,
2002
0000
0000
3003
,
1000
0100
0010
0001
,
0220
0000
0000
0330
,
1000
0100
0001
0100
,
2002
0000
0000
3003
,
1000
0100
0010
0000
,
1000
0100
0010
0000
,
0001
0010
0100
0000
,
1000
0100
0001
0000
,
0001
0100
1000
0000
,
0010
1000
0100
0001
,
0010
0001
0100
1000
,
1000
1000
0001
0100
,
0001
0001
1000
0010
,
1000
0000
1001
0000
,
0001
0000
1001
0000
,
0100
0000
0110
0000
,
0010
0000
0110
0000
,
1000
0100
0100
0010
,
0001
0010
0010
0100
,
1000
0100
0010
0001
,
0001
0010
0100
1000
,
0100
0000
0000
0000
;

//--------------- dance-single - ----------------
#NOTES:
     dance-single:
     :
     Medium:
     9:
     0,0,0,0,0:
0000
0000
0000
0000
,
0000
0000
0000
0000
,
2000
0000
3100
0000
1000
0100
0001
0000
,
0002
0000
0103
0000
0001
0100
1000
0000
,
0020
0000
0130
0000
1000
0001
1000
0000
,
2000
0000
3001
0000
1000
0001
1000
0000
,
2000
0100
0010
3100
,
0002
0010
0100
0013
,
0200
1000
0010
1300
,
0020
0100
0001
0130
,
1000
0100
0010
0000
0001
0010
0100
0000
,
1000
0010
0100
0000
0010
0100
0001
0000
,
0001
0010
0100
0000
0010
0100
1000
0000
,
1000
0100
0001
0000
0001
0100
1000
0000
,
2000
0000
3010
0100
0001
0100
0001
0000
,
0200
0000
0310
1000
0001
1000
0001
0000
,
0020
0000
0031
1000
0100
1000
0100
0000
,
2000
0000
3100
0010
0001
1000
0100
0000
,
1010
0000
0000
0101
0000
0000
1001
0000
,
2000
3002
2003
3000
,
0101
0000
0000
1010
0000
0000
0110
0000
,
0020
0230
0320
0030
,
1000
0000
0100
0100
0000
0010
0010
0000
,
2000
0100
0010
3001
,
0001
0000
0010
0010
0000
0100
0100
0000
,
2000
3010
2002
3003
,
1000
0100
1000
0000
0001
0010
0001
0000
,
2000
3100
0020
0031
,
1000
0100
0001
0000
0001
0100
1000
0000
,
2000
3010
0200
0301
,
1000
0010
1000
0001
1000
0010
1000
0000
,
0001
0010
0001
0100
0001
0010
0001
0000
,
1000
0100
1000
0100
1000
0100
1000
0000
,
0001
0100
0001
0100
0001
0100
0001
0000
,
1000
0100
0001
0000
1000
0100
0001
0000
,
0001
0010
1000
0000
0001
0010
1000
0000
,
1000
0001
0100
0000
0001
1000
0100
0000
,
1000
0001
0010
0000
0001
1000
0010
0000
,
2000
0000
3001
0000
1000
0001
1000
0000
,
0002
0000
1003
0000
0001
1000
0001
0000
,
0200
0000
0310
0000
0100
0010
0100
0000
,
0020
0000
0130
0000
0010
0100
0010
0000
,
0220
0330
0000
0000
;

//--------------- dance-single - ----------------
#NOTES:
     dance-single:
     :
     Hard:
     12:
     0,0,0,0,0:
0000
0000
0000
0000
,
0000
0000
0000
0000
0000
0000
0000
0000
0000
0000
0000
0010
0100
0000
0001
0000
,
1000
0000
0000
1000
0000
0000
1000
0000
0000
0000
0010
0100
0010
0100
0020
0000
,
1000
0000
0000
1000
0000
0000
1030
0000
0000
0000
0001
0100
0001
0100
0002
0000
,
0010
0000
0000
0010
0000
0000
0013
0000
0000
0000
0100
1000
0100
1000
0200
0000
,
0010
0000
0000
0010
0000
0000
0310
0000
0000
0000
0000
0001
0100
0000
0001
0000
,
0010
0000
0000
0100
0000
0000
1000
0000
0000
0000
0001
0010
0001
0100
0001
0000
,
1000
0000
0000
0100
0000
0000
0010
0000
0000
0000
0001
0100
0001
0010
0001
0000
,
0100
0000
0000
0010
0000
0000
1000
0000
0000
0000
0100
0010
0100
1000
0100
0000
,
1000
0000
0000
0010
0000
0000
0100
0000
0000
0000
0000
0001
1000
0000
0100
0000
,
0010
0000
0001
0000
0100
0000
0010
0000
1000
0000
0001
1000
0001
1000
0001
0000
,
0010
0000
0100
0000
1000
0000
0001
0000
0100
0000
0010
1000
0010
1000
0010
0000
,
0100
0000
0001
0000
1000
0000
0100
0000
0010
0000
0001
0100
0001
0100
0001
0000
,
0010
0000
0001
0000
1000
0000
0001
0000
0100
0000
0000
0001
1000
0000
0010
0000
,
0100
0000
0001
0000
0100
0000
0010
0000
1000
0000
0100
0010
0001
1000
0100
0000
,
0010
0000
0001
0000
1000
0000
0010
0000
0100
0000
0001
0010
0100
1000
0010
0000
,
0100
0000
0001
0000
0100
0000
0001
0000
1000
0000
0010
0100
0001
1000
0100
0000
,
0010
0000
0001
0000
0010
0000
0001
0000
1000
0000
0010
0100
0010
1000
0001
0000
,
1000
0010
0100
0002
0000
0013
0100
0000
,
1000
1100
0010
0011
,
0001
0020
0000
0230
0000
1300
0001
0000
,
1000
0100
0010
0000
0001
0100
0010
0000
,
1000
0001
1000
0020
0000
0130
0001
0000
,
1000
0011
0100
1010
,
1000
0020
0000
0230
0000
0301
1000
0000
,
0010
0000
0000
0100
0000
0000
0001
0000
0000
0000
0000
0000
0100
0000
0010
0000
0100
0000
0010
0000
0000
0000
0000
0000
,
1000
0100
0001
0100
1000
0010
0002
0000
,
0013
1000
0200
0000
0310
0001
0200
0000
,
0310
1000
0100
0010
0001
1000
0200
0000
,
0310
0001
2000
0000
3001
1000
0200
0000
,
0310
0001
1000
0010
1000
0001
0010
0100
,
0100
0001
0100
1000
0010
0001
0010
1000
,
0100
0010
0001
0100
0010
1000
0001
0100
,
0010
1000
0001
0010
0100
1000
0010
0100
,
0002
0000
0000
0000
0013
0000
0000
1000
0000
0000
1000
0000
0000
1000
0000
0000
,
0020
0000
0000
0000
0130
0000
0000
0001
0000
0000
0001
0000
0000
0001
0000
0000
,
2000
0000
0000
0000
3010
0000
0000
0100
0000
0000
0100
0000
0000
0100
0000
0000
,
0020
0000
0000
0000
1030
0000
0000
0100
0000
0000
0100
0000
0000
0100
0000
0000
,
0100
0010
1000
0001
1000
0000
0100
0000
1000
0000
0000
0100
0000
0000
0010
0000
,
0001
0010
0100
1000
0010
0000
0100
0000
0010
0000
0000
0100
0000
0000
0001
0000
,
0010
0100
0010
0001
0100
0000
0001
0000
1000
0000
0000
0001
0000
0000
0100
0000
,
0010
1000
0100
1000
0001
0000
0100
0000
0001
0000
0000
0010
0000
0000
0100
0000
,
2002
0000
3003
0000
;
