#TITLE:Walking on Fire;
#SUBTITLE:;
#ARTIST:Evolution;
#TITLETRANSLIT:;
#SUBTITLETRANSLIT:;
#ARTISTTRANSLIT:;
#GENRE:;
#CREDIT:;
#MUSIC:Walking on Fire.ogg;
#BANNER:Walking on Fire-bn.png;
#BACKGROUND:Walking on Fire-bg.png;
#CDTITLE:;
#SAMPLESTART:66.090;
#SAMPLELENGTH:12.900;
#SELECTABLE:YES;
#OFFSET:0.000;
#BPMS:0.000=138.000;
#STOPS:;
#DISPLAYBPM:138.000;
#BGCHANGES:;
#FGCHANGES:;

//--------------- dance-single - M. Puls ----------------
#NOTES:
     dance-single:
     M. Puls:
     Beginner:
     1:
     0.074,0.11,0.025,0,0:
0000
0000
0000
0000
,
0000
0000
0000
0000
,
0000
0000
0000
0000
,
0000
0000
0000
0000
,
0010
0000
0000
0000
,
0000
0000
0000
0000
,
0010
0000
0000
0000
,
0100
0000
0000
0000
,
0100
0000
0000
0000
,
0001
0000
0000
0000
,
0100
0000
0000
0000
,
0010
0000
0000
0000
,
0010
0000
0000
0000
,
0100
0000
0000
0000
,
0000
0000
0000
0000
,
0000
0000
0000
0000
,
0010
0000
0000
0000
,
0001
0000
0000
0000
,
0010
0000
0000
0000
,
0000
0000
0000
0000
,
0100
0000
0000
0000
,
0010
0000
0000
0000
,
0100
0000
0000
0000
,
0000
0000
0000
0000
,
0001
0000
0000
0000
,
0010
0000
0000
0000
,
0100
0000
0000
0000
,
0000
0000
0000
0000
,
1001
0000
0000
0000
,
0100
0000
0000
0000
,
0100
0000
0000
0000
,
0010
0000
0000
0000
,
0010
0000
0000
0000
,
1000
0000
0000
0000
,
0100
0000
0000
0000
,
1000
0000
0000
0000
,
0001
0000
0000
0000
,
0010
0000
0000
0000
,
0001
0000
0001
0000
,
0001
0000
0000
0000
,
1000
0000
1000
0000
,
1000
0000
0000
0000
,
0001
0000
0000
0000
,
0010
0000
0000
0000
,
0001
0000
0000
0000
,
1000
0000
0000
0000
,
0100
0000
0000
0000
,
1000
0000
0000
0000
,
0001
0000
1000
0000
,
0001
0000
0000
0000
,
0100
0000
0000
0000
,
0100
0000
0000
0000
,
0010
0000
0000
0000
,
0010
0000
0000
0000
,
1001
0000
0000
0000
,
0000
0000
0000
0000
,
0001
0000
0000
0000
,
0001
0000
0000
0000
,
1000
0000
0000
0000
,
1000
0000
0000
0000
,
0100
0000
0000
0000
,
0010
0000
0000
0000
,
0100
0000
0000
0000
,
0001
0000
0000
0000
,
1000
0000
0000
0000
,
0001
0000
0000
0000
,
1001
0000
0000
0000
;

//--------------- dance-single - K. Ward ----------------
#NOTES:
     dance-single:
     K. Ward:
     Easy:
     5:
     0.236,0.275,0.042,0.083,0:
0000
0000
0000
0000
,
0000
0000
0000
0000
,
0000
0000
0000
0000
,
0000
0000
0000
0000
,
0010
0001
0100
0010
,
0001
0010
1000
0001
,
0010
0001
0100
0010
,
0001
0010
1000
0000
,
0010
0001
0100
0010
,
0001
0010
1000
0001
,
0011
0000
0110
0000
,
1001
0000
0000
0110
,
0010
0100
0010
1000
,
0010
0100
0001
1000
,
0100
0100
0000
0001
,
0000
0001
0000
1000
,
0010
0100
0001
1000
,
0010
0010
0100
0001
,
0001
0001
0000
0010
,
0000
0010
0000
0010
,
0010
0100
0010
1000
,
0010
0100
0010
1000
,
0001
0001
0000
0010
,
0000
0010
0000
0001
,
0010
0100
0100
1000
,
0010
0010
0100
0001
,
0000
0000
0000
0002
0000
0000
0000
0000
,
0003
0000
0001
0100
,
0002
0000
0000
0000
0000
0000
0000
0003
,
0200
0000
0000
0301
,
2000
0000
0000
3001
,
0200
0000
0000
0301
,
0002
0000
0000
0000
0000
0000
0000
0003
,
0200
0000
0000
0301
,
2000
0000
0000
3001
,
0200
0000
0000
0301
,
0011
0000
0000
0000
,
0010
0001
1000
0001
,
0010
0001
0000
0001
,
1000
0100
0000
0001
,
1000
0100
0000
0001
,
0100
1000
0000
1000
,
0010
0001
0000
0001
,
1000
0100
0000
0001
,
1000
0100
0000
0001
,
0100
1000
0000
2000
,
3010
0001
0000
0001
,
1000
0100
0000
0001
,
1000
0100
0000
0001
,
0100
1000
0000
1000
,
0010
0001
0000
0001
,
1000
0100
0000
0001
,
1000
0100
0000
0001
,
0100
1000
0000
0010
,
0010
0001
1000
1000
,
0001
0010
0001
0001
,
1000
0001
1000
1000
,
0010
0000
1000
0000
,
0001
0010
0001
0001
,
0100
0001
1000
0001
,
0010
0001
0100
0010
,
1000
0000
1000
0000
,
0010
0000
0100
0000
,
0010
0000
0100
0000
,
0001
0000
1000
0000
,
0001
1000
1000
0001
,
1000
0000
0000
0000
;

//--------------- dance-single - K. Ward ----------------
#NOTES:
     dance-single:
     K. Ward:
     Medium:
     6:
     0.324,0.33,0.042,0.167,0:
0000
0000
0000
0000
,
0000
0000
0000
0000
,
0000
0000
0000
0000
,
0000
0000
0000
0000
,
0001
0000
0100
0000
0002
0000
0000
0103
,
0010
0000
1000
0000
0020
0000
0000
1030
,
0001
0000
0100
0000
0002
0000
0000
0103
,
0001
1000
0000
0000
,
1000
0000
0010
0000
2000
0000
0000
3010
,
0100
0000
0001
0000
0200
0000
0000
0301
,
1001
0000
0110
0000
,
1000
0001
0100
0001
,
1000
1000
0001
0010
,
0001
0000
1000
0000
0100
0000
0010
2000
,
0000
3010
0000
0000
0000
0000
0100
0000
,
0000
0100
0000
0010
,
1000
0100
0010
0001
,
1000
0000
0100
0000
0010
0000
0001
0200
,
0000
0301
0000
0000
0000
0000
0001
0000
,
0000
1000
0010
1000
,
1000
1000
0001
0010
,
0001
0000
1000
0000
0100
0000
0010
2000
,
0000
3010
0000
0000
0000
0000
0100
0000
,
0000
0100
0000
0010
,
1000
0100
0010
0001
,
1000
0100
0010
0002
,
0000
0000
0003
0110
0000
0000
0000
0000
,
1000
0001
0100
0010
,
1000
0010
2000
0000
0000
3000
0100
0000
,
0001
0100
0002
0000
0000
0003
0010
0000
,
0100
1000
0200
0000
0000
0300
1000
0000
,
0010
0100
0020
0000
0000
0030
1000
0000
,
1000
0010
2000
0000
0000
3000
0100
0000
,
0001
0100
0002
0000
0000
0003
0010
0000
,
0100
1000
0200
0000
0000
0300
1000
0000
,
0010
0100
0020
0000
0000
0030
0100
0000
,
1001
0000
0000
0000
,
0001
0100
0010
1000
,
1000
0010
1000
0000
0010
0000
0100
0000
,
0001
0100
0001
0000
0010
0000
0010
0000
,
0100
1000
0100
0000
1000
0000
1000
0000
,
0010
0100
0010
0000
1000
0000
0001
0000
,
1000
0010
1000
0000
0010
0000
0100
0000
,
0001
0100
0001
0000
0010
0000
0010
0000
,
0100
1000
0100
0000
1000
0000
1000
0000
,
0010
0100
0010
0000
1000
0000
0100
0000
,
1000
0010
1000
0000
0010
0000
0100
0000
,
0001
0100
0001
0000
0010
0000
0010
0000
,
0100
1000
0100
0000
1000
0000
1000
0000
,
0010
0100
0010
0000
1000
0000
0001
0000
,
1000
0010
1000
0000
0010
0000
0100
0000
,
0001
0100
0001
0000
0010
0000
0010
0000
,
0100
1000
0100
0000
1000
0000
1000
0000
,
0010
0100
0010
0100
0010
0000
1000
0000
,
0001
0100
0001
1000
,
0100
1000
0010
0100
,
0001
0100
0001
1000
,
0100
0010
0010
0100
,
1000
0010
1000
0001
,
0010
0001
0100
0010
,
1000
0010
1000
0001
,
0010
0100
0100
0010
,
0001
0000
0100
0000
0002
0000
0000
0103
,
0010
0000
1000
0000
0020
0000
0000
1030
,
0001
0000
0100
0000
0002
0000
0000
0103
,
0001
1100
0000
0001
,
1000
0000
0000
0000
;

//--------------- dance-single - K. Ward ----------------
#NOTES:
     dance-single:
     K. Ward:
     Hard:
     11:
     0.379,0.412,0.217,0.117,0.142:
0000
0000
0000
0000
,
0000
0000
0000
0000
,
0000
0000
0000
0000
,
0000
0000
0000
0000
,
1000
0000
0001
0000
0100
0010
1000
0000
,
0100
0000
0010
0000
0100
0010
0001
0000
,
1000
0000
0001
0000
0100
1000
0100
0000
,
0010
0010
0000
0001
,
1000
0000
0010
0000
0100
0001
0010
0000
,
0100
0000
0010
0000
0001
1000
0001
0000
,
1100
0000
0011
0000
,
0110
0000
0000
0101
0000
0000
0011
0000
0000
0000
0000
0000
0000
0000
0000
0000
,
1000
0010
0001
0010
0100
0001
0010
0000
,
0100
0010
0100
1000
0010
0000
0100
0001
,
0000
1000
0000
0000
0000
0000
0100
0000
,
0000
0000
0000
0000
1000
0000
0000
0000
0000
0010
0100
0000
0001
0000
0000
0000
,
0010
0100
0010
0000
0001
1000
0001
0000
,
0010
0100
0001
0000
0100
1000
0100
0010
,
0000
0101
0000
0000
0000
0000
0110
0000
,
0000
0000
1001
0000
0000
0010
0101
0000
,
0010
0100
0010
0001
0100
1000
0100
0000
,
0010
0100
0001
0010
0100
0010
0001
1000
,
0000
0001
0000
0000
0000
0000
0110
0000
,
0000
0000
1100
0000
0000
0010
0101
0000
,
1000
0100
0001
0000
0001
0100
1000
0000
,
0010
0100
0010
0001
0010
0100
0001
0000
,
0000
0000
0000
1000
0000
0000
0000
0000
,
0000
0000
0000
0000
0100
1000
0100
0001
,
0021
0000
0000
0000
,
0230
0000
0000
0000
,
2300
0000
0000
0000
,
3002
0000
0000
1003
,
2100
0000
0000
3100
,
0021
0000
0000
0130
,
2002
0000
0000
0000
,
3003
0000
0000
0000
,
0110
0000
0000
0000
,
0001
1000
0000
0001
1000
0000
0001
1000
0000
0001
1000
0000
0000
0000
0000
0000
,
0010
0100
0000
0000
0001
0000
0000
0010
0000
0000
0001
0000
0100
0000
1000
0000
,
0100
0010
0000
0000
0010
0000
0000
0100
0000
0000
0001
0000
0010
0000
0100
0000
,
0010
0100
0000
0000
0010
0000
0000
0100
0000
0000
1000
0000
0010
0000
0001
0000
,
0010
0100
0000
0000
0001
0000
0000
1000
0000
0000
0100
0000
0010
0000
0100
0000
,
1000
0100
0000
0000
0010
0000
0000
0100
0000
0000
1000
0000
0010
0000
0100
0000
,
0010
0001
0000
0000
0010
0000
0000
0100
0000
0000
0001
0000
1000
0000
0001
0000
,
0010
0100
0000
0000
0010
0000
0000
0100
0000
0000
1000
0000
0010
0000
0100
0000
,
0001
0100
1000
0100
,
0001
1000
0000
0000
0100
0000
0000
0010
0000
0000
0100
0000
1000
0000
1000
0000
,
0010
0001
0000
0000
0010
0000
0000
0001
0000
0000
0010
0000
0100
0000
0100
0000
,
0001
0010
0000
0000
0001
0000
0000
1000
0000
0000
0100
0000
0010
0000
0010
0000
,
0100
0010
0000
0000
0100
0000
0000
1000
0000
0000
0010
0000
0100
0000
0001
0000
,
0010
0100
0000
0000
0010
0000
0000
0100
0000
0000
1000
0000
1000
0000
1000
0000
,
0010
0100
0000
0000
0001
0000
0000
0010
0000
0000
0001
0000
0001
0000
0001
0000
,
0100
1000
0000
0000
0100
0000
0000
0010
0000
0000
1000
0000
1000
0000
1000
0000
,
0100
1010
0000
0001
,
2000
0000
3100
0000
0000
0110
0000
0000
,
0002
0000
0013
0000
0000
0110
0000
0000
,
0200
0000
0310
0000
0000
0101
0000
0000
,
0020
0000
0130
0000
0000
1010
0000
0000
,
0100
0010
0100
0000
0000
1100
0000
0000
,
0200
0000
0310
0000
0000
0011
0000
0000
,
1000
0010
0001
0000
0000
0011
0000
0000
,
0010
0100
0001
0000
0010
0100
0010
0000
,
1001
1000
0100
1000
,
0001
1000
0010
0100
,
0001
1000
0100
0010
,
0100
1000
0000
0020
,
0031
0000
0000
0000
;

//--------------- dance-single - C. Foy ----------------
#NOTES:
     dance-single:
     C. Foy:
     Challenge:
     15:
     0.8,0.771,0.025,0.008,1:
0000
0000
0000
0000
,
0000
0000
0000
0000
,
0000
0000
0000
0000
,
0000
0000
0000
0000
,
1001
0000
1000
0001
1000
0000
0001
1000
0001
0000
0100
0001
0100
0000
0001
0100
,
0001
0000
0010
0100
0010
0000
0100
0010
0100
0000
1000
0010
1000
0000
0010
1000
,
0010
0000
1000
0100
1000
0000
0100
1000
0100
0000
1000
0010
1000
0000
0010
1000
,
0010
0000
0100
0001
0100
0000
0001
0100
0001
0000
1000
0001
1000
0000
0001
1000
,
0001
0000
0100
0001
0100
0000
0001
0100
0001
0000
1000
0010
1000
0000
0010
1000
,
0010
0000
0100
0010
0100
0000
0010
0100
0010
0000
1000
0100
1000
0000
0100
1000
,
0100
0000
1000
0000
,
0100
0000
0000
0001
0000
0000
0100
0000
0000
1000
0000
0000
0010
0000
0001
0000
,
0010
0000
1000
0001
0100
0000
0001
1000
0100
0000
1000
0010
0100
0000
0001
0010
,
0100
0000
1000
0001
0010
0000
0001
0100
0010
0000
1000
0010
0100
0000
0001
0100
,
0010
0000
0100
0010
1000
0000
0010
1000
0100
0000
1000
0001
0100
0000
0010
0100
,
0001
0000
0100
0001
1000
0010
1000
0001
0100
0000
0100
0010
1000
0000
0100
0010
,
0001
0000
0100
0001
1000
0000
0001
0010
0100
0000
0010
0100
1000
0000
0010
0100
,
0001
0000
0010
0001
1000
0000
0001
1000
0010
0000
0100
0010
1000
0000
0001
1000
,
0010
0000
1000
0001
0010
0000
0001
0100
0010
0000
1000
0100
0010
0000
0001
1000
,
0100
0010
0001
0010
0001
0000
0001
0100
0010
0000
1000
0010
0100
0000
0010
0100
,
0001
0000
0100
0001
0010
0000
0001
1000
0010
0000
0100
0010
1000
0000
0010
1000
,
0001
0000
0100
0001
1000
0000
0010
0100
0001
0000
0010
0100
1000
0000
0010
0100
,
0001
0000
1000
0010
0100
0000
0001
0010
0100
0000
0010
0100
1000
0000
0100
1000
,
0001
0100
0001
1000
0010
0000
0010
0100
0001
0000
1000
0001
1000
0000
0001
1000
,
0100
0000
1000
0010
0100
0000
0001
0010
0100
0000
1000
0001
0010
0000
0001
0100
,
0010
0000
1000
0010
0100
0000
0001
0100
0010
0000
0100
0010
1000
0000
0010
1000
,
0100
0000
1000
0001
0100
0000
0010
0100
0001
0000
0100
0001
1000
0000
0010
1000
,
0001
0000
0100
0010
1000
0000
0100
0010
0001
0010
0100
0000
1000
0000
0010
0000
,
1000
0100
0010
0001
1000
0010
0100
0001
0000
0100
0010
1000
0000
0001
1000
0010
,
0100
0001
0100
0010
1000
0001
0010
0100
0000
1000
0001
0100
0000
0000
0001
0010
,
0000
0001
0100
0000
0010
1000
0000
0100
0000
0000
0010
0001
0000
0000
0100
0010
,
0000
1000
0100
0000
0010
0001
0000
0100
0000
0000
0001
1000
0010
0000
0100
0001
,
0000
0010
0001
1000
0001
0010
0000
0001
0000
0000
1000
0100
1000
0000
0001
0100
,
0010
1000
0000
0000
0100
1000
0000
0010
0000
0000
0100
0010
0100
0000
0001
0000
,
0000
0010
0000
0000
0000
0100
0000
0000
0000
0000
0000
0000
0000
0000
0000
0000
,
0000
1000
0000
0000
0010
0100
0000
0001
0000
0000
0010
0000
0000
0000
0000
0000
,
1001
0000
0000
0000
,
0001
0100
0000
0010
1000
0000
0100
0010
0000
0001
0100
0010
1000
0010
0100
0000
,
0001
0010
0100
1000
0001
0100
0010
1000
0000
0010
0100
0001
0000
1000
0001
0100
,
0010
1000
0010
0100
0001
1000
0100
0010
0000
0001
1000
0010
0000
0000
1000
0100
,
0000
1000
0010
0000
0100
0001
0000
0010
0000
0000
0100
1000
0000
0000
0010
0100
,
0000
0001
0010
0000
0100
1000
0000
0010
0000
0000
1000
0001
0100
0000
0010
1000
,
0000
0100
1000
0001
1000
0100
0000
1000
0000
0000
0001
0010
0001
0000
1000
0010
,
0100
0001
0000
0000
0010
0001
0000
0100
0000
0000
0010
0100
0010
0000
1000
0001
,
0100
0010
0100
0000
0001
1000
0000
0100
0010
0000
0001
0100
0010
0000
1000
0010
,
0000
1000
0100
0000
1000
0001
0000
0100
0000
0000
0001
0100
0010
0000
1000
0001
,
1000
0100
0010
0001
1000
0010
0100
0001
0000
0100
0010
1000
0000
0001
1000
0010
,
0100
0001
0100
0010
1000
0001
0010
0100
0000
1000
0001
0100
0000
0000
0001
0010
,
0000
0001
0100
0000
0010
1000
0000
0100
0000
0000
0010
0001
0000
0000
0100
0010
,
0000
1000
0100
0000
0010
0001
0000
0100
0000
0000
0001
1000
0010
0000
0100
0001
,
0000
0010
0001
1000
0001
0010
0000
0001
0000
0000
1000
0100
1000
0000
0001
0100
,
0010
1000
0000
0000
0100
1000
0000
0010
0000
0000
0100
0010
0100
0000
0001
0000
,
0000
0010
0000
0000
0000
0100
0000
0000
0000
0000
0000
0000
0000
0000
0000
0000
,
0000
1000
0000
0000
0010
0100
0000
0001
0000
0000
0010
0000
0000
0000
0000
0000
,
1001
0000
1000
0010
0100
0000
0010
1000
0100
0000
0010
0001
0100
0000
0010
1000
,
0001
0000
0010
0001
0100
0000
0010
1000
0100
0000
1000
0001
0100
0000
0010
1000
,
0100
0000
1000
0001
1000
0000
0001
1000
0001
0000
1000
0010
0100
0000
0001
0010
,
0100
0000
0010
0001
0100
0000
0010
0100
0001
1000
0001
0100
0010
0000
0010
1000
,
0001
0000
0010
0100
0010
0000
0100
0001
0100
0000
0010
0001
0100
0000
0010
1000
,
0100
0000
0010
0001
0100
0000
0010
0100
0010
0000
0100
1000
0100
0000
0010
1000
,
0001
0000
0100
0010
1000
0000
0010
0001
0010
0000
0100
0001
1000
0000
0100
0010
,
0001
0000
0010
1000
0010
0000
0000
0000
0010
0001
0100
0000
1000
0000
0100
0000
,
0010
0000
1000
0010
1000
0000
0100
1000
0001
0000
0100
0010
0100
0000
0010
0001
,
0010
0000
0100
0001
1000
0000
0010
0100
0001
0000
0010
1000
0010
0000
0100
0010
,
0001
0000
0100
0010
1000
0000
0100
0010
1000
0000
0010
0001
0100
0000
0010
0001
,
0010
0000
1000
0100
0010
1000
0010
0100
1000
0010
0100
0010
0001
0010
1000
0001
,
2000
3000
0000
0000
0000
0000
0000
0000
;

//--------------- dance-double - M. Emirzian ----------------
#NOTES:
     dance-double:
     M. Emirzian:
     Easy:
     3:
     0.229,0.247,0.042,0.133,0:
00000000
00000000
00000000
00000000
,
00000000
00000000
00000000
00000000
,
00000000
00000000
00000000
00000000
,
00000000
00000000
00000000
00000000
,
10000000
00000000
00010000
00000000
,
01000000
00000000
00010000
00000000
,
00100000
00000000
00010000
00000000
,
01000000
00000000
00001000
00000000
,
00010000
00000000
00000100
00000000
,
00001000
00000000
00000010
00000000
,
00001000
00000000
00000100
00000000
,
00000010
00000000
00000001
00000000
,
00001000
00000100
00000020
00000030
,
00000010
00000100
00001000
00000000
,
00000010
00001000
00000200
00000300
,
00000100
00001000
00000010
00000000
,
00010000
00001000
00000020
00000030
,
00000010
00001000
00020000
00030000
,
00001000
01000000
00200000
00300000
,
00100000
01000000
00001000
00000000
,
00010000
01000000
00200000
00300000
,
00100000
01000000
00010000
00000000
,
00010000
01000000
20000000
30000000
,
10000000
01000000
00010000
00000000
,
01000000
00100000
00020000
00030000
,
00001000
00010000
00000100
00000000
,
00001000
00000000
00000010
00000100
,
00000001
00000100
00000010
00000100
,
00000002
00000000
00000000
00000103
,
00000200
00000000
00000000
00000310
,
00020000
00000000
00000000
00031000
,
00200000
00000000
00000000
00310000
,
02000000
00000000
00000000
03100000
,
20000000
00000000
00000000
31000000
,
00200000
00000000
00000000
00301000
,
00010000
00000000
00000010
00000000
,
00000200
00000000
00000000
00000000
,
00000301
00000001
00000001
00000001
,
00000001
00000100
00000010
00010000
,
00001000
00010000
00000100
00010000
,
00001000
01000000
00010000
10000000
,
00010000
00100000
01000000
10000000
,
00010000
01000000
00001000
00010000
,
00001000
00100000
00001000
00010000
,
00000100
00001000
00000010
00000100
,
00000001
00000010
00000100
00001000
,
00000001
00000000
00000100
00000010
,
00001000
00000100
00011000
00000000
,
00001000
00000000
01000000
00010000
,
01000000
00001000
01010000
00000000
,
00100000
00000000
10000000
00100000
,
01000000
00010000
01001000
00000000
,
00010000
00000000
00001000
00000000
,
00010000
00000100
00001000
00000010
,
00010010
00000000
00001000
00000000
,
00000100
00000000
00000010
00000000
,
00000001
00000000
00000001
00000000
,
00000100
00000000
00000100
00000000
,
00000010
00001000
00000010
00010000
,
00001000
00010000
00001000
00000000
,
01000000
00010000
10000000
01000000
,
00010000
01000000
10000000
00000000
,
01000000
00000000
00000000
00000000
,
00100000
00000000
00000000
00000000
,
00001000
00000000
00000000
00000000
,
00000100
00000000
00000100
00000100
,
00001001
00000000
00000000
00000000
;

//--------------- dance-double - M. Emirzian ----------------
#NOTES:
     dance-double:
     M. Emirzian:
     Medium:
     6:
     0.344,0.357,0.158,0.025,0:
00000000
00000000
00000000
00000000
,
00000000
00000000
00000000
00000000
,
00000000
00000000
00000000
00000000
,
00000000
00000000
00000000
00000000
,
10000000
10000000
00000000
00010000
00000000
01000000
00000000
00010000
,
00000000
01000000
00000000
00001000
00000000
00010000
00000000
00001000
,
00000000
00000010
00000000
00001000
00000000
00000010
00000000
00000001
,
00000000
00000100
00000000
00000010
00000000
00001000
00000000
00000100
,
00000000
00010000
00000000
00001000
00000000
00010000
00000000
01000000
,
00000000
10000000
00000000
00100000
00000000
01000000
00000000
00010000
,
01010000
00000000
01001000
00000000
,
00011000
00010000
00000100
00001010
,
00000100
00000000
00000001
00000000
00000100
00000010
00001000
00000000
,
00000100
00000000
00000010
00001000
00010000
00001000
01000000
00000000
,
00010000
00000000
10000000
00000000
01000000
00100000
00010000
00000000
,
10000000
01000000
00100000
00000000
00010000
00000000
01000000
00000000
,
00001000
00000000
00010000
00000000
00000100
00001000
00000010
00000000
,
00001000
00000010
00000100
00000101
,
00001001
00000000
00000100
00000010
,
00000100
00000000
00001000
00000000
00000010
00000100
00000010
00000000
,
00001000
00000000
00000100
00000000
00010000
00001000
01000000
00000000
,
00010000
00000000
10000000
01000000
00010000
00001000
00010000
00000000
,
00001000
00000000
01000000
00000000
00100000
10000000
01000000
00000000
,
10000000
01000000
00100000
00000000
00010000
10000000
01000000
00000000
,
00100000
00001000
00010000
00000000
00000010
00000000
00001001
00000000
,
00001000
00000000
00000100
00000000
00000010
00000001
00000100
00000000
,
00001010
00000100
00000100
00000000
,
00000100
00000000
00000100
00001000
,
00010000
00001000
00010000
00010000
,
00100000
10000000
01000000
01000000
,
00110000
01000000
01000000
00100000
,
01010000
00100000
00100000
00001000
,
00011000
00000100
00000100
00001000
,
00001010
00000100
00000100
00000001
,
00001001
00000010
00000010
00000100
,
00010100
00010000
00010000
00001000
,
00020000
00100000
00001000
00130000
,
10000000
00000000
00100000
00000000
01000000
00010000
10000000
01000000
,
00010000
00000000
00001000
00000000
00010000
00000010
00001000
00000000
,
00000100
00000000
00000010
00000001
00000100
00000000
00001000
00000000
,
00000100
00000001
00000010
00000000
00000100
00000000
00010000
00001000
,
00100000
00000000
01000000
00010000
01000000
10000000
00010000
00000000
,
01000000
00000000
00100000
00010000
00001000
00000000
01000000
00100000
,
10000000
00000000
01000000
00010000
00001000
00000010
00000100
00000000
,
00001000
00000000
00000001
00000100
00001000
00000000
00000100
00000001
,
00000010
00000000
00000100
00000000
00010000
00001000
01000000
00000000
,
00100000
10010000
11000000
10000000
,
00100000
00010000
00001000
00000000
00100000
00000000
01000000
00010000
,
00001000
00000010
00000001
00000000
00000100
00000000
00000010
00000000
,
00000100
00000010
00001000
00000000
00000100
00000010
00001000
00010000
,
01000000
10000000
00110000
10010000
,
01000000
00000000
00100000
00001000
00010000
00000100
00000010
00000000
,
00000001
00000001
00000100
00000100
,
00000220
00000000
00000000
00000330
,
00000001
00000000
00000100
00000000
00000000
00000010
00000000
00000000
,
00010000
00000000
00001000
00000000
00000000
00010000
00000000
00000000
,
01000000
00000000
10000000
00000000
00000000
00100000
00000000
00000000
,
01000000
00000000
00010000
00000000
00000000
01000000
00000000
00000000
,
00100000
00000000
10000000
00000000
00000000
01000000
00000000
00000000
,
00010000
00000000
00001000
00000000
00000000
00000100
00000000
00000000
,
00000001
00000000
00000010
00000000
00000000
00000100
00000000
00000000
,
00001000
00000000
00000001
00000000
00000000
00000100
00000000
00000000
,
00001000
00000000
00010000
00000000
,
00100000
00000000
10000000
00000000
,
10000000
00000000
01000000
00000000
,
00100000
00000000
00100000
00000000
00001000
00000000
00010000
00000010
,
00001000
00000000
00000000
00000000
;

//--------------- dance-double - M. Emirzian ----------------
#NOTES:
     dance-double:
     M. Emirzian:
     Hard:
     9:
     0.592,0.55,0.408,0.125,0.287:
00000000
00000000
00000000
00000000
,
00000000
00000000
00000000
00000000
,
00000000
00000000
00000000
00000000
,
00000000
00000000
00000000
00000000
,
00000101
00001001
00000000
00001100
00000000
00010010
00000000
00011000
,
00000000
01001000
00000000
01100000
00000000
10010000
00000000
01100000
,
00000000
01001000
00000000
00011000
00000000
00010100
00000000
00001010
,
00000000
00000110
00000000
00001001
00000000
00000110
00000000
00010100
,
00000000
00011000
00000000
01100000
00000000
10010000
00000000
01100000
,
00000000
00101000
00000000
00010010
00000000
00001100
00000000
00001001
,
00000011
00000000
00001100
00000000
00000010
00001000
00000100
00000000
,
00011000
00000000
00000000
00101000
00000000
00000000
00011000
00000000
00000000
00010100
00000000
00000000
00011000
00000000
01001000
00000000
,
00010000
01000000
10000000
00000000
10000000
00010000
01000000
00000000
,
10100000
00000000
10000000
01000000
00010000
00001000
00000100
00000000
,
00000101
00000000
00002010
00000000
00000100
00000100
00003100
00000020
,
00000001
00000001
00000031
00000200
00001000
00001000
00001300
00010000
,
00100000
00000000
10010000
00000000
11000000
00000000
10000000
01000000
,
00010000
00000000
11000000
00000000
10000000
00100000
00010000
00001000
,
01000000
00100000
00010000
00001000
00000010
00000100
00001000
00000020
,
00000100
00000100
00000130
00000002
00000010
00000010
00000013
00000000
,
00001100
00000000
00000010
00000001
00000100
00000000
00000010
00000100
,
00001000
00010000
01000000
20000000
00100000
00100000
30100000
01000000
,
00010000
01000000
00100000
00010000
00001000
00000000
00100000
01000000
,
00010000
00001000
00000100
00000002
00000010
00000010
00000013
00000100
,
00001000
00000000
00001000
00000001
00000100
00000000
00001000
00000100
,
00000001
00000100
00001000
00010000
01000000
10000000
00100000
01000000
,
00002000
00010000
00010000
00013000
00200000
10000000
10000000
10300000
,
01000000
10000000
00100000
00010000
00001000
00000010
00000001
00000100
,
00000010
00000000
00001000
00000000
00000001
00000100
00000000
00000010
00000000
00000000
00000100
00000000
00000001
00000000
00000010
00000000
,
00000100
00000000
00001000
00000000
00000010
00010000
00000000
00001000
00000000
00000000
00010000
00000000
01000000
00000000
00100000
00000000
,
00010000
00000000
10000000
00000000
00100000
01000000
00000000
00100000
00000000
00000000
10000000
00000000
01000000
00000000
00100000
00000000
,
00010000
00000000
01000000
00000000
00001000
00010000
00000000
00001000
00000000
00000000
00000010
00000000
00000100
00000000
00001000
00000000
,
00000010
00000000
00000100
00000000
00000001
00000010
00000000
00000100
00000000
00000000
00001000
00000000
00000001
00000000
00000100
00000000
,
00001000
00000000
00010000
00000000
00001000
01000000
00000000
00100000
00000000
00000000
01000000
00000000
00010000
00000000
00100000
00000000
,
01000000
00000000
10000000
00000000
00100000
00000000
00000000
10000000
00000000
00000000
01000000
00000000
00100000
00000000
00001000
00000000
,
00000000
00010000
00000000
00000000
00000010
00000000
00000000
00000100
00000000
00000000
00000001
00000000
00000010
00000000
00000100
00000000
,
00001001
00000000
00000000
00000020
00000000
00000000
00002000
00000000
00000000
00010000
00000030
00000000
,
00013000
00000000
00000000
00000000
00100000
00000000
00000000
00000000
10000000
00000000
01000000
00100000
00000000
00001000
01000000
00000000
,
00100000
00000000
10000000
00000000
01000000
00100000
00000000
00001000
00000000
00010000
00000010
00000000
00001000
00000000
00000100
00000000
,
00000000
00000010
00000001
00000000
00000100
00000010
00000000
00010000
00000000
00000100
00010000
00000000
00001000
00000000
01000000
00000000
,
00000000
00100000
10000000
00000000
01000000
00100000
00000000
00001000
00000000
01000000
00010000
00000000
10000000
00000000
01000000
00000000
,
00000000
00010000
00000100
00000000
00000010
00000001
00000000
00000100
00000000
00000010
00010000
00000000
00000100
00000000
00001000
00000000
,
00000000
00000010
00010000
00000000
00001000
01000000
00000000
00100000
00000000
10000000
01000000
00000000
00100000
00000000
00010000
00000000
,
00000000
01000000
00001000
00000000
00010000
00000010
00000000
00010000
00000000
00001000
00010000
00000000
00001000
00000000
01000000
00000000
,
00000000
00100000
10000000
00000000
00010000
01000000
00000000
00001000
00000000
00010000
00000100
00000000
00001000
00000000
00000010
00000000
,
00000000
00000100
00000001
00000000
00000010
00000100
00000000
00010000
00000000
00000010
00001000
00000000
00000100
00000000
00010000
00000000
,
00001000
00000000
01000000
00000000
00100000
10000000
00000000
01000000
00000000
00010000
01000000
00000000
00100000
00000000
00001000
00000000
,
00000000
00010000
00000100
00000000
00000010
00000001
00000000
00000010
00000000
00000100
00001000
00000000
00000010
00000000
00000100
00000000
,
00000000
00000001
00000100
00000000
00000010
00010000
00000000
00001000
00000000
00010000
00001000
00000000
01000000
00000000
00100000
00000000
,
00000000
01000000
00010000
00000000
00100000
01000000
00000000
10000000
00000000
01000000
00100000
00000000
00010000
00000000
01000000
00000000
,
00000000
00100000
01000000
00000000
00001000
00010000
00000000
00000100
00000000
00001000
00000001
00000000
00000010
00000000
00000100
00000000
,
00001001
00000000
00011000
00000000
00020000
00001000
00001000
00031000
,
00000010
00000100
00001000
00000001
00000010
00001000
00000010
00000001
,
00000100
00000010
00010000
00000200
00000010
00000010
00000310
00001000
,
00010000
00100000
01000000
00010000
00100000
01000000
00000000
10000000
,
00010000
01000000
10000000
01000000
00010000
00100000
00000000
01000000
,
00010000
00001000
00000200
00000001
00000001
00000301
00000000
00000010
,
00000001
00000100
00000001
00000010
00000100
00010000
00000000
00000010
,
00000100
00001000
00010000
01000000
00100000
01000000
00000000
10000000
,
00100000
00010000
00200000
10000000
10000000
10300000
00000000
01000000
,
00100000
00001000
00010000
01000000
00010000
00001000
00000000
00000010
,
00000001
00001000
00000010
00000100
00000001
00000010
00000000
00000100
,
00001100
00000010
00000100
00000001
,
00001100
00010000
00001000
01000000
,
00110000
00000000
11000000
00000000
00100000
00010000
00001000
00000000
,
00000010
00000000
00001000
00000000
01010000
00000000
00001000
00000010
,
00001001
00000000
00000000
00000000
;

//--------------- dance-double - M. Emirzian ----------------
#NOTES:
     dance-double:
     M. Emirzian:
     Challenge:
     9:
     0.696,0.634,0.208,0.075,0.704:
00000000
00000000
00000000
00000000
,
00000000
00000000
00000000
00000000
,
00000000
00000000
00000000
00000000
,
00000000
00000000
00000000
00000000
,
00100000
00000000
10000000
01000000
00000000
00000000
01000000
00010000
00000000
00000000
00010000
00000010
00000000
00000000
00000010
00000100
,
00000000
00000000
00000100
00000001
00000000
00000000
00000001
00000010
00000000
00000000
00000010
00001000
00000000
00000000
00001000
00100000
,
00000000
00000000
00100000
10000000
00000000
00000000
10000000
00100000
00000000
00000000
00100000
00001000
00000000
00000000
00001000
00010000
,
00000000
00000000
00010000
01000000
00000000
00000000
01000000
00010000
00000000
00000000
00010000
00001000
00000000
00000000
00001000
00000010
,
00000000
00000000
00000010
00000001
00000000
00000000
00000001
00000100
00000000
00000000
00000100
00001000
00000000
00000000
00001000
01000000
,
00000000
00000000
01000000
10000000
00000000
00000000
10000000
01000000
00000000
00000000
01000000
00001000
00000000
00000000
00010000
00001000
,
00020000
00000000
00000000
00002000
00000000
00000000
00000100
00033000
00000000
00000100
00000000
00000000
,
00000011
00000000
00000000
00000110
00000000
00000000
00010100
00000000
00000000
00011000
00000000
00000000
01001000
00000000
01010000
00000000
,
00100000
10000000
01000000
00000000
00100000
00000000
00010000
00000000
01000000
00100000
10000000
00000000
00010000
00000000
01000000
00000000
,
00100000
10000000
01000000
00000000
00100000
00000000
00001000
00000000
00010000
00000010
00010000
00000000
00001000
00000000
00010000
00000000
,
00000100
00000000
00000010
00000001
00000100
00000000
00000010
00001000
00000100
00000000
00000010
00000001
00000100
00000000
00000010
00000000
,
00001000
00000000
00000001
00000100
00000010
00000000
00000100
00000001
00000100
00000000
00001000
00000000
00010000
00000000
00011000
00000000
,
00001000
01000000
00001000
00000000
00100000
00000000
00010000
00000000
01000000
00100000
10000000
00000000
00010000
00000000
01000000
00000000
,
00100000
10000000
01000000
00000000
00010000
00000000
01000000
00000000
00100000
00001000
00100000
00000000
00001000
00000000
00010000
00000000
,
00000010
00000000
00000100
00000001
00000010
00000000
00000100
00001000
00000010
00000000
00000100
00000001
00000010
00000000
00000100
00000000
,
00001000
00000000
00000010
00001000
00000100
00000000
00010000
00001000
01000000
00000000
00010000
00000000
00100000
00000000
01000000
00000000
,
10000000
00010000
00100000
00000000
01000000
00000000
00100000
00000000
00010000
10000000
01000000
00000000
00100000
00000000
01000000
00000000
,
10000000
01000000
00100000
00000000
00010000
00000000
01000000
00000000
00001000
00010000
00000010
00000000
00010000
00000000
00000100
00000000
,
00001000
00000000
00000010
00001000
00000100
00000000
00000010
00000001
00000100
00000000
00000010
00001000
00000100
00000000
00000010
00000000
,
00000001
00000000
00000100
00000010
00001000
00000000
00000100
00010000
00001000
00000000
00100000
00000000
01000000
00000000
10000000
00000000
,
00010000
00100000
01000000
00000000
00100000
00000000
01000000
00000000
10000000
00100000
10000000
00000000
01000000
00000000
00010000
00000000
,
00001000
00100000
00001000
00000000
01000000
00000000
00100000
00000000
01000000
00001000
01000000
00000000
00100000
00000000
10000000
00000000
,
01000000
00000000
00100000
00010000
01000000
00000000
00100000
10000000
01000000
00000000
00100000
00010000
01000000
00000000
00001000
00000000
,
00010000
00000000
00000010
00001000
00000001
00000000
00000010
00000100
00001000
00000000
00000010
00000000
00002000
00000000
00000000
00000000
,
00003000
00000100
00000010
00000000
00000010
00000001
00000000
00001000
00000000
00000010
00010000
00000000
00010000
00000000
00001000
00000000
,
00000000
00010000
00100000
00000000
00100000
10000000
00000000
01000000
00000000
00100000
00010000
00000000
00010000
00000000
10000000
00000000
,
00000000
01000000
00100000
00000000
00100000
00001000
00000000
00010000
00000000
00001000
00000100
00000000
00000100
00000000
00000001
00000000
,
00000000
00000010
00000100
00000000
00000100
00010000
00000000
00001000
00000000
00000010
00000001
00000000
00000001
00000000
00001000
00000000
,
00000000
00000010
00000100
00000000
00000100
00001000
00000000
00010000
00000000
00001000
00100000
00000000
00100000
00000000
01000000
00000000
,
00000000
10000000
00100000
00000000
00100000
01000000
00000000
00001000
00000000
00010000
00100000
00000000
00100000
00000000
10000000
00000000
,
00000000
10000000
00100000
00000000
00100000
00010000
00000000
00001000
00000000
00010000
00000100
00000000
00000100
00000000
00000010
00000000
,
00000000
00000001
00000010
00000000
00001000
00000000
00000000
00000010
00000000
00000001
00001000
00000000
00000100
00000000
00000010
00000000
,
00000001
00000000
00000000
00000002
00000000
00000000
00000200
00000000
00000000
00001000
00000303
00000000
,
00001000
00010000
00000000
00001000
01000000
00000000
00010000
00100000
00000000
01000000
10000000
00000000
00000000
00010000
01000000
00000000
,
00100000
10000000
01000000
00000000
00100000
00001000
00000000
00100000
00000000
00010000
01000000
00000000
00100000
00000000
00100000
00000000
,
00100000
10000000
01000000
00000000
00010000
00001000
00000000
00010000
00000000
00000010
00001000
00000000
00000100
00000000
00000100
00000000
,
00000100
00000010
00000001
00000000
00000100
00001000
00000000
00000100
00000000
00000001
00001000
00000000
00000100
00000000
00000100
00000000
,
00000100
00000010
00001000
00000000
00010000
00001000
00000000
00100000
00000000
01000000
10000000
00000000
00010000
00000000
00010000
00000000
,
00010000
00100000
00010000
00000000
01000000
10000000
00000000
00010000
00000000
00100000
10000000
00000000
01000000
00000000
01000000
00000000
,
01000000
00100000
00010000
00000000
01000000
00001000
00000000
00010000
00000000
00000010
00001000
00000000
00000100
00000000
00000100
00000000
,
00000100
00000010
00000001
00000000
00000010
00001000
00000000
00000010
00000000
00000100
00000010
00000000
00000001
00000000
00000001
00000000
,
00000001
00000100
00001000
00000000
00010000
00001000
00000000
00010000
00000000
00100000
10000000
00000000
01000000
00000000
01000000
00000000
,
01000000
00100000
00010000
00000000
00100000
10000000
00000000
00100000
00000000
00001000
01000000
00000000
00100000
00000000
00100000
00000000
,
00100000
10000000
01000000
00000000
00010000
00001000
00000000
00000100
00000000
00000010
00010000
00000000
00000100
00000000
00000100
00000000
,
00000100
00000010
00000001
00000000
00000010
00000100
00000000
00001000
00000000
00000001
00000010
00000000
00001000
00000000
00001000
00000000
,
00001000
00000010
00000001
00000000
00000100
00001000
00000000
00010000
00000000
00100000
10000000
00000000
00010000
00000000
00010000
00000000
,
00010000
00100000
00001000
00000000
01000000
00100000
00000000
01000000
00000000
00010000
10000000
00000000
01000000
00000000
01000000
00000000
,
01000000
10000000
00100000
00000000
00010000
00001000
00000000
00010000
00000000
00001000
00000010
00000000
00000001
00000000
00000001
00000000
,
00000001
00000100
00000010
00000000
00001000
00000100
00000000
00000010
00000000
00000001
00000100
00000000
00000010
00000000
00000010
00000000
,
00000000
00001000
00000000
00000000
00000001
00000000
00000000
00000100
00000000
00001000
00010000
00000000
01000000
00000000
10000000
00000000
,
00010000
00000000
00100000
01000000
10000000
00000000
00010000
00000000
01010000
00000000
10010000
00000000
00000000
00000000
00100000
00000000
,
10000000
00000000
01000000
00100000
00010000
00000000
10000000
00000000
10010000
00000000
01010000
00000000
00000000
00000000
00100000
00000000
,
00001000
00000000
00010000
00000010
00001000
00000000
00000100
00000000
00000110
00000000
00000011
00000000
00000000
00000000
00000100
00000000
,
00000010
00000000
00000001
00000100
00000010
00000000
00001000
00000000
00001001
00000000
00001010
00000000
00000000
00000000
00010000
00000000
,
00001000
00000000
01000000
00010000
10000000
00000000
01000000
00000000
00110000
00000000
10010000
00000000
00000000
00000000
00100000
00000000
,
01000000
00000000
00010000
00100000
01000000
00000000
10000000
00000000
01100000
00000000
00110000
00000000
00000000
00000000
01000000
00000000
,
00001000
00000000
00010000
00000010
00010000
00000000
00000100
00000000
00001100
00000000
00000110
00000000
00000000
00000000
00000001
00000000
,
00000100
00000000
00000010
00001000
00000100
00000000
00000010
00000000
00000011
00000000
00000110
00000000
00000000
00000000
00001000
00000000
,
00010100
00010000
00002000
00200000
,
00010000
00303000
00000000
02000000
00000000
00000000
20000000
00000000
00000000
00010000
33000000
00000000
,
00100000
00001000
00010000
00000000
00010000
00100000
00010000
0000M000
,
00001000
00000100
00000001
00000010
00000100
00000010
00000001
00001000
,
00000110
00000MM0
00000000
00000000
00000000
00000000
00000000
00000000
;

//--------------- lights-cabinet - ----------------
#NOTES:
     lights-cabinet:
     :
     Easy:
     1:
     0.539,0.632,0.275,0.025,0.329:
000000
000000
000000
000000
,
000000
000000
000000
000000
,
000000
000000
000000
000000
,
000000
000000
000000
000000
,
100100
000000
100100
000000
010000
001000
100000
000000
,
000100
000000
100000
000000
001000
010000
000100
000000
,
100000
000000
000100
000000
010000
001000
100000
000000
,
000100
000000
100000
000000
001000
010000
000000
010000
,
000100
000000
100000
000000
001000
010000
000100
000000
,
100000
000000
000100
000000
100000
001000
010000
001000
,
101000
000011
100100
000011
,
100100
000000
000000
011000
000011
000000
100100
000000
000000
011000
000000
000000
100111
000000
000000
000000
,
100000
001000
010000
000100
100000
000000
001000
000000
,
100000
001000
010000
000100
100000
000000
001000
100000
,
000000
100000
000100
000000
010000
001000
100000
000000
,
100000
000100
011000
100100
,
100000
001000
010000
000000
010000
000100
001000
000000
,
000100
010000
000100
000000
100000
000100
100000
001000
,
000000
001000
100000
000000
001000
010000
000100
000000
,
100000
000100
011000
100100
,
100000
001000
010000
000100
100000
000000
001000
000000
,
100000
001000
010000
000100
100000
000000
001000
100000
,
000000
100000
000100
000000
010000
001000
100000
000000
,
100000
000000
000100
000000
011000
100100
011000
000000
,
100000
001000
010000
000000
010000
000100
001000
000000
,
000100
010000
000100
000000
001000
000100
100000
000100
,
000000
000000
000000
111100
000000
000000
100000
000000
,
000100
010000
001000
000000
011000
000000
100100
000000
,
100100
000000
001000
000000
100000
000000
000000
000100
000000
010000
001000
000000
100000
000000
000000
000000
,
000100
010000
000100
000000
100000
000000
000000
000100
000000
100000
001000
000000
010000
000000
000000
000000
,
001000
010000
000100
000000
100000
000000
000000
000100
000000
100000
001000
000000
100000
000000
000000
000000
,
001000
010000
000100
000000
100000
000000
000000
010000
000000
001000
010000
000000
001000
000000
000100
000000
,
100000
000100
010000
000000
000100
000000
000000
010000
000000
000100
010000
000000
001000
000000
000000
000000
,
010000
000100
100000
000000
000100
000000
000000
100000
000000
000100
100000
000000
000100
000000
000000
000000
,
100000
001000
010000
000000
000100
000000
000000
100000
000000
000100
010000
000000
000100
000000
000000
000000
,
010000
000100
100000
000000
001000
000000
000000
010000
000000
001000
010000
000000
001000
000000
010000
000000
,
200200
000000
000000
300300
000000
000000
000000
000000
,
111000
000100
000000
100000
011100
000000
100000
000100
011000
100000
000100
000000
111100
000000
000000
000000
,
100000
000100
010000
000000
000100
000000
000000
100000
000000
001000
100000
000000
000100
000000
010000
000000
,
001000
010000
000100
000000
100000
000000
000000
000100
000000
010000
000100
000000
010000
000000
001000
000000
,
100000
000100
010000
000000
001000
000000
000000
010000
000000
000100
100000
000000
001000
000000
010000
000000
,
001000
100000
000100
000000
010000
000000
000000
001000
000000
100000
000100
000000
010000
001000
010000
000000
,
000100
010000
001000
000000
100000
000000
000000
000100
000000
010000
001000
000000
100000
000000
001000
000000
,
010000
001000
010000
000000
000100
000000
000000
100000
000000
000100
100000
000000
000100
000000
100000
000000
,
001000
010000
001000
000000
010000
000000
000000
000100
000000
100000
001000
000000
100000
000000
000100
000000
,
010000
001000
010000
000000
001000
000000
000000
010000
000000
001000
010000
000000
002000
000000
000000
000000
,
103000
000100
100000
000000
000100
000000
000000
100000
000000
000100
100000
000000
000100
000000
010000
000000
,
001000
010000
001000
000000
010000
000000
000000
000100
000000
010000
001000
000000
100000
000000
000100
000000
,
010000
001000
010000
000000
000100
000000
000000
100000
000000
000100
100000
000000
000100
000000
100000
000000
,
001000
010000
000100
000000
010000
000000
000000
001000
000000
100000
001000
000000
100000
000100
010000
000000
,
000100
100000
001000
000000
010000
000000
000000
001000
000000
010000
000100
000000
100000
000000
001000
000000
,
010000
000100
010000
000000
000100
000000
000000
100000
000000
000100
100000
000000
000100
000000
010000
000000
,
001000
010000
001000
000000
010000
000000
000000
001000
000000
100000
001000
000000
010000
000000
000100
000000
,
010000
001000
010000
000000
001000
000000
000000
010000
000000
001000
010000
000000
100100
000000
000000
000000
,
100000
000000
000100
000000
010000
001000
100000
000000
,
000100
000000
100000
000000
001000
010000
000100
000000
,
100000
000000
000100
000000
010000
001000
100000
000000
,
000100
000000
100000
000000
001000
010000
000000
010000
,
000100
000000
100000
000000
010000
001000
000100
000000
,
100000
000000
000100
000000
010000
001000
100000
000000
,
000100
000000
100000
000000
001000
010000
000100
000000
,
100000
000000
000100
000000
010000
001000
000000
001000
,
100100
000100
010000
001000
,
100000
000000
000100
000000
010000
000000
001000
100000
,
000100
100000
001000
010000
,
000100
000000
100000
000000
001000
000000
100100
011000
,
111100
000000
000000
000000
;
